  0
SECTION
  2
HEADER
  9
$ACADVER
  1
AC1003
  9
$INSBASE
 10
0.000000
 20
0.000000
  9
$EXTMIN
 10
0.000000
 20
0.000000
  9
$EXTMAX
 10
210.000000
 20
297.000000
  9
$LIMMIN
 10
0.000000
 20
0.000000
  9
$LIMMAX
 10
210.000000
 20
297.000000
  9
$VIEWCTR
 10
105.000000
 20
148.500000
  9
$VIEWSIZE
 40
297.000000
  9
$PEXTMIN
 10
0.000000
 20
0.000000
 30
0.000000
  9
$PEXTMAX
 10
210.000000
 20
297.000000
 30
0.000000
  9
$SNAPMODE
 70
     0
  9
$SNAPUNIT
 10
1.000000
 20
1.000000
  9
$SNAPBASE
 10
0.000000
 20
0.000000
  9
$SNAPANG
 50
0.000000
  9
$SNAPISOPAIR
 70
     0
  9
$SNAPSTYLE
 70
     0
  9
$GRIDMODE
 70
     0
  9
$GRIDUNIT
 10
0.000000
 20
0.000000
  9
$ORTHOMODE
 70
     0
  9
$REGENMODE
 70
     1
  9
$FILLMODE
 70
     1
  9
$QTEXTMODE
 70
     0
  9
$DRAGMODE
 70
     2
  9
$LTSCALE
 40
0.250000
  9
$OSMODE
 70
     0
  9
$ATTMODE
 70
     1
  9
$TEXTSIZE
 40
0.200000
  9
$TRACEWID
 40
0.050000
  9
$TEXTSTYLE
  7
STANDARD
  9
$CLAYER
  8
0
  9
$CELTYPE
  6
BYLAYER
  9
$CECOLOR
 62
   256
  9
$DIMSCALE
 40
1.000000
  9
$DIMASZ
 40
1.000000
  9
$DIMEXO
 40
0.000000
  9
$DIMDLI
 40
0.500000
  9
$DIMRND
 40
0.000000
  9
$DIMDLE
 40
0.000000
  9
$DIMEXE
 40
0.000000
  9
$DIMTP
 40
0.000000
  9
$DIMTM
 40
0.000000
  9
$DIMTXT
 40
0.180000
  9
$DIMCEN
 40
0.000000
  9
$DIMTSZ
 40
0.000000
  9
$DIMTOL
 70
     0
  9
$DIMLIM
 70
     0
  9
$DIMTIH
 70
     1
  9
$DIMTOH
 70
     1
  9
$DIMSE1
 70
     0
  9
$DIMSE2
 70
     0
  9
$DIMTAD
 70
     0
  9
$DIMZIN
 70
     0
  9
$DIMBLK
  1

  9
$DIMASO
 70
     0
  9
$DIMSHO
 70
     0
  9
$DIMPOST
  1

  9
$DIMAPOST
  1

  9
$DIMALT
 70
     0
  9
$DIMALTD
 70
     0
  9
$DIMALTF
 40
25.400000
  9
$DIMLFAC
 40
1.000000
  9
$DIMTOFL
 70
     0
  9
$DIMTVP
 40
0.000000
  9
$DIMTIX
 70
     0
  9
$DIMSOXD
 70
     0
  9
$DIMSAH
 70
     0
  9
$DIMBLKL
  1

  9
$DIMBLKR
  1

  9
$LUNITS
 70
     2
  9
$LUPREC
 70
     2
  9
$AXISMODE
 70
     0
  9
$AXISUNIT
 10
1.000000
 20
1.000000
  9
$SKETCHINC
 40
0.000000
  9
$FILLETRAD
 40
0.000000
  9
$AUNITS
 70
     1
  9
$AUPREC
 70
     2
  9
$MENU
  1
ACAD
  9
$ELEVATION
 40
0.000000
  9
$THICKNESS
 40
0.000000
  9
$VIEWDIR
 10
0.000000
 20
0.000000
 30
1.000000
  9
$LIMCHECK
 70
     1
  9
$BLIPMODE
 70
     1
  9
$CHAMFERA
 40
0.000000
  9
$CHAMFERB
 40
0.000000
  9
$FASTZOOM
 70
     1
  9
$SKPOLY
 70
     0
  9
$TDCREATE
 40
0.000000
  9
$TDUPDATE
 40
0.000000
  9
$TDINDWG
 40
0.000000
  9
$TDUSRTIMER
 40
0.000000
  9
$USRTIMER
 70
     1
  9
$ANGBASE
 50
0.000000
  9
$ANGDIR
 70
     0
  9
$PDMODE
 70
     0
  9
$PDSIZE
 40
0.000000
  9
$PLINEWID
 40
0.000000
  9
$COORDS
 70
     2
  9
$USERI1
 70
     0
  9
$USERI2
 70
     0
  9
$USERI3
 70
     0
  9
$USERI4
 70
     0
  9
$USERI5
 70
     0
  9
$USERR1
 40
0.000000
  9
$USERR2
 40
0.000000
  9
$USERR3
 40
0.000000
  9
$USERR4
 40
0.000000
  9
$USERR5
 40
0.000000
  0
ENDSEC
  0
SECTION
  2
TABLES
  0
TABLE
  2
LTYPE
 70
     5
  0
LTYPE
  2
CONTINUOUS
 70
    64
  3
Solid line
 72
    65
 73
     0
 40
0.0
  0
LTYPE
  2
HIDDEN
 70
    64
  3
------------------------
 72
    65
 73
     2
 40
12.6
 49
8.4
 49
-4.2
  0
LTYPE
  2
DOT
 70
    64
  3
････････････････････････
 72
    65
 73
     2
 40
8.0
 49
6.0
 49
-2.0
  0
LTYPE
  2
DASHDOT
 70
    64
  3
--･--･--･--･--･--･--･--
 72
    65
 73
     4
 40
50.5
 49
30.0
 49
-9.0
 49
2.5
 49
-9.0
  0
LTYPE
  2
DIVIDE
 70
    64
  3
--･･--･･--･･--･･--･･--
 72
    65
 73
     6
 40
58.0
 49
30.0
 49
-9.0
 49
2.5
 49
-5.0
 49
2.5
 49
-9.0
  0
LTYPE
  2
ACAD_ISO06W100
 70
    64
  3
____ ... ____ ... ____
 72
    65
 73
     8
 40
37.5
 49
24.0
 49
-3.0
 49
0.5
 49
-3.0
 49
0.5
 49
-3.0
 49
0.5
 49
-3.0
  0
LTYPE
  2
ACAD_ISO14W100
 70
    64
  3
__ . . . __ . . . __ . . . 
 72
    65
 73
     8
 40
25.5
 49
12.0
 49
-3.0
 49
0.5
 49
-3.0
 49
0.5
 49
-3.0
 49
0.5
 49
-3.0
  0
ENDTAB
  0
TABLE
  2
LAYER
 70
3
  0
LAYER
  2
1
 70
64
 62
7
  6
CONTINUOUS
  0
LAYER
  2
2
 70
64
 62
134
  6
CONTINUOUS
  0
LAYER
  2
5
 70
64
 62
94
  6
CONTINUOUS
  0
ENDTAB
  0
TABLE
  2
STYLE
 70
     2
  0
STYLE
  2
STANDARD
 70
    64
 40
0.0
 41
1.0
 50
0.0
 71
     0
 42
0.2
  3
TXT
  4

  0
STYLE
  2
KANJI
 70
    64
 40
0.0
 41
1.0
 50
0.0
 71
     0
 42
0.2
  3
TXT
  4
BIGFONT
  0
ENDTAB
  0
TABLE
  2
VIEW
 70
     0
  0
ENDTAB
  0
ENDSEC
  0
SECTION
  2
BLOCKS
  0
BLOCK
  8
2
 62
134
  6
CONTINUOUS
  2
*D1
 70
    65
 10
0.0
 20
0.0
  0
LINE
  8
2
 62
134
  6
CONTINUOUS
 10
110.000000
 20
104.848655
 11
140.000000
 21
104.848655
  0
LINE
  8
2
 62
134
  6
CONTINUOUS
 10
110.000000
 20
102.848655
 11
110.000000
 21
118.000000
  0
LINE
  8
2
 62
134
  6
CONTINUOUS
 10
140.000000
 20
102.848655
 11
140.000000
 21
114.502242
  0
LINE
  8
2
 62
134
  6
CONTINUOUS
 10
110.000000
 20
104.848655
 11
111.931852
 21
105.366293
  0
LINE
  8
2
 62
134
  6
CONTINUOUS
 10
110.000000
 20
104.848655
 11
111.931852
 21
104.331017
  0
LINE
  8
2
 62
134
  6
CONTINUOUS
 10
111.931852
 20
105.366293
 11
111.931852
 21
104.331017
  0
LINE
  8
2
 62
134
  6
CONTINUOUS
 10
110.482963
 20
104.848655
 11
111.448889
 21
105.107474
  0
LINE
  8
2
 62
134
  6
CONTINUOUS
 10
110.482963
 20
104.848655
 11
111.448889
 21
104.589836
  0
LINE
  8
2
 62
134
  6
CONTINUOUS
 10
111.448889
 20
105.107474
 11
111.448889
 21
104.589836
  0
LINE
  8
2
 62
134
  6
CONTINUOUS
 10
140.000000
 20
104.848655
 11
138.068148
 21
104.331017
  0
LINE
  8
2
 62
134
  6
CONTINUOUS
 10
140.000000
 20
104.848655
 11
138.068148
 21
105.366293
  0
LINE
  8
2
 62
134
  6
CONTINUOUS
 10
138.068148
 20
104.331017
 11
138.068148
 21
105.366293
  0
LINE
  8
2
 62
134
  6
CONTINUOUS
 10
139.517037
 20
104.848655
 11
138.551111
 21
104.589836
  0
LINE
  8
2
 62
134
  6
CONTINUOUS
 10
139.517037
 20
104.848655
 11
138.551111
 21
105.107474
  0
LINE
  8
2
 62
134
  6
CONTINUOUS
 10
138.551111
 20
104.589836
 11
138.551111
 21
105.107474
  0
TEXT
  8
2
 62
134
  6
CONTINUOUS
 10
123.000000
 20
105.348655
 40
4.000000
 41
0.500000
  1
30
  7
KANJI
 50
0.000000
 51
30.000000
  0
ENDBLK
  0
BLOCK
  8
2
 62
134
  6
CONTINUOUS
  2
*D2
 70
    65
 10
0.0
 20
0.0
  0
LINE
  8
2
 62
134
  6
CONTINUOUS
 10
110.000000
 20
96.191704
 11
180.000000
 21
96.191704
  0
LINE
  8
2
 62
134
  6
CONTINUOUS
 10
110.000000
 20
94.191704
 11
110.000000
 21
118.000000
  0
LINE
  8
2
 62
134
  6
CONTINUOUS
 10
180.000000
 20
94.191704
 11
180.000000
 21
118.000000
  0
LINE
  8
2
 62
134
  6
CONTINUOUS
 10
110.000000
 20
96.191704
 11
111.931852
 21
96.709342
  0
LINE
  8
2
 62
134
  6
CONTINUOUS
 10
110.000000
 20
96.191704
 11
111.931852
 21
95.674066
  0
LINE
  8
2
 62
134
  6
CONTINUOUS
 10
111.931852
 20
96.709342
 11
111.931852
 21
95.674066
  0
LINE
  8
2
 62
134
  6
CONTINUOUS
 10
110.482963
 20
96.191704
 11
111.448889
 21
96.450523
  0
LINE
  8
2
 62
134
  6
CONTINUOUS
 10
110.482963
 20
96.191704
 11
111.448889
 21
95.932885
  0
LINE
  8
2
 62
134
  6
CONTINUOUS
 10
111.448889
 20
96.450523
 11
111.448889
 21
95.932885
  0
LINE
  8
2
 62
134
  6
CONTINUOUS
 10
180.000000
 20
96.191704
 11
178.068148
 21
95.674066
  0
LINE
  8
2
 62
134
  6
CONTINUOUS
 10
180.000000
 20
96.191704
 11
178.068148
 21
96.709342
  0
LINE
  8
2
 62
134
  6
CONTINUOUS
 10
178.068148
 20
95.674066
 11
178.068148
 21
96.709342
  0
LINE
  8
2
 62
134
  6
CONTINUOUS
 10
179.517037
 20
96.191704
 11
178.551111
 21
95.932885
  0
LINE
  8
2
 62
134
  6
CONTINUOUS
 10
179.517037
 20
96.191704
 11
178.551111
 21
96.450523
  0
LINE
  8
2
 62
134
  6
CONTINUOUS
 10
178.551111
 20
95.932885
 11
178.551111
 21
96.450523
  0
TEXT
  8
2
 62
134
  6
CONTINUOUS
 10
143.000000
 20
96.691704
 40
4.000000
 41
0.500000
  1
70
  7
KANJI
 50
0.000000
 51
30.000000
  0
ENDBLK
  0
BLOCK
  8
2
 62
134
  6
CONTINUOUS
  2
*D3
 70
    65
 10
0.0
 20
0.0
  0
LINE
  8
2
 62
134
  6
CONTINUOUS
 10
102.551570
 20
120.000000
 11
102.551570
 21
135.000000
  0
LINE
  8
2
 62
134
  6
CONTINUOUS
 10
100.551570
 20
120.000000
 11
108.000000
 21
120.000000
  0
LINE
  8
2
 62
134
  6
CONTINUOUS
 10
100.551570
 20
135.000000
 11
120.529148
 21
135.000000
  0
LINE
  8
2
 62
134
  6
CONTINUOUS
 10
102.551570
 20
120.000000
 11
102.033931
 21
121.931852
  0
LINE
  8
2
 62
134
  6
CONTINUOUS
 10
102.551570
 20
120.000000
 11
103.069208
 21
121.931852
  0
LINE
  8
2
 62
134
  6
CONTINUOUS
 10
102.033931
 20
121.931852
 11
103.069208
 21
121.931852
  0
LINE
  8
2
 62
134
  6
CONTINUOUS
 10
102.551570
 20
120.482963
 11
102.292750
 21
121.448889
  0
LINE
  8
2
 62
134
  6
CONTINUOUS
 10
102.551570
 20
120.482963
 11
102.810389
 21
121.448889
  0
LINE
  8
2
 62
134
  6
CONTINUOUS
 10
102.292750
 20
121.448889
 11
102.810389
 21
121.448889
  0
LINE
  8
2
 62
134
  6
CONTINUOUS
 10
102.551570
 20
135.000000
 11
103.069208
 21
133.068148
  0
LINE
  8
2
 62
134
  6
CONTINUOUS
 10
102.551570
 20
135.000000
 11
102.033931
 21
133.068148
  0
LINE
  8
2
 62
134
  6
CONTINUOUS
 10
103.069208
 20
133.068148
 11
102.033931
 21
133.068148
  0
LINE
  8
2
 62
134
  6
CONTINUOUS
 10
102.551570
 20
134.517037
 11
102.810389
 21
133.551111
  0
LINE
  8
2
 62
134
  6
CONTINUOUS
 10
102.551570
 20
134.517037
 11
102.292750
 21
133.551111
  0
LINE
  8
2
 62
134
  6
CONTINUOUS
 10
102.810389
 20
133.551111
 11
102.292750
 21
133.551111
  0
TEXT
  8
2
 62
134
  6
CONTINUOUS
 10
102.051570
 20
125.500000
 40
4.000000
 41
0.500000
  1
15
  7
KANJI
 50
90.000000
 51
30.000000
  0
ENDBLK
  0
BLOCK
  8
2
 62
134
  6
CONTINUOUS
  2
*D4
 70
    65
 10
0.0
 20
0.0
  0
LINE
  8
2
 62
134
  6
CONTINUOUS
 10
96.558296
 20
120.000000
 11
96.558296
 21
160.000000
  0
LINE
  8
2
 62
134
  6
CONTINUOUS
 10
94.558296
 20
120.000000
 11
108.000000
 21
120.000000
  0
LINE
  8
2
 62
134
  6
CONTINUOUS
 10
94.558296
 20
160.000000
 11
110.000000
 21
160.000000
  0
LINE
  8
2
 62
134
  6
CONTINUOUS
 10
96.558296
 20
120.000000
 11
96.040658
 21
121.931852
  0
LINE
  8
2
 62
134
  6
CONTINUOUS
 10
96.558296
 20
120.000000
 11
97.075934
 21
121.931852
  0
LINE
  8
2
 62
134
  6
CONTINUOUS
 10
96.040658
 20
121.931852
 11
97.075934
 21
121.931852
  0
LINE
  8
2
 62
134
  6
CONTINUOUS
 10
96.558296
 20
120.482963
 11
96.299477
 21
121.448889
  0
LINE
  8
2
 62
134
  6
CONTINUOUS
 10
96.558296
 20
120.482963
 11
96.817115
 21
121.448889
  0
LINE
  8
2
 62
134
  6
CONTINUOUS
 10
96.299477
 20
121.448889
 11
96.817115
 21
121.448889
  0
LINE
  8
2
 62
134
  6
CONTINUOUS
 10
96.558296
 20
160.000000
 11
97.075934
 21
158.068148
  0
LINE
  8
2
 62
134
  6
CONTINUOUS
 10
96.558296
 20
160.000000
 11
96.040658
 21
158.068148
  0
LINE
  8
2
 62
134
  6
CONTINUOUS
 10
97.075934
 20
158.068148
 11
96.040658
 21
158.068148
  0
LINE
  8
2
 62
134
  6
CONTINUOUS
 10
96.558296
 20
159.517037
 11
96.817115
 21
158.551111
  0
LINE
  8
2
 62
134
  6
CONTINUOUS
 10
96.558296
 20
159.517037
 11
96.299477
 21
158.551111
  0
LINE
  8
2
 62
134
  6
CONTINUOUS
 10
96.817115
 20
158.551111
 11
96.299477
 21
158.551111
  0
TEXT
  8
2
 62
134
  6
CONTINUOUS
 10
96.058296
 20
138.000000
 40
4.000000
 41
0.500000
  1
40
  7
KANJI
 50
90.000000
 51
30.000000
  0
ENDBLK
  0
BLOCK
  8
2
 62
134
  6
CONTINUOUS
  2
*D5
 70
    65
 10
0.0
 20
0.0
  0
LINE
  8
2
 62
134
  6
CONTINUOUS
 10
110.000000
 20
168.776906
 11
130.000000
 21
168.776906
  0
LINE
  8
2
 62
134
  6
CONTINUOUS
 10
110.000000
 20
170.776906
 11
110.000000
 21
160.000000
  0
LINE
  8
2
 62
134
  6
CONTINUOUS
 10
130.000000
 20
170.776906
 11
130.000000
 21
142.000000
  0
LINE
  8
2
 62
134
  6
CONTINUOUS
 10
110.000000
 20
168.776906
 11
111.931852
 21
169.294544
  0
LINE
  8
2
 62
134
  6
CONTINUOUS
 10
110.000000
 20
168.776906
 11
111.931852
 21
168.259268
  0
LINE
  8
2
 62
134
  6
CONTINUOUS
 10
111.931852
 20
169.294544
 11
111.931852
 21
168.259268
  0
LINE
  8
2
 62
134
  6
CONTINUOUS
 10
110.482963
 20
168.776906
 11
111.448889
 21
169.035725
  0
LINE
  8
2
 62
134
  6
CONTINUOUS
 10
110.482963
 20
168.776906
 11
111.448889
 21
168.518087
  0
LINE
  8
2
 62
134
  6
CONTINUOUS
 10
111.448889
 20
169.035725
 11
111.448889
 21
168.518087
  0
LINE
  8
2
 62
134
  6
CONTINUOUS
 10
130.000000
 20
168.776906
 11
128.068148
 21
168.259268
  0
LINE
  8
2
 62
134
  6
CONTINUOUS
 10
130.000000
 20
168.776906
 11
128.068148
 21
169.294544
  0
LINE
  8
2
 62
134
  6
CONTINUOUS
 10
128.068148
 20
168.259268
 11
128.068148
 21
169.294544
  0
LINE
  8
2
 62
134
  6
CONTINUOUS
 10
129.517037
 20
168.776906
 11
128.551111
 21
168.518087
  0
LINE
  8
2
 62
134
  6
CONTINUOUS
 10
129.517037
 20
168.776906
 11
128.551111
 21
169.035725
  0
LINE
  8
2
 62
134
  6
CONTINUOUS
 10
128.551111
 20
168.518087
 11
128.551111
 21
169.035725
  0
TEXT
  8
2
 62
134
  6
CONTINUOUS
 10
118.000000
 20
169.276906
 40
4.000000
 41
0.500000
  1
20
  7
KANJI
 50
0.000000
 51
30.000000
  0
ENDBLK
  0
BLOCK
  8
2
 62
134
  6
CONTINUOUS
  2
*D6
 70
    65
 10
0.0
 20
0.0
  0
LINE
  8
2
 62
134
  6
CONTINUOUS
 10
130.000000
 20
168.776906
 11
150.000000
 21
168.776906
  0
LINE
  8
2
 62
134
  6
CONTINUOUS
 10
150.000000
 20
170.776906
 11
150.000000
 21
142.808296
  0
LINE
  8
2
 62
134
  6
CONTINUOUS
 10
130.000000
 20
168.776906
 11
131.931852
 21
169.294544
  0
LINE
  8
2
 62
134
  6
CONTINUOUS
 10
130.000000
 20
168.776906
 11
131.931852
 21
168.259268
  0
LINE
  8
2
 62
134
  6
CONTINUOUS
 10
131.931852
 20
169.294544
 11
131.931852
 21
168.259268
  0
LINE
  8
2
 62
134
  6
CONTINUOUS
 10
130.482963
 20
168.776906
 11
131.448889
 21
169.035725
  0
LINE
  8
2
 62
134
  6
CONTINUOUS
 10
130.482963
 20
168.776906
 11
131.448889
 21
168.518087
  0
LINE
  8
2
 62
134
  6
CONTINUOUS
 10
131.448889
 20
169.035725
 11
131.448889
 21
168.518087
  0
LINE
  8
2
 62
134
  6
CONTINUOUS
 10
150.000000
 20
168.776906
 11
148.068148
 21
168.259268
  0
LINE
  8
2
 62
134
  6
CONTINUOUS
 10
150.000000
 20
168.776906
 11
148.068148
 21
169.294544
  0
LINE
  8
2
 62
134
  6
CONTINUOUS
 10
148.068148
 20
168.259268
 11
148.068148
 21
169.294544
  0
LINE
  8
2
 62
134
  6
CONTINUOUS
 10
149.517037
 20
168.776906
 11
148.551111
 21
168.518087
  0
LINE
  8
2
 62
134
  6
CONTINUOUS
 10
149.517037
 20
168.776906
 11
148.551111
 21
169.035725
  0
LINE
  8
2
 62
134
  6
CONTINUOUS
 10
148.551111
 20
168.518087
 11
148.551111
 21
169.035725
  0
TEXT
  8
2
 62
134
  6
CONTINUOUS
 10
138.000000
 20
169.276906
 40
4.000000
 41
0.500000
  1
20
  7
KANJI
 50
0.000000
 51
30.000000
  0
ENDBLK
  0
BLOCK
  8
2
 62
134
  6
CONTINUOUS
  2
*D7
 70
    65
 10
0.0
 20
0.0
  0
LINE
  8
2
 62
134
  6
CONTINUOUS
 10
150.000000
 20
168.776906
 11
170.000000
 21
168.776906
  0
LINE
  8
2
 62
134
  6
CONTINUOUS
 10
170.000000
 20
170.776906
 11
170.000000
 21
142.475336
  0
LINE
  8
2
 62
134
  6
CONTINUOUS
 10
150.000000
 20
168.776906
 11
151.931852
 21
169.294544
  0
LINE
  8
2
 62
134
  6
CONTINUOUS
 10
150.000000
 20
168.776906
 11
151.931852
 21
168.259268
  0
LINE
  8
2
 62
134
  6
CONTINUOUS
 10
151.931852
 20
169.294544
 11
151.931852
 21
168.259268
  0
LINE
  8
2
 62
134
  6
CONTINUOUS
 10
150.482963
 20
168.776906
 11
151.448889
 21
169.035725
  0
LINE
  8
2
 62
134
  6
CONTINUOUS
 10
150.482963
 20
168.776906
 11
151.448889
 21
168.518087
  0
LINE
  8
2
 62
134
  6
CONTINUOUS
 10
151.448889
 20
169.035725
 11
151.448889
 21
168.518087
  0
LINE
  8
2
 62
134
  6
CONTINUOUS
 10
170.000000
 20
168.776906
 11
168.068148
 21
168.259268
  0
LINE
  8
2
 62
134
  6
CONTINUOUS
 10
170.000000
 20
168.776906
 11
168.068148
 21
169.294544
  0
LINE
  8
2
 62
134
  6
CONTINUOUS
 10
168.068148
 20
168.259268
 11
168.068148
 21
169.294544
  0
LINE
  8
2
 62
134
  6
CONTINUOUS
 10
169.517037
 20
168.776906
 11
168.551111
 21
168.518087
  0
LINE
  8
2
 62
134
  6
CONTINUOUS
 10
169.517037
 20
168.776906
 11
168.551111
 21
169.035725
  0
LINE
  8
2
 62
134
  6
CONTINUOUS
 10
168.551111
 20
168.518087
 11
168.551111
 21
169.035725
  0
TEXT
  8
2
 62
134
  6
CONTINUOUS
 10
158.000000
 20
169.276906
 40
4.000000
 41
0.500000
  1
20
  7
KANJI
 50
0.000000
 51
30.000000
  0
ENDBLK
  0
BLOCK
  8
2
 62
134
  6
CONTINUOUS
  2
*D8
 70
    65
 10
0.0
 20
0.0
  0
LINE
  8
2
 62
134
  6
CONTINUOUS
 10
30.000000
 20
105.514574
 11
65.000000
 21
105.514574
  0
LINE
  8
2
 62
134
  6
CONTINUOUS
 10
30.000000
 20
103.514574
 11
30.000000
 21
118.000000
  0
LINE
  8
2
 62
134
  6
CONTINUOUS
 10
65.000000
 20
103.514574
 11
65.000000
 21
118.000000
  0
LINE
  8
2
 62
134
  6
CONTINUOUS
 10
30.000000
 20
105.514574
 11
31.931852
 21
106.032212
  0
LINE
  8
2
 62
134
  6
CONTINUOUS
 10
30.000000
 20
105.514574
 11
31.931852
 21
104.996936
  0
LINE
  8
2
 62
134
  6
CONTINUOUS
 10
31.931852
 20
106.032212
 11
31.931852
 21
104.996936
  0
LINE
  8
2
 62
134
  6
CONTINUOUS
 10
30.482963
 20
105.514574
 11
31.448889
 21
105.773393
  0
LINE
  8
2
 62
134
  6
CONTINUOUS
 10
30.482963
 20
105.514574
 11
31.448889
 21
105.255755
  0
LINE
  8
2
 62
134
  6
CONTINUOUS
 10
31.448889
 20
105.773393
 11
31.448889
 21
105.255755
  0
LINE
  8
2
 62
134
  6
CONTINUOUS
 10
65.000000
 20
105.514574
 11
63.068148
 21
104.996936
  0
LINE
  8
2
 62
134
  6
CONTINUOUS
 10
65.000000
 20
105.514574
 11
63.068148
 21
106.032212
  0
LINE
  8
2
 62
134
  6
CONTINUOUS
 10
63.068148
 20
104.996936
 11
63.068148
 21
106.032212
  0
LINE
  8
2
 62
134
  6
CONTINUOUS
 10
64.517037
 20
105.514574
 11
63.551111
 21
105.255755
  0
LINE
  8
2
 62
134
  6
CONTINUOUS
 10
64.517037
 20
105.514574
 11
63.551111
 21
105.773393
  0
LINE
  8
2
 62
134
  6
CONTINUOUS
 10
63.551111
 20
105.255755
 11
63.551111
 21
105.773393
  0
TEXT
  8
2
 62
134
  6
CONTINUOUS
 10
45.500000
 20
106.014574
 40
4.000000
 41
0.500000
  1
35
  7
KANJI
 50
0.000000
 51
30.000000
  0
ENDBLK
  0
BLOCK
  8
2
 62
134
  6
CONTINUOUS
  2
*D9
 70
    65
 10
0.0
 20
0.0
  0
LINE
  8
2
 62
134
  6
CONTINUOUS
 10
30.000000
 20
95.858744
 11
90.000000
 21
95.858744
  0
LINE
  8
2
 62
134
  6
CONTINUOUS
 10
30.000000
 20
93.858744
 11
30.000000
 21
118.000000
  0
LINE
  8
2
 62
134
  6
CONTINUOUS
 10
90.000000
 20
93.858744
 11
90.000000
 21
118.000000
  0
LINE
  8
2
 62
134
  6
CONTINUOUS
 10
30.000000
 20
95.858744
 11
31.931852
 21
96.376382
  0
LINE
  8
2
 62
134
  6
CONTINUOUS
 10
30.000000
 20
95.858744
 11
31.931852
 21
95.341106
  0
LINE
  8
2
 62
134
  6
CONTINUOUS
 10
31.931852
 20
96.376382
 11
31.931852
 21
95.341106
  0
LINE
  8
2
 62
134
  6
CONTINUOUS
 10
30.482963
 20
95.858744
 11
31.448889
 21
96.117563
  0
LINE
  8
2
 62
134
  6
CONTINUOUS
 10
30.482963
 20
95.858744
 11
31.448889
 21
95.599925
  0
LINE
  8
2
 62
134
  6
CONTINUOUS
 10
31.448889
 20
96.117563
 11
31.448889
 21
95.599925
  0
LINE
  8
2
 62
134
  6
CONTINUOUS
 10
90.000000
 20
95.858744
 11
88.068148
 21
95.341106
  0
LINE
  8
2
 62
134
  6
CONTINUOUS
 10
90.000000
 20
95.858744
 11
88.068148
 21
96.376382
  0
LINE
  8
2
 62
134
  6
CONTINUOUS
 10
88.068148
 20
95.341106
 11
88.068148
 21
96.376382
  0
LINE
  8
2
 62
134
  6
CONTINUOUS
 10
89.517037
 20
95.858744
 11
88.551111
 21
95.599925
  0
LINE
  8
2
 62
134
  6
CONTINUOUS
 10
89.517037
 20
95.858744
 11
88.551111
 21
96.117563
  0
LINE
  8
2
 62
134
  6
CONTINUOUS
 10
88.551111
 20
95.599925
 11
88.551111
 21
96.117563
  0
TEXT
  8
2
 62
134
  6
CONTINUOUS
 10
58.000000
 20
96.358744
 40
4.000000
 41
0.500000
  1
60
  7
KANJI
 50
0.000000
 51
30.000000
  0
ENDBLK
  0
BLOCK
  8
2
 62
134
  6
CONTINUOUS
  2
*D10
 70
    65
 10
0.0
 20
0.0
  0
LINE
  8
2
 62
134
  6
CONTINUOUS
 10
111.000000
 20
191.000000
 11
100.000000
 21
180.000000
  0
LINE
  8
2
 62
134
  6
CONTINUOUS
 10
111.000000
 20
191.000000
 11
110.000000
 21
189.267949
  0
LINE
  8
2
 62
134
  6
CONTINUOUS
 10
111.000000
 20
191.000000
 11
109.267949
 21
190.000000
  0
LINE
  8
2
 62
134
  6
CONTINUOUS
 10
110.000000
 20
189.267949
 11
109.267949
 21
190.000000
  0
LINE
  8
2
 62
134
  6
CONTINUOUS
 10
110.658494
 20
190.658494
 11
110.158494
 21
189.792468
  0
LINE
  8
2
 62
134
  6
CONTINUOUS
 10
110.658494
 20
190.658494
 11
109.792468
 21
190.158494
  0
LINE
  8
2
 62
134
  6
CONTINUOUS
 10
110.158494
 20
189.792468
 11
109.792468
 21
190.158494
  0
TEXT
  8
2
 62
134
  6
CONTINUOUS
 10
99.646447
 20
180.353553
 40
4.000000
 41
0.500000
  1
2-C2
  7
KANJI
 50
45.000000
 51
30.000000
  0
ENDBLK
  0
ENDSEC
  0
SECTION
  2
ENTITIES
  0
TEXT
  8
5
 62
94
  6
CONTINUOUS
 10
125.962748
 20
25.651490
 40
1.750000
 41
4.000000
  1
製図
  7
KANJI
 50
-90.000000
 51
0.000000
  0
TEXT
  8
5
 62
94
  6
CONTINUOUS
 10
145.795530
 20
25.487583
 40
1.750000
 41
4.000000
  1
図番
  7
KANJI
 50
-90.000000
 51
0.000000
  0
TEXT
  8
5
 62
94
  6
CONTINUOUS
 10
145.795530
 20
38.764073
 40
1.750000
 41
4.000000
  1
図　名
  7
KANJI
 50
-90.000000
 51
0.000000
  0
TEXT
  8
5
 62
94
  6
CONTINUOUS
 10
80.888245
 20
33.355132
 40
1.750000
 41
4.000000
  1
日付
  7
KANJI
 50
-90.000000
 51
0.000000
  0
TEXT
  8
5
 62
94
  6
CONTINUOUS
 10
115.964404
 20
33.519040
 40
1.750000
 41
4.000000
  1
図法
  7
KANJI
 50
-90.000000
 51
0.000000
  0
TEXT
  8
5
 62
94
  6
CONTINUOUS
 10
115.800497
 20
41.550497
 40
1.750000
 41
4.000000
  1
尺度
  7
KANJI
 50
-90.000000
 51
0.000000
  0
TEXT
  8
5
 62
94
  6
CONTINUOUS
 10
80.888245
 20
41.386589
 40
1.750000
 41
4.000000
  1
公差
  7
KANJI
 50
-90.000000
 51
0.000000
  0
TEXT
  8
5
 62
94
  6
CONTINUOUS
 10
80.888245
 20
25.487583
 40
1.750000
 41
4.000000
  1
承認
  7
KANJI
 50
-90.000000
 51
0.000000
  0
TEXT
  8
5
 62
94
  6
CONTINUOUS
 10
105.966060
 20
25.487583
 40
1.750000
 41
4.000000
  1
設計
  7
KANJI
 50
-90.000000
 51
0.000000
  0
TEXT
  8
5
 62
94
  6
CONTINUOUS
 10
99.409768
 20
11.555464
 40
4.500000
 41
1.888889
  1
ジャパンセンサー株式会社
  7
KANJI
 50
0.000000
 51
0.000000
  0
LINE
  8
5
 62
94
  6
CONTINUOUS
 10
200.000000
 20
10.000000
 11
200.000000
 21
285.000000
  0
LINE
  8
5
 62
94
  6
CONTINUOUS
 10
200.000000
 20
285.000000
 11
15.000000
 21
285.000000
  0
LINE
  8
5
 62
94
  6
CONTINUOUS
 10
15.000000
 20
285.000000
 11
15.000000
 21
10.000000
  0
LINE
  8
5
 62
94
  6
CONTINUOUS
 10
15.000000
 20
10.000000
 11
200.000000
 21
10.000000
  0
LINE
  8
5
 62
94
  6
CONTINUOUS
 10
80.000000
 20
42.000000
 11
200.000000
 21
42.000000
  0
LINE
  8
5
 62
94
  6
CONTINUOUS
 10
80.000000
 20
10.000000
 11
80.000000
 21
42.000000
  0
LINE
  8
5
 62
94
  6
CONTINUOUS
 10
200.000000
 20
18.000000
 11
80.000000
 21
18.000000
  0
LINE
  8
5
 62
94
  6
CONTINUOUS
 10
145.000000
 20
42.000000
 11
145.000000
 21
18.000000
  0
LINE
  8
5
 62
94
  6
CONTINUOUS
 10
200.000000
 20
26.000000
 11
80.000000
 21
26.000000
  0
LINE
  8
5
 62
94
  6
CONTINUOUS
 10
150.000000
 20
18.000000
 11
150.000000
 21
42.000000
  0
LINE
  8
5
 62
94
  6
CONTINUOUS
 10
120.000000
 20
42.000000
 11
120.000000
 21
26.000000
  0
LINE
  8
5
 62
94
  6
CONTINUOUS
 10
85.000000
 20
18.000000
 11
85.000000
 21
42.000000
  0
LINE
  8
5
 62
94
  6
CONTINUOUS
 10
80.000000
 20
34.000000
 11
145.000000
 21
34.000000
  0
LINE
  8
5
 62
94
  6
CONTINUOUS
 10
115.000000
 20
42.000000
 11
115.000000
 21
26.000000
  0
LINE
  8
5
 62
94
  6
CONTINUOUS
 10
105.000000
 20
18.000000
 11
105.000000
 21
26.000000
  0
LINE
  8
5
 62
94
  6
CONTINUOUS
 10
125.000000
 20
18.000000
 11
125.000000
 21
26.000000
  0
LINE
  8
5
 62
94
  6
CONTINUOUS
 10
110.000000
 20
26.000000
 11
110.000000
 21
18.000000
  0
LINE
  8
5
 62
94
  6
CONTINUOUS
 10
130.000000
 20
26.000000
 11
130.000000
 21
18.000000
  0
TEXT
  8
5
 62
94
  6
CONTINUOUS
 10
124.979305
 20
35.649834
 40
4.000000
 41
1.000000
  1
１／１
  7
KANJI
 50
0.000000
 51
0.000000
  0
TEXT
  8
5
 62
94
  6
CONTINUOUS
 10
123.995861
 20
27.290563
 40
4.000000
 41
1.000000
  1
三角法
  7
KANJI
 50
0.000000
 51
0.000000
  0
TEXT
  8
5
 62
94
  6
CONTINUOUS
 10
111.211093
 20
19.750828
 40
4.000000
 41
1.000000
  1
須藤
  7
KANJI
 50
0.810149
 51
0.000000
  0
TEXT
  8
5
 62
94
  6
CONTINUOUS
 10
131.207781
 20
19.914735
 40
4.000000
 41
1.000000
  1
須藤
  7
KANJI
 50
-0.112820
 51
0.000000
  0
TEXT
  8
2
 62
134
  6
CONTINUOUS
 10
161.017779
 20
262.084589
 40
4.000000
 41
1.000000
  1
ｔ１．５
  7
KANJI
 50
0.000000
 51
0.000000
  0
LINE
  8
2
 62
134
  6
CONTINUOUS
 10
160.725456
 20
260.330652
 11
179.141794
 21
260.330652
  0
LINE
  8
1
 62
7
  6
DASHDOT
 10
122.529148
 20
135.000000
 11
180.000000
 21
135.000000
  0
LINE
  8
1
 62
7
  6
DASHDOT
 10
170.000000
 20
145.888841
 11
170.000000
 21
124.493274
  0
LINE
  8
1
 62
7
  6
DASHDOT
 10
150.000000
 20
144.299520
 11
150.000000
 21
126.491031
  0
LINE
  8
1
 62
7
  6
DASHDOT
 10
130.000000
 20
144.299520
 11
130.000000
 21
125.492152
  0
LINE
  8
1
 62
7
  6
DASHDOT
 10
65.000000
 20
129.820628
 11
65.000000
 21
114.171525
  0
LINE
  8
1
 62
7
  6
DASHDOT
 10
22.308296
 20
135.000000
 11
39.289238
 21
135.000000
  0
LINE
  8
1
 62
7
  6
CONTINUOUS
 10
110.000000
 20
121.500000
 11
135.000000
 21
121.500000
  0
LINE
  8
1
 62
7
  6
CONTINUOUS
 10
110.000000
 20
120.000000
 11
180.000000
 21
120.000000
  0
LINE
  8
1
 62
7
  6
CONTINUOUS
 10
178.000000
 20
160.000000
 11
112.000000
 21
160.000000
  0
LINE
  8
1
 62
7
  6
CONTINUOUS
 10
110.000000
 20
120.000000
 11
110.000000
 21
158.000000
  0
LINE
  8
1
 62
7
  6
CONTINUOUS
 10
112.000000
 20
160.000000
 11
110.000000
 21
158.000000
  0
CIRCLE
  8
1
 62
7
  6
CONTINUOUS
 10
170.000000
 20
135.000000
 40
2.000000
  0
CIRCLE
  8
1
 62
7
  6
CONTINUOUS
 10
150.000000
 20
135.000000
 40
2.000000
  0
ARC
  8
1
 62
7
  6
CONTINUOUS
 10
130.000000
 20
132.000000
 40
2.000000
 50
180.000000
 51
-90.000000
  0
LINE
  8
1
 62
7
  6
CONTINUOUS
 10
128.000000
 20
132.000000
 11
128.000000
 21
138.000000
  0
ARC
  8
1
 62
7
  6
CONTINUOUS
 10
130.000000
 20
138.000000
 40
2.000000
 50
90.000000
 51
180.000000
  0
ARC
  8
1
 62
7
  6
CONTINUOUS
 10
130.000000
 20
132.000000
 40
2.000000
 50
-90.000000
 51
0.000000
  0
LINE
  8
1
 62
7
  6
CONTINUOUS
 10
132.000000
 20
138.000000
 11
132.000000
 21
132.000000
  0
ARC
  8
1
 62
7
  6
CONTINUOUS
 10
130.000000
 20
138.000000
 40
2.000000
 50
0.000000
 51
90.000000
  0
LINE
  8
1
 62
7
  6
CONTINUOUS
 10
132.551427
 20
120.006398
 11
135.766978
 21
120.006398
  0
LINE
  8
1
 62
7
  6
CONTINUOUS
 10
143.912378
 20
125.122047
 11
143.912378
 21
120.000000
  0
LINE
  8
1
 62
7
  6
CONTINUOUS
 10
136.087622
 20
125.122047
 11
136.087622
 21
120.000000
  0
LINE
  8
1
 62
7
  6
CONTINUOUS
 10
133.568898
 20
125.122047
 11
134.305364
 21
125.122047
  0
LINE
  8
1
 62
7
  6
CONTINUOUS
 10
133.939961
 20
125.122047
 11
146.431102
 21
125.122047
  0
LINE
  8
1
 62
7
  6
CONTINUOUS
 10
144.677165
 20
125.122047
 11
144.677165
 21
120.000000
  0
LINE
  8
1
 62
7
  6
CONTINUOUS
 10
135.322835
 20
125.122047
 11
135.322835
 21
120.000000
  0
LINE
  8
1
 62
7
  6
CONTINUOUS
 10
135.322835
 20
125.122047
 11
135.322835
 21
120.000000
  0
LINE
  8
1
 62
7
  6
CONTINUOUS
 10
135.913140
 20
125.122047
 11
133.568898
 21
125.122047
  0
LINE
  8
1
 62
7
  6
CONTINUOUS
 10
133.568898
 20
125.122047
 11
133.568898
 21
121.500000
  0
LINE
  8
1
 62
7
  6
CONTINUOUS
 10
135.000000
 20
121.500000
 11
135.000000
 21
120.006398
  0
LINE
  8
1
 62
7
  6
CONTINUOUS
 10
146.431102
 20
125.122047
 11
146.431102
 21
121.500000
  0
LINE
  8
1
 62
7
  6
CONTINUOUS
 10
145.000000
 20
120.000000
 11
145.000000
 21
121.500000
  0
LINE
  8
1
 62
7
  6
CONTINUOUS
 10
145.000000
 20
121.500000
 11
180.000000
 21
121.500000
  0
LINE
  8
1
 62
7
  6
CONTINUOUS
 10
180.000000
 20
120.000000
 11
180.000000
 21
158.000000
  0
LINE
  8
1
 62
7
  6
CONTINUOUS
 10
178.000000
 20
160.000000
 11
180.000000
 21
158.000000
  0
LINE
  8
1
 62
7
  6
DASHDOT
 10
140.000000
 20
130.767532
 11
140.000000
 21
112.990650
  0
LINE
  8
1
 62
7
  6
CONTINUOUS
 10
90.000000
 20
121.500000
 11
31.500000
 21
121.500000
  0
LINE
  8
1
 62
7
  6
CONTINUOUS
 10
30.000000
 20
120.000000
 11
90.000000
 21
120.000000
  0
LINE
  8
1
 62
7
  6
CONTINUOUS
 10
90.000000
 20
120.000000
 11
90.000000
 21
121.500000
  0
LINE
  8
1
 62
7
  6
CONTINUOUS
 10
71.431102
 20
125.122047
 11
70.694636
 21
125.122047
  0
LINE
  8
1
 62
7
  6
CONTINUOUS
 10
71.060039
 20
125.122047
 11
58.568898
 21
125.122047
  0
LINE
  8
1
 62
7
  6
CONTINUOUS
 10
69.086860
 20
125.122047
 11
71.431102
 21
125.122047
  0
LINE
  8
1
 62
7
  6
CONTINUOUS
 10
71.431102
 20
125.122047
 11
71.431102
 21
121.500000
  0
LINE
  8
1
 62
7
  6
CONTINUOUS
 10
58.568898
 20
125.122047
 11
58.568898
 21
121.500000
  0
LINE
  8
1
 62
7
  6
CONTINUOUS
 10
31.500000
 20
121.500000
 11
31.500000
 21
160.000000
  0
LINE
  8
1
 62
7
  6
CONTINUOUS
 10
31.500000
 20
160.000000
 11
30.000000
 21
160.000000
  0
LINE
  8
1
 62
7
  6
CONTINUOUS
 10
30.000000
 20
160.000000
 11
30.000000
 21
120.000000
  0
DIMENSION
  8
2
 62
134
  6
CONTINUOUS
  2
*D1
 10
110.000000
 20
104.848655
 11
125.000000
 21
105.348655
 70
     0
  1
30
 13
110.000000
 23
118.000000
 14
140.000000
 24
114.502242
 50
0.000000
  0
DIMENSION
  8
2
 62
134
  6
CONTINUOUS
  2
*D2
 10
110.000000
 20
96.191704
 11
145.000000
 21
96.691704
 70
     0
  1
70
 13
110.000000
 23
118.000000
 14
180.000000
 24
118.000000
 50
0.000000
  0
DIMENSION
  8
2
 62
134
  6
CONTINUOUS
  2
*D3
 10
102.551570
 20
120.000000
 11
102.051570
 21
127.500000
 70
     0
  1
15
 13
108.000000
 23
120.000000
 14
120.529148
 24
135.000000
 50
90.000000
  0
DIMENSION
  8
2
 62
134
  6
CONTINUOUS
  2
*D4
 10
96.558296
 20
120.000000
 11
96.058296
 21
140.000000
 70
     0
  1
40
 13
108.000000
 23
120.000000
 14
110.000000
 24
160.000000
 50
90.000000
  0
DIMENSION
  8
2
 62
134
  6
CONTINUOUS
  2
*D5
 10
110.000000
 20
168.776906
 11
120.000000
 21
169.276906
 70
     0
  1
20
 13
110.000000
 23
160.000000
 14
130.000000
 24
142.000000
 50
0.000000
  0
DIMENSION
  8
2
 62
134
  6
CONTINUOUS
  2
*D6
 10
130.000000
 20
168.776906
 11
140.000000
 21
169.276906
 70
     0
  1
20
 13
130.000000
 23
168.776906
 14
150.000000
 24
142.808296
 50
0.000000
  0
DIMENSION
  8
2
 62
134
  6
CONTINUOUS
  2
*D7
 10
150.000000
 20
168.776906
 11
160.000000
 21
169.276906
 70
     0
  1
20
 13
150.000000
 23
168.776906
 14
170.000000
 24
142.475336
 50
0.000000
  0
DIMENSION
  8
2
 62
134
  6
CONTINUOUS
  2
*D8
 10
30.000000
 20
105.514574
 11
47.500000
 21
106.014574
 70
     0
  1
35
 13
30.000000
 23
118.000000
 14
65.000000
 24
118.000000
 50
0.000000
  0
DIMENSION
  8
2
 62
134
  6
CONTINUOUS
  2
*D9
 10
30.000000
 20
95.858744
 11
60.000000
 21
96.358744
 70
     0
  1
60
 13
30.000000
 23
118.000000
 14
90.000000
 24
118.000000
 50
0.000000
  0
LINE
  8
2
 62
134
  6
CONTINUOUS
 10
140.000000
 20
120.000000
 11
163.382351
 21
81.109190
  0
LINE
  8
2
 62
134
  6
CONTINUOUS
 10
163.382351
 20
81.109190
 11
181.882843
 21
81.109190
  0
TEXT
  8
2
 62
134
  6
CONTINUOUS
 10
163.882843
 20
81.986159
 40
4.000000
 41
0.750000
  1
下穴φ8.7
  7
KANJI
 50
0.000000
 51
30.000000
  0
LINE
  8
2
 62
134
  6
CONTINUOUS
 10
140.000000
 20
120.000000
 11
141.439057
 21
118.611075
  0
LINE
  8
2
 62
134
  6
CONTINUOUS
 10
140.000000
 20
120.000000
 11
140.551797
 21
118.077627
  0
LINE
  8
2
 62
134
  6
CONTINUOUS
 10
141.439057
 20
118.611075
 11
140.551797
 21
118.077627
  0
LINE
  8
2
 62
134
  6
CONTINUOUS
 10
140.248857
 20
119.586088
 11
140.968386
 21
118.891625
  0
LINE
  8
2
 62
134
  6
CONTINUOUS
 10
140.248857
 20
119.586088
 11
140.524756
 21
118.624901
  0
LINE
  8
2
 62
134
  6
CONTINUOUS
 10
140.968386
 20
118.891625
 11
140.524756
 21
118.624901
  0
LINE
  8
2
 62
134
  6
CONTINUOUS
 10
110.916529
 20
158.916529
 11
103.005927
 21
171.595648
  0
LINE
  8
2
 62
134
  6
CONTINUOUS
 10
103.005927
 20
171.595648
 11
94.840327
 21
171.595648
  0
TEXT
  8
2
 62
134
  6
CONTINUOUS
 10
94.840327
 20
171.595648
 40
4.000000
 41
0.500000
  1
2-C2
  7
KANJI
 50
0.000000
 51
30.000000
  0
LINE
  8
2
 62
134
  6
CONTINUOUS
 10
110.916529
 20
158.916529
 11
109.454766
 21
160.281538
  0
LINE
  8
2
 62
134
  6
CONTINUOUS
 10
110.916529
 20
158.916529
 11
110.333109
 21
160.829543
  0
LINE
  8
2
 62
134
  6
CONTINUOUS
 10
109.454766
 20
160.281538
 11
110.333109
 21
160.829543
  0
LINE
  8
2
 62
134
  6
CONTINUOUS
 10
110.660881
 20
159.326282
 11
109.930000
 21
160.008786
  0
LINE
  8
2
 62
134
  6
CONTINUOUS
 10
110.660881
 20
159.326282
 11
110.369171
 21
160.282789
  0
LINE
  8
2
 62
134
  6
CONTINUOUS
 10
109.930000
 20
160.008786
 11
110.369171
 21
160.282789
  0
LINE
  8
2
 62
134
  6
CONTINUOUS
 10
171.132720
 20
136.841665
 11
182.774745
 21
149.012873
  0
LINE
  8
2
 62
134
  6
CONTINUOUS
 10
182.774745
 20
149.012873
 11
195.006912
 21
149.012873
  0
TEXT
  8
2
 62
134
  6
CONTINUOUS
 10
185.006912
 20
149.012873
 40
4.000000
 41
0.625000
  1
2-φ4
  7
KANJI
 50
0.000000
 51
30.000000
  0
LINE
  8
2
 62
134
  6
CONTINUOUS
 10
171.132720
 20
136.841665
 11
172.093993
 21
138.595505
  0
LINE
  8
2
 62
134
  6
CONTINUOUS
 10
171.132720
 20
136.841665
 11
172.842127
 21
137.879899
  0
LINE
  8
2
 62
134
  6
CONTINUOUS
 10
172.093993
 20
138.595505
 11
172.842127
 21
137.879899
  0
LINE
  8
2
 62
134
  6
CONTINUOUS
 10
171.466555
 20
137.190674
 11
171.947192
 21
138.067594
  0
LINE
  8
2
 62
134
  6
CONTINUOUS
 10
171.466555
 20
137.190674
 11
172.321259
 21
137.709791
  0
LINE
  8
2
 62
134
  6
CONTINUOUS
 10
171.947192
 20
138.067594
 11
172.321259
 21
137.709791
  0
LINE
  8
2
 62
134
  6
CONTINUOUS
 10
131.444000
 20
139.663974
 11
150.494586
 21
183.233370
  0
LINE
  8
2
 62
134
  6
CONTINUOUS
 10
150.494586
 20
183.233370
 11
168.667090
 21
183.233370
  0
TEXT
  8
2
 62
134
  6
CONTINUOUS
 10
150.667090
 20
183.409764
 40
4.000000
 41
0.750000
  1
4×10長穴
  7
KANJI
 50
0.000000
 51
30.000000
  0
LINE
  8
2
 62
134
  6
CONTINUOUS
 10
131.444000
 20
139.663974
 11
131.743664
 21
141.641397
  0
LINE
  8
2
 62
134
  6
CONTINUOUS
 10
131.444000
 20
139.663974
 11
132.692228
 21
141.226640
  0
LINE
  8
2
 62
134
  6
CONTINUOUS
 10
131.743664
 20
141.641397
 11
132.692228
 21
141.226640
  0
LINE
  8
2
 62
134
  6
CONTINUOUS
 10
131.637486
 20
140.106485
 11
131.787319
 21
141.095197
  0
LINE
  8
2
 62
134
  6
CONTINUOUS
 10
131.637486
 20
140.106485
 11
132.261601
 21
140.887818
  0
LINE
  8
2
 62
134
  6
CONTINUOUS
 10
131.787319
 20
141.095197
 11
132.261601
 21
140.887818
  0
LINE
  8
1
 62
7
  6
CONTINUOUS
 10
180.000000
 20
250.000000
 11
110.000000
 21
250.000000
  0
LINE
  8
1
 62
7
  6
CONTINUOUS
 10
110.000000
 20
250.000000
 11
110.000000
 21
192.000000
  0
LINE
  8
1
 62
7
  6
CONTINUOUS
 10
110.000000
 20
192.000000
 11
112.000000
 21
190.000000
  0
LINE
  8
1
 62
7
  6
CONTINUOUS
 10
112.000000
 20
190.000000
 11
178.000000
 21
190.000000
  0
LINE
  8
1
 62
7
  6
CONTINUOUS
 10
180.000000
 20
250.000000
 11
180.000000
 21
192.000000
  0
LINE
  8
1
 62
7
  6
CONTINUOUS
 10
178.000000
 20
190.000000
 11
180.000000
 21
192.000000
  0
LINE
  8
1
 62
7
  6
CONTINUOUS
 10
110.000000
 20
248.500000
 11
180.000000
 21
248.500000
  0
CIRCLE
  8
1
 62
7
  6
CONTINUOUS
 10
140.000000
 20
214.926919
 40
4.677736
  0
CIRCLE
  8
1
 62
7
  6
CONTINUOUS
 10
140.000000
 20
214.926919
 40
4.677736
  0
CIRCLE
  8
1
 62
7
  6
CONTINUOUS
 10
140.000000
 20
214.926919
 40
6.431518
  0
CIRCLE
  8
1
 62
7
  6
CONTINUOUS
 10
140.000000
 20
215.000000
 40
3.912378
  0
LINE
  8
2
 62
134
  6
CONTINUOUS
 10
143.307659
 20
218.234578
 11
157.539370
 21
241.235974
  0
LINE
  8
2
 62
134
  6
CONTINUOUS
 10
157.539370
 20
241.235974
 11
167.797705
 21
241.235974
  0
TEXT
  8
2
 62
134
  6
CONTINUOUS
 10
157.797705
 20
241.235974
 40
4.000000
 41
0.625000
  1
ｗ1/4
  7
KANJI
 50
0.000000
 51
30.000000
  0
LINE
  8
2
 62
134
  6
CONTINUOUS
 10
143.307659
 20
218.234578
 11
143.883932
 21
220.149757
  0
LINE
  8
2
 62
134
  6
CONTINUOUS
 10
143.307659
 20
218.234578
 11
144.764315
 21
219.605035
  0
LINE
  8
2
 62
134
  6
CONTINUOUS
 10
143.883932
 20
220.149757
 11
144.764315
 21
219.605035
  0
LINE
  8
2
 62
134
  6
CONTINUOUS
 10
143.561775
 20
218.645283
 11
143.849912
 21
219.602872
  0
LINE
  8
2
 62
134
  6
CONTINUOUS
 10
143.561775
 20
218.645283
 11
144.290103
 21
219.330511
  0
LINE
  8
2
 62
134
  6
CONTINUOUS
 10
143.849912
 20
219.602872
 11
144.290103
 21
219.330511
  0
LINE
  8
1
 62
7
  6
DASHDOT
 10
130.000000
 20
215.000000
 11
150.000000
 21
215.000000
  0
LINE
  8
1
 62
7
  6
DASHDOT
 10
140.000000
 20
225.596703
 11
140.000000
 21
200.000000
  0
DIMENSION
  8
2
 62
134
  6
CONTINUOUS
  2
*D10
 10
111.000000
 20
191.000000
 11
102.474874
 21
183.181981
 70
     4
  1
2-C2
 15
100.000000
 25
180.000000
  0
LINE
  8
2
 62
134
  6
CONTINUOUS
 10
134.478931
 20
123.203679
 11
118.255014
 21
81.109190
  0
LINE
  8
2
 62
134
  6
CONTINUOUS
 10
118.255014
 20
81.109190
 11
107.744083
 21
81.109190
  0
TEXT
  8
2
 62
134
  6
CONTINUOUS
 10
107.744083
 20
81.109190
 40
4.000000
 41
0.500000
  1
W1/4
  7
KANJI
 50
0.000000
 51
30.000000
  0
LINE
  8
2
 62
134
  6
CONTINUOUS
 10
134.478931
 20
123.203679
 11
134.267184
 21
121.214919
  0
LINE
  8
2
 62
134
  6
CONTINUOUS
 10
134.478931
 20
123.203679
 11
133.301173
 21
121.587236
  0
LINE
  8
2
 62
134
  6
CONTINUOUS
 10
134.267184
 20
121.214919
 11
133.301173
 21
121.587236
  0
LINE
  8
2
 62
134
  6
CONTINUOUS
 10
134.305243
 20
122.753028
 11
134.199369
 21
121.758649
  0
LINE
  8
2
 62
134
  6
CONTINUOUS
 10
134.305243
 20
122.753028
 11
133.716364
 21
121.944807
  0
LINE
  8
2
 62
134
  6
CONTINUOUS
 10
134.199369
 20
121.758649
 11
133.716364
 21
121.944807
  0
TEXT
  8
5
 62
94
  6
CONTINUOUS
 10
158.139387
 20
28.577250
 40
4.000000
 41
1.000000
  1
ＦＴＸ９－２
  7
KANJI
 50
0.213789
 51
0.000000
  0
TEXT
  8
5
 62
94
  6
CONTINUOUS
 10
157.434916
 20
34.199951
 40
4.000000
 41
1.000000
  1
三脚取付金具
  7
KANJI
 50
0.213789
 51
0.000000
  0
TEXT
  8
5
 62
94
  6
CONTINUOUS
 10
87.772351
 20
27.782285
 40
4.000000
 41
0.500000
  1
2006/12/14
  7
KANJI
 50
0.160943
 51
0.000000
  0
TEXT
  8
5
 62
94
  6
CONTINUOUS
 10
152.187914
 20
20.406457
 40
4.000000
 41
1.000000
  1
０１５－８７７－Ａ１２２
  7
KANJI
 50
0.000000
 51
0.000000
  0
TEXT
  8
2
 62
134
  6
CONTINUOUS
 10
39.308824
 20
240.000000
 40
6.000000
 41
0.785714
  1
重量：約90g
  7
KANJI
 50
0.000000
 51
0.000000
  0
ENDSEC
  0
EOF
