  0
SECTION
  2
HEADER
  9
$ACADVER
  1
AC1003
  9
$INSBASE
 10
0.000000
 20
0.000000
  9
$EXTMIN
 10
0.000000
 20
0.000000
  9
$EXTMAX
 10
148.500000
 20
105.000000
  9
$LIMMIN
 10
0.000000
 20
0.000000
  9
$LIMMAX
 10
148.500000
 20
105.000000
  9
$VIEWCTR
 10
74.250000
 20
52.500000
  9
$VIEWSIZE
 40
105.000000
  9
$PEXTMIN
 10
0.000000
 20
0.000000
 30
0.000000
  9
$PEXTMAX
 10
297.000000
 20
210.000000
 30
0.000000
  9
$SNAPMODE
 70
     0
  9
$SNAPUNIT
 10
1.000000
 20
1.000000
  9
$SNAPBASE
 10
0.000000
 20
0.000000
  9
$SNAPANG
 50
0.000000
  9
$SNAPISOPAIR
 70
     0
  9
$SNAPSTYLE
 70
     0
  9
$GRIDMODE
 70
     0
  9
$GRIDUNIT
 10
0.000000
 20
0.000000
  9
$ORTHOMODE
 70
     0
  9
$REGENMODE
 70
     1
  9
$FILLMODE
 70
     1
  9
$QTEXTMODE
 70
     0
  9
$DRAGMODE
 70
     2
  9
$LTSCALE
 40
0.125000
  9
$OSMODE
 70
     0
  9
$ATTMODE
 70
     1
  9
$TEXTSIZE
 40
0.200000
  9
$TRACEWID
 40
0.050000
  9
$TEXTSTYLE
  7
STANDARD
  9
$CLAYER
  8
0
  9
$CELTYPE
  6
BYLAYER
  9
$CECOLOR
 62
   256
  9
$DIMSCALE
 40
1.000000
  9
$DIMASZ
 40
1.000000
  9
$DIMEXO
 40
0.000000
  9
$DIMDLI
 40
0.500000
  9
$DIMRND
 40
0.000000
  9
$DIMDLE
 40
0.000000
  9
$DIMEXE
 40
0.000000
  9
$DIMTP
 40
0.000000
  9
$DIMTM
 40
0.000000
  9
$DIMTXT
 40
0.180000
  9
$DIMCEN
 40
0.000000
  9
$DIMTSZ
 40
0.000000
  9
$DIMTOL
 70
     0
  9
$DIMLIM
 70
     0
  9
$DIMTIH
 70
     1
  9
$DIMTOH
 70
     1
  9
$DIMSE1
 70
     0
  9
$DIMSE2
 70
     0
  9
$DIMTAD
 70
     0
  9
$DIMZIN
 70
     0
  9
$DIMBLK
  1

  9
$DIMASO
 70
     0
  9
$DIMSHO
 70
     0
  9
$DIMPOST
  1

  9
$DIMAPOST
  1

  9
$DIMALT
 70
     0
  9
$DIMALTD
 70
     0
  9
$DIMALTF
 40
25.400000
  9
$DIMLFAC
 40
1.000000
  9
$DIMTOFL
 70
     0
  9
$DIMTVP
 40
0.000000
  9
$DIMTIX
 70
     0
  9
$DIMSOXD
 70
     0
  9
$DIMSAH
 70
     0
  9
$DIMBLKL
  1

  9
$DIMBLKR
  1

  9
$LUNITS
 70
     2
  9
$LUPREC
 70
     2
  9
$AXISMODE
 70
     0
  9
$AXISUNIT
 10
1.000000
 20
1.000000
  9
$SKETCHINC
 40
0.000000
  9
$FILLETRAD
 40
0.000000
  9
$AUNITS
 70
     1
  9
$AUPREC
 70
     2
  9
$MENU
  1
ACAD
  9
$ELEVATION
 40
0.000000
  9
$THICKNESS
 40
0.000000
  9
$VIEWDIR
 10
0.000000
 20
0.000000
 30
1.000000
  9
$LIMCHECK
 70
     1
  9
$BLIPMODE
 70
     1
  9
$CHAMFERA
 40
0.000000
  9
$CHAMFERB
 40
0.000000
  9
$FASTZOOM
 70
     1
  9
$SKPOLY
 70
     0
  9
$TDCREATE
 40
0.000000
  9
$TDUPDATE
 40
0.000000
  9
$TDINDWG
 40
0.000000
  9
$TDUSRTIMER
 40
0.000000
  9
$USRTIMER
 70
     1
  9
$ANGBASE
 50
0.000000
  9
$ANGDIR
 70
     0
  9
$PDMODE
 70
     0
  9
$PDSIZE
 40
0.000000
  9
$PLINEWID
 40
0.000000
  9
$COORDS
 70
     2
  9
$USERI1
 70
     0
  9
$USERI2
 70
     0
  9
$USERI3
 70
     0
  9
$USERI4
 70
     0
  9
$USERI5
 70
     0
  9
$USERR1
 40
0.000000
  9
$USERR2
 40
0.000000
  9
$USERR3
 40
0.000000
  9
$USERR4
 40
0.000000
  9
$USERR5
 40
0.000000
  0
ENDSEC
  0
SECTION
  2
TABLES
  0
TABLE
  2
LTYPE
 70
     5
  0
LTYPE
  2
CONTINUOUS
 70
    64
  3
Solid line
 72
    65
 73
     0
 40
0.0
  0
LTYPE
  2
HIDDEN
 70
    64
  3
------------------------
 72
    65
 73
     2
 40
12.6
 49
8.4
 49
-4.2
  0
LTYPE
  2
DOT
 70
    64
  3
････････････････････････
 72
    65
 73
     2
 40
8.0
 49
6.0
 49
-2.0
  0
LTYPE
  2
DASHDOT
 70
    64
  3
--･--･--･--･--･--･--･--
 72
    65
 73
     4
 40
50.5
 49
30.0
 49
-9.0
 49
2.5
 49
-9.0
  0
LTYPE
  2
DIVIDE
 70
    64
  3
--･･--･･--･･--･･--･･--
 72
    65
 73
     6
 40
58.0
 49
30.0
 49
-9.0
 49
2.5
 49
-5.0
 49
2.5
 49
-9.0
  0
LTYPE
  2
ACAD_ISO06W100
 70
    64
  3
____ ... ____ ... ____
 72
    65
 73
     8
 40
37.5
 49
24.0
 49
-3.0
 49
0.5
 49
-3.0
 49
0.5
 49
-3.0
 49
0.5
 49
-3.0
  0
LTYPE
  2
ACAD_ISO14W100
 70
    64
  3
__ . . . __ . . . __ . . . 
 72
    65
 73
     8
 40
25.5
 49
12.0
 49
-3.0
 49
0.5
 49
-3.0
 49
0.5
 49
-3.0
 49
0.5
 49
-3.0
  0
ENDTAB
  0
TABLE
  2
LAYER
 70
3
  0
LAYER
  2
1
 70
64
 62
7
  6
CONTINUOUS
  0
LAYER
  2
2
 70
64
 62
134
  6
CONTINUOUS
  0
LAYER
  2
5
 70
64
 62
94
  6
CONTINUOUS
  0
ENDTAB
  0
TABLE
  2
STYLE
 70
     2
  0
STYLE
  2
STANDARD
 70
    64
 40
0.0
 41
1.0
 50
0.0
 71
     0
 42
0.2
  3
TXT
  4

  0
STYLE
  2
KANJI
 70
    64
 40
0.0
 41
1.0
 50
0.0
 71
     0
 42
0.2
  3
TXT
  4
BIGFONT
  0
ENDTAB
  0
TABLE
  2
VIEW
 70
     0
  0
ENDTAB
  0
ENDSEC
  0
SECTION
  2
BLOCKS
  0
BLOCK
  8
2
 62
134
  6
CONTINUOUS
  2
*D1
 70
    65
 10
0.0
 20
0.0
  0
LINE
  8
2
 62
134
  6
CONTINUOUS
 10
22.270322
 20
53.000000
 11
22.270322
 21
67.000000
  0
LINE
  8
2
 62
134
  6
CONTINUOUS
 10
20.270322
 20
53.000000
 11
28.500000
 21
53.000000
  0
LINE
  8
2
 62
134
  6
CONTINUOUS
 10
20.270322
 20
67.000000
 11
28.500000
 21
67.000000
  0
LINE
  8
2
 62
134
  6
CONTINUOUS
 10
22.270322
 20
53.000000
 11
22.011503
 21
53.965926
  0
LINE
  8
2
 62
134
  6
CONTINUOUS
 10
22.270322
 20
53.000000
 11
22.529141
 21
53.965926
  0
LINE
  8
2
 62
134
  6
CONTINUOUS
 10
22.011503
 20
53.965926
 11
22.529141
 21
53.965926
  0
LINE
  8
2
 62
134
  6
CONTINUOUS
 10
22.270322
 20
53.241481
 11
22.140913
 21
53.724444
  0
LINE
  8
2
 62
134
  6
CONTINUOUS
 10
22.270322
 20
53.241481
 11
22.399732
 21
53.724444
  0
LINE
  8
2
 62
134
  6
CONTINUOUS
 10
22.140913
 20
53.724444
 11
22.399732
 21
53.724444
  0
LINE
  8
2
 62
134
  6
CONTINUOUS
 10
22.270322
 20
67.000000
 11
22.529141
 21
66.034074
  0
LINE
  8
2
 62
134
  6
CONTINUOUS
 10
22.270322
 20
67.000000
 11
22.011503
 21
66.034074
  0
LINE
  8
2
 62
134
  6
CONTINUOUS
 10
22.529141
 20
66.034074
 11
22.011503
 21
66.034074
  0
LINE
  8
2
 62
134
  6
CONTINUOUS
 10
22.270322
 20
66.758519
 11
22.399732
 21
66.275556
  0
LINE
  8
2
 62
134
  6
CONTINUOUS
 10
22.270322
 20
66.758519
 11
22.140913
 21
66.275556
  0
LINE
  8
2
 62
134
  6
CONTINUOUS
 10
22.399732
 20
66.275556
 11
22.140913
 21
66.275556
  0
TEXT
  8
2
 62
134
  6
CONTINUOUS
 10
22.270322
 20
58.000000
 40
2.000000
 41
0.666667
  1
φ14
  7
KANJI
 50
90.000000
 51
30.000000
  0
ENDBLK
  0
BLOCK
  8
2
 62
134
  6
CONTINUOUS
  2
*D2
 70
    65
 10
0.0
 20
0.0
  0
LINE
  8
2
 62
134
  6
CONTINUOUS
 10
30.000000
 20
44.998925
 11
60.000000
 21
44.998925
  0
LINE
  8
2
 62
134
  6
CONTINUOUS
 10
30.000000
 20
43.998925
 11
30.000000
 21
52.500000
  0
LINE
  8
2
 62
134
  6
CONTINUOUS
 10
60.000000
 20
43.998925
 11
60.000000
 21
55.500000
  0
LINE
  8
2
 62
134
  6
CONTINUOUS
 10
30.000000
 20
44.998925
 11
30.965926
 21
45.257744
  0
LINE
  8
2
 62
134
  6
CONTINUOUS
 10
30.000000
 20
44.998925
 11
30.965926
 21
44.740106
  0
LINE
  8
2
 62
134
  6
CONTINUOUS
 10
30.965926
 20
45.257744
 11
30.965926
 21
44.740106
  0
LINE
  8
2
 62
134
  6
CONTINUOUS
 10
30.241481
 20
44.998925
 11
30.724444
 21
45.128334
  0
LINE
  8
2
 62
134
  6
CONTINUOUS
 10
30.241481
 20
44.998925
 11
30.724444
 21
44.869515
  0
LINE
  8
2
 62
134
  6
CONTINUOUS
 10
30.724444
 20
45.128334
 11
30.724444
 21
44.869515
  0
LINE
  8
2
 62
134
  6
CONTINUOUS
 10
60.000000
 20
44.998925
 11
59.034074
 21
44.740106
  0
LINE
  8
2
 62
134
  6
CONTINUOUS
 10
60.000000
 20
44.998925
 11
59.034074
 21
45.257744
  0
LINE
  8
2
 62
134
  6
CONTINUOUS
 10
59.034074
 20
44.740106
 11
59.034074
 21
45.257744
  0
LINE
  8
2
 62
134
  6
CONTINUOUS
 10
59.758519
 20
44.998925
 11
59.275556
 21
44.869515
  0
LINE
  8
2
 62
134
  6
CONTINUOUS
 10
59.758519
 20
44.998925
 11
59.275556
 21
45.128334
  0
LINE
  8
2
 62
134
  6
CONTINUOUS
 10
59.275556
 20
44.869515
 11
59.275556
 21
45.128334
  0
TEXT
  8
2
 62
134
  6
CONTINUOUS
 10
43.205965
 20
44.998925
 40
2.000000
 41
0.500000
  1
30
  7
KANJI
 50
0.000000
 51
30.000000
  0
ENDBLK
  0
BLOCK
  8
2
 62
134
  6
CONTINUOUS
  2
*D3
 70
    65
 10
0.0
 20
0.0
  0
LINE
  8
2
 62
134
  6
CONTINUOUS
 10
30.000000
 20
48.434541
 11
52.000000
 21
48.434541
  0
LINE
  8
2
 62
134
  6
CONTINUOUS
 10
30.000000
 20
47.434541
 11
30.000000
 21
65.500000
  0
LINE
  8
2
 62
134
  6
CONTINUOUS
 10
52.000000
 20
47.434541
 11
52.000000
 21
63.000000
  0
LINE
  8
2
 62
134
  6
CONTINUOUS
 10
30.000000
 20
48.434541
 11
30.965926
 21
48.693360
  0
LINE
  8
2
 62
134
  6
CONTINUOUS
 10
30.000000
 20
48.434541
 11
30.965926
 21
48.175722
  0
LINE
  8
2
 62
134
  6
CONTINUOUS
 10
30.965926
 20
48.693360
 11
30.965926
 21
48.175722
  0
LINE
  8
2
 62
134
  6
CONTINUOUS
 10
30.241481
 20
48.434541
 11
30.724444
 21
48.563950
  0
LINE
  8
2
 62
134
  6
CONTINUOUS
 10
30.241481
 20
48.434541
 11
30.724444
 21
48.305131
  0
LINE
  8
2
 62
134
  6
CONTINUOUS
 10
30.724444
 20
48.563950
 11
30.724444
 21
48.305131
  0
LINE
  8
2
 62
134
  6
CONTINUOUS
 10
52.000000
 20
48.434541
 11
51.034074
 21
48.175722
  0
LINE
  8
2
 62
134
  6
CONTINUOUS
 10
52.000000
 20
48.434541
 11
51.034074
 21
48.693360
  0
LINE
  8
2
 62
134
  6
CONTINUOUS
 10
51.034074
 20
48.175722
 11
51.034074
 21
48.693360
  0
LINE
  8
2
 62
134
  6
CONTINUOUS
 10
51.758519
 20
48.434541
 11
51.275556
 21
48.305131
  0
LINE
  8
2
 62
134
  6
CONTINUOUS
 10
51.758519
 20
48.434541
 11
51.275556
 21
48.563950
  0
LINE
  8
2
 62
134
  6
CONTINUOUS
 10
51.275556
 20
48.305131
 11
51.275556
 21
48.563950
  0
TEXT
  8
2
 62
134
  6
CONTINUOUS
 10
41.011504
 20
48.434541
 40
2.000000
 41
0.500000
  1
22
  7
KANJI
 50
0.000000
 51
30.000000
  0
ENDBLK
  0
BLOCK
  8
2
 62
134
  6
CONTINUOUS
  2
*D4
 70
    65
 10
0.0
 20
0.0
  0
LINE
  8
2
 62
134
  6
CONTINUOUS
 10
30.000000
 20
81.857719
 11
49.000000
 21
81.857719
  0
LINE
  8
2
 62
134
  6
CONTINUOUS
 10
30.000000
 20
82.857719
 11
30.000000
 21
67.500000
  0
LINE
  8
2
 62
134
  6
CONTINUOUS
 10
49.000000
 20
82.857719
 11
49.000000
 21
68.000000
  0
LINE
  8
2
 62
134
  6
CONTINUOUS
 10
30.000000
 20
81.857719
 11
30.965926
 21
82.116538
  0
LINE
  8
2
 62
134
  6
CONTINUOUS
 10
30.000000
 20
81.857719
 11
30.965926
 21
81.598900
  0
LINE
  8
2
 62
134
  6
CONTINUOUS
 10
30.965926
 20
82.116538
 11
30.965926
 21
81.598900
  0
LINE
  8
2
 62
134
  6
CONTINUOUS
 10
30.241481
 20
81.857719
 11
30.724444
 21
81.987129
  0
LINE
  8
2
 62
134
  6
CONTINUOUS
 10
30.241481
 20
81.857719
 11
30.724444
 21
81.728310
  0
LINE
  8
2
 62
134
  6
CONTINUOUS
 10
30.724444
 20
81.987129
 11
30.724444
 21
81.728310
  0
LINE
  8
2
 62
134
  6
CONTINUOUS
 10
49.000000
 20
81.857719
 11
48.034074
 21
81.598900
  0
LINE
  8
2
 62
134
  6
CONTINUOUS
 10
49.000000
 20
81.857719
 11
48.034074
 21
82.116538
  0
LINE
  8
2
 62
134
  6
CONTINUOUS
 10
48.034074
 20
81.598900
 11
48.034074
 21
82.116538
  0
LINE
  8
2
 62
134
  6
CONTINUOUS
 10
48.758519
 20
81.857719
 11
48.275556
 21
81.728310
  0
LINE
  8
2
 62
134
  6
CONTINUOUS
 10
48.758519
 20
81.857719
 11
48.275556
 21
81.987129
  0
LINE
  8
2
 62
134
  6
CONTINUOUS
 10
48.275556
 20
81.728310
 11
48.275556
 21
81.987129
  0
TEXT
  8
2
 62
134
  6
CONTINUOUS
 10
38.381938
 20
81.857719
 40
2.000000
 41
0.500000
  1
19
  7
KANJI
 50
0.000000
 51
30.000000
  0
ENDBLK
  0
BLOCK
  8
2
 62
134
  6
CONTINUOUS
  2
*D5
 70
    65
 10
0.0
 20
0.0
  0
LINE
  8
2
 62
134
  6
CONTINUOUS
 10
64.763949
 20
45.922322
 11
64.763949
 21
68.000000
  0
LINE
  8
2
 62
134
  6
CONTINUOUS
 10
65.763949
 20
56.000000
 11
60.500000
 21
56.000000
  0
LINE
  8
2
 62
134
  6
CONTINUOUS
 10
65.763949
 20
64.000000
 11
60.500000
 21
64.000000
  0
LINE
  8
2
 62
134
  6
CONTINUOUS
 10
64.763949
 20
56.000000
 11
65.022768
 21
55.034074
  0
LINE
  8
2
 62
134
  6
CONTINUOUS
 10
64.763949
 20
56.000000
 11
64.505130
 21
55.034074
  0
LINE
  8
2
 62
134
  6
CONTINUOUS
 10
65.022768
 20
55.034074
 11
64.505130
 21
55.034074
  0
LINE
  8
2
 62
134
  6
CONTINUOUS
 10
64.763949
 20
55.758519
 11
64.893358
 21
55.275556
  0
LINE
  8
2
 62
134
  6
CONTINUOUS
 10
64.763949
 20
55.758519
 11
64.634539
 21
55.275556
  0
LINE
  8
2
 62
134
  6
CONTINUOUS
 10
64.893358
 20
55.275556
 11
64.634539
 21
55.275556
  0
LINE
  8
2
 62
134
  6
CONTINUOUS
 10
64.763949
 20
64.000000
 11
64.505130
 21
64.965926
  0
LINE
  8
2
 62
134
  6
CONTINUOUS
 10
64.763949
 20
64.000000
 11
65.022768
 21
64.965926
  0
LINE
  8
2
 62
134
  6
CONTINUOUS
 10
64.505130
 20
64.965926
 11
65.022768
 21
64.965926
  0
LINE
  8
2
 62
134
  6
CONTINUOUS
 10
64.763949
 20
64.241481
 11
64.634539
 21
64.724444
  0
LINE
  8
2
 62
134
  6
CONTINUOUS
 10
64.763949
 20
64.241481
 11
64.893358
 21
64.724444
  0
LINE
  8
2
 62
134
  6
CONTINUOUS
 10
64.634539
 20
64.724444
 11
64.893358
 21
64.724444
  0
TEXT
  8
2
 62
134
  6
CONTINUOUS
 10
64.763949
 20
46.422322
 40
2.000000
 41
0.500000
  1
M8P0.75
  7
KANJI
 50
90.000000
 51
30.000000
  0
ENDBLK
  0
BLOCK
  8
2
 62
134
  6
CONTINUOUS
  2
*D6
 70
    65
 10
0.0
 20
0.0
  0
LINE
  8
2
 62
134
  6
CONTINUOUS
 10
22.324353
 20
67.000000
 11
22.324353
 21
79.250000
  0
LINE
  8
2
 62
134
  6
CONTINUOUS
 10
21.324353
 20
67.000000
 11
29.500000
 21
67.000000
  0
LINE
  8
2
 62
134
  6
CONTINUOUS
 10
21.324353
 20
79.250000
 11
51.495172
 21
79.250000
  0
LINE
  8
2
 62
134
  6
CONTINUOUS
 10
22.324353
 20
67.000000
 11
22.065534
 21
67.965926
  0
LINE
  8
2
 62
134
  6
CONTINUOUS
 10
22.324353
 20
67.000000
 11
22.583172
 21
67.965926
  0
LINE
  8
2
 62
134
  6
CONTINUOUS
 10
22.065534
 20
67.965926
 11
22.583172
 21
67.965926
  0
LINE
  8
2
 62
134
  6
CONTINUOUS
 10
22.324353
 20
67.241481
 11
22.194943
 21
67.724444
  0
LINE
  8
2
 62
134
  6
CONTINUOUS
 10
22.324353
 20
67.241481
 11
22.453762
 21
67.724444
  0
LINE
  8
2
 62
134
  6
CONTINUOUS
 10
22.194943
 20
67.724444
 11
22.453762
 21
67.724444
  0
LINE
  8
2
 62
134
  6
CONTINUOUS
 10
22.324353
 20
79.250000
 11
22.583172
 21
78.284074
  0
LINE
  8
2
 62
134
  6
CONTINUOUS
 10
22.324353
 20
79.250000
 11
22.065534
 21
78.284074
  0
LINE
  8
2
 62
134
  6
CONTINUOUS
 10
22.583172
 20
78.284074
 11
22.065534
 21
78.284074
  0
LINE
  8
2
 62
134
  6
CONTINUOUS
 10
22.324353
 20
79.008519
 11
22.453762
 21
78.525556
  0
LINE
  8
2
 62
134
  6
CONTINUOUS
 10
22.324353
 20
79.008519
 11
22.194943
 21
78.525556
  0
LINE
  8
2
 62
134
  6
CONTINUOUS
 10
22.453762
 20
78.525556
 11
22.194943
 21
78.525556
  0
TEXT
  8
2
 62
134
  6
CONTINUOUS
 10
22.324353
 20
69.811627
 40
2.000000
 41
0.500000
  1
12.3
  7
KANJI
 50
90.000000
 51
30.000000
  0
ENDBLK
  0
BLOCK
  8
2
 62
134
  6
CONTINUOUS
  2
*D7
 70
    65
 10
0.0
 20
0.0
  0
LINE
  8
2
 62
134
  6
CONTINUOUS
 10
60.000000
 20
48.434541
 11
55.000000
 21
48.434541
  0
LINE
  8
2
 62
134
  6
CONTINUOUS
 10
60.000000
 20
47.434541
 11
60.000000
 21
62.000000
  0
LINE
  8
2
 62
134
  6
CONTINUOUS
 10
55.000000
 20
47.434541
 11
55.000000
 21
52.500000
  0
LINE
  8
2
 62
134
  6
CONTINUOUS
 10
60.000000
 20
48.434541
 11
59.034074
 21
48.175722
  0
LINE
  8
2
 62
134
  6
CONTINUOUS
 10
60.000000
 20
48.434541
 11
59.034074
 21
48.693360
  0
LINE
  8
2
 62
134
  6
CONTINUOUS
 10
59.034074
 20
48.175722
 11
59.034074
 21
48.693360
  0
LINE
  8
2
 62
134
  6
CONTINUOUS
 10
59.758519
 20
48.434541
 11
59.275556
 21
48.305131
  0
LINE
  8
2
 62
134
  6
CONTINUOUS
 10
59.758519
 20
48.434541
 11
59.275556
 21
48.563950
  0
LINE
  8
2
 62
134
  6
CONTINUOUS
 10
59.275556
 20
48.305131
 11
59.275556
 21
48.563950
  0
LINE
  8
2
 62
134
  6
CONTINUOUS
 10
55.000000
 20
48.434541
 11
55.965926
 21
48.693360
  0
LINE
  8
2
 62
134
  6
CONTINUOUS
 10
55.000000
 20
48.434541
 11
55.965926
 21
48.175722
  0
LINE
  8
2
 62
134
  6
CONTINUOUS
 10
55.965926
 20
48.693360
 11
55.965926
 21
48.175722
  0
LINE
  8
2
 62
134
  6
CONTINUOUS
 10
55.241481
 20
48.434541
 11
55.724444
 21
48.563950
  0
LINE
  8
2
 62
134
  6
CONTINUOUS
 10
55.241481
 20
48.434541
 11
55.724444
 21
48.305131
  0
LINE
  8
2
 62
134
  6
CONTINUOUS
 10
55.724444
 20
48.563950
 11
55.724444
 21
48.305131
  0
TEXT
  8
2
 62
134
  6
CONTINUOUS
 10
57.000000
 20
48.434541
 40
2.000000
 41
0.500000
  1
5
  7
KANJI
 50
0.000000
 51
30.000000
  0
ENDBLK
  0
BLOCK
  8
2
 62
134
  6
CONTINUOUS
  2
*D8
 70
    65
 10
0.0
 20
0.0
  0
LINE
  8
2
 62
134
  6
CONTINUOUS
 10
25.746973
 20
64.000000
 11
25.746973
 21
56.000000
  0
LINE
  8
2
 62
134
  6
CONTINUOUS
 10
24.746973
 20
64.000000
 11
29.000000
 21
64.000000
  0
LINE
  8
2
 62
134
  6
CONTINUOUS
 10
24.746973
 20
56.000000
 11
29.000000
 21
56.000000
  0
LINE
  8
2
 62
134
  6
CONTINUOUS
 10
25.746973
 20
64.000000
 11
26.005792
 21
63.034074
  0
LINE
  8
2
 62
134
  6
CONTINUOUS
 10
25.746973
 20
64.000000
 11
25.488154
 21
63.034074
  0
LINE
  8
2
 62
134
  6
CONTINUOUS
 10
26.005792
 20
63.034074
 11
25.488154
 21
63.034074
  0
LINE
  8
2
 62
134
  6
CONTINUOUS
 10
25.746973
 20
63.758519
 11
25.876383
 21
63.275556
  0
LINE
  8
2
 62
134
  6
CONTINUOUS
 10
25.746973
 20
63.758519
 11
25.617564
 21
63.275556
  0
LINE
  8
2
 62
134
  6
CONTINUOUS
 10
25.876383
 20
63.275556
 11
25.617564
 21
63.275556
  0
LINE
  8
2
 62
134
  6
CONTINUOUS
 10
25.746973
 20
56.000000
 11
25.488154
 21
56.965926
  0
LINE
  8
2
 62
134
  6
CONTINUOUS
 10
25.746973
 20
56.000000
 11
26.005792
 21
56.965926
  0
LINE
  8
2
 62
134
  6
CONTINUOUS
 10
25.488154
 20
56.965926
 11
26.005792
 21
56.965926
  0
LINE
  8
2
 62
134
  6
CONTINUOUS
 10
25.746973
 20
56.241481
 11
25.617564
 21
56.724444
  0
LINE
  8
2
 62
134
  6
CONTINUOUS
 10
25.746973
 20
56.241481
 11
25.876383
 21
56.724444
  0
LINE
  8
2
 62
134
  6
CONTINUOUS
 10
25.617564
 20
56.724444
 11
25.876383
 21
56.724444
  0
TEXT
  8
2
 62
134
  6
CONTINUOUS
 10
25.746973
 20
58.500000
 40
2.000000
 41
0.750000
  1
φ8
  7
KANJI
 50
90.000000
 51
30.000000
  0
ENDBLK
  0
ENDSEC
  0
SECTION
  2
ENTITIES
  0
LINE
  8
5
 62
94
  6
CONTINUOUS
 10
143.580815
 20
97.177165
 11
6.080815
 21
97.177165
  0
LINE
  8
5
 62
94
  6
CONTINUOUS
 10
6.080815
 20
97.177165
 11
6.080815
 21
4.677165
  0
LINE
  8
5
 62
94
  6
CONTINUOUS
 10
6.080815
 20
4.677165
 11
143.580815
 21
4.677165
  0
LINE
  8
5
 62
94
  6
CONTINUOUS
 10
143.580815
 20
4.677165
 11
143.580815
 21
97.177165
  0
TEXT
  8
5
 62
94
  6
CONTINUOUS
 10
106.562190
 20
12.502910
 40
0.875000
 41
4.000000
  1
製図
  7
KANJI
 50
-90.000000
 51
0.000000
  0
TEXT
  8
5
 62
94
  6
CONTINUOUS
 10
116.478580
 20
12.420957
 40
0.875000
 41
4.000000
  1
図番
  7
KANJI
 50
-90.000000
 51
0.000000
  0
TEXT
  8
5
 62
94
  6
CONTINUOUS
 10
116.478580
 20
19.059202
 40
0.875000
 41
4.000000
  1
図　名
  7
KANJI
 50
-90.000000
 51
0.000000
  0
TEXT
  8
5
 62
94
  6
CONTINUOUS
 10
84.024938
 20
16.354732
 40
0.875000
 41
4.000000
  1
日付
  7
KANJI
 50
-90.000000
 51
0.000000
  0
TEXT
  8
5
 62
94
  6
CONTINUOUS
 10
101.563017
 20
16.436685
 40
0.875000
 41
4.000000
  1
図法
  7
KANJI
 50
-90.000000
 51
0.000000
  0
TEXT
  8
5
 62
94
  6
CONTINUOUS
 10
101.481064
 20
20.452414
 40
0.875000
 41
4.000000
  1
尺度
  7
KANJI
 50
-90.000000
 51
0.000000
  0
TEXT
  8
5
 62
94
  6
CONTINUOUS
 10
84.024938
 20
20.370460
 40
0.875000
 41
4.000000
  1
公差
  7
KANJI
 50
-90.000000
 51
0.000000
  0
TEXT
  8
5
 62
94
  6
CONTINUOUS
 10
84.024938
 20
12.420957
 40
0.875000
 41
4.000000
  1
承認
  7
KANJI
 50
-90.000000
 51
0.000000
  0
TEXT
  8
5
 62
94
  6
CONTINUOUS
 10
96.563845
 20
12.420957
 40
0.875000
 41
4.000000
  1
設計
  7
KANJI
 50
-90.000000
 51
0.000000
  0
TEXT
  8
5
 62
94
  6
CONTINUOUS
 10
93.285700
 20
5.454897
 40
2.250000
 41
1.888889
  1
ジャパンセンサー株式会社
  7
KANJI
 50
0.000000
 51
0.000000
  0
LINE
  8
5
 62
94
  6
CONTINUOUS
 10
83.580815
 20
20.677165
 11
143.580815
 21
20.677165
  0
LINE
  8
5
 62
94
  6
CONTINUOUS
 10
83.580815
 20
4.677165
 11
83.580815
 21
20.677165
  0
LINE
  8
5
 62
94
  6
CONTINUOUS
 10
143.580815
 20
8.677165
 11
83.580815
 21
8.677165
  0
LINE
  8
5
 62
94
  6
CONTINUOUS
 10
116.080815
 20
20.677165
 11
116.080815
 21
8.677165
  0
LINE
  8
5
 62
94
  6
CONTINUOUS
 10
143.580815
 20
12.677165
 11
83.580815
 21
12.677165
  0
LINE
  8
5
 62
94
  6
CONTINUOUS
 10
118.580815
 20
8.677165
 11
118.580815
 21
20.677165
  0
LINE
  8
5
 62
94
  6
CONTINUOUS
 10
103.580815
 20
20.677165
 11
103.580815
 21
12.677165
  0
LINE
  8
5
 62
94
  6
CONTINUOUS
 10
86.080815
 20
8.677165
 11
86.080815
 21
20.677165
  0
LINE
  8
5
 62
94
  6
CONTINUOUS
 10
83.580815
 20
16.677165
 11
116.080815
 21
16.677165
  0
LINE
  8
5
 62
94
  6
CONTINUOUS
 10
101.080815
 20
20.677165
 11
101.080815
 21
12.677165
  0
LINE
  8
5
 62
94
  6
CONTINUOUS
 10
96.080815
 20
8.677165
 11
96.080815
 21
12.677165
  0
LINE
  8
5
 62
94
  6
CONTINUOUS
 10
106.080815
 20
8.677165
 11
106.080815
 21
12.677165
  0
LINE
  8
5
 62
94
  6
CONTINUOUS
 10
98.580815
 20
12.677165
 11
98.580815
 21
8.677165
  0
LINE
  8
5
 62
94
  6
CONTINUOUS
 10
108.580815
 20
12.677165
 11
108.580815
 21
8.677165
  0
TEXT
  8
5
 62
94
  6
CONTINUOUS
 10
105.578746
 20
13.322447
 40
2.000000
 41
1.000000
  1
三角法
  7
KANJI
 50
0.000000
 51
0.000000
  0
LINE
  8
5
 62
94
  6
CONTINUOUS
 10
119.756504
 20
16.662402
 11
142.411524
 21
16.662402
  0
TEXT
  8
5
 62
94
  6
CONTINUOUS
 10
100.317036
 20
9.646654
 40
2.000000
 41
1.000000
  1
須藤
  7
KANJI
 50
0.000000
 51
0.000000
  0
TEXT
  8
5
 62
94
  6
CONTINUOUS
 10
107.040461
 20
17.539370
 40
2.000000
 41
1.000000
  1
２／１
  7
KANJI
 50
0.000000
 51
0.000000
  0
TEXT
  8
5
 62
94
  6
CONTINUOUS
 10
119.768372
 20
17.446955
 40
2.000000
 41
0.578947
  1
φ6丸ﾍｯﾄﾞ用ｴｱﾊﾟｰｼﾞﾌｰﾄﾞ
  7
KANJI
 50
0.000000
 51
0.000000
  0
TEXT
  8
2
 62
134
  6
CONTINUOUS
 10
160.000000
 20
38.000000
 40
2.000000
 41
1.000000
  1
重量３０ｇ
  7
KANJI
 50
0.000000
 51
0.000000
  0
DIMENSION
  8
2
 62
134
  6
CONTINUOUS
  2
*D1
 10
22.270322
 20
53.000000
 11
22.270322
 21
60.000000
 70
     0
  1
φ14
 13
28.500000
 23
53.000000
 14
28.500000
 24
67.000000
 50
90.000000
  0
DIMENSION
  8
2
 62
134
  6
CONTINUOUS
  2
*D2
 10
30.000000
 20
44.998925
 11
44.205965
 21
44.998925
 70
     0
  1
30
 13
30.000000
 23
52.500000
 14
60.000000
 24
55.500000
 50
0.000000
  0
DIMENSION
  8
2
 62
134
  6
CONTINUOUS
  2
*D3
 10
30.000000
 20
48.434541
 11
42.011504
 21
48.434541
 70
     0
  1
22
 13
30.000000
 23
65.500000
 14
52.000000
 24
63.000000
 50
0.000000
  0
DIMENSION
  8
2
 62
134
  6
CONTINUOUS
  2
*D4
 10
30.000000
 20
81.857719
 11
39.381938
 21
81.857719
 70
     0
  1
19
 13
30.000000
 23
67.500000
 14
49.000000
 24
68.000000
 50
0.000000
  0
DIMENSION
  8
2
 62
134
  6
CONTINUOUS
  2
*D5
 10
64.763949
 20
56.000000
 11
64.763949
 21
49.922322
 70
     0
  1
M8P0.75
 13
60.500000
 23
56.000000
 14
60.500000
 24
64.000000
 50
90.000000
  0
DIMENSION
  8
2
 62
134
  6
CONTINUOUS
  2
*D6
 10
22.324353
 20
67.000000
 11
22.324353
 21
73.311627
 70
     0
  1
12.3
 13
29.500000
 23
67.000000
 14
51.495172
 24
79.250000
 50
90.000000
  0
TEXT
  8
2
 62
134
  6
CONTINUOUS
 10
22.324353
 20
73.811627
 40
2.000000
 41
0.750000
  1
±1
  7
KANJI
 50
90.000000
 51
30.000000
  0
LINE
  8
2
 62
134
  6
CONTINUOUS
 10
60.000000
 20
76.000000
 11
64.981704
 21
83.747638
  0
LINE
  8
2
 62
134
  6
CONTINUOUS
 10
64.981704
 20
83.747638
 11
80.408704
 21
83.747638
  0
TEXT
  8
2
 62
134
  6
CONTINUOUS
 10
65.408704
 20
83.747638
 40
2.000000
 41
0.535714
  1
φ4ﾁｭｰﾌﾞﾌｨﾃｲﾝｸﾞ
  7
KANJI
 50
0.000000
 51
30.000000
  0
LINE
  8
2
 62
134
  6
CONTINUOUS
 10
60.000000
 20
76.000000
 11
60.304713
 21
76.952444
  0
LINE
  8
2
 62
134
  6
CONTINUOUS
 10
60.000000
 20
76.000000
 11
60.740111
 21
76.672485
  0
LINE
  8
2
 62
134
  6
CONTINUOUS
 10
60.304713
 20
76.952444
 11
60.740111
 21
76.672485
  0
LINE
  8
2
 62
134
  6
CONTINUOUS
 10
60.130603
 20
76.203116
 11
60.282959
 21
76.679338
  0
LINE
  8
2
 62
134
  6
CONTINUOUS
 10
60.130603
 20
76.203116
 11
60.500659
 21
76.539358
  0
LINE
  8
2
 62
134
  6
CONTINUOUS
 10
60.282959
 20
76.679338
 11
60.500659
 21
76.539358
  0
TEXT
  8
2
 62
134
  6
CONTINUOUS
 10
66.844888
 20
81.545693
 40
2.000000
 41
0.700000
  1
ｴｱｰ入口
  7
KANJI
 50
0.000000
 51
0.000000
  0
LINE
  8
2
 62
134
  6
CONTINUOUS
 10
49.000000
 20
64.000000
 11
46.028572
 21
61.358092
  0
LINE
  8
2
 62
134
  6
CONTINUOUS
 10
46.028572
 20
61.358092
 11
43.245111
 21
61.358092
  0
TEXT
  8
2
 62
134
  6
CONTINUOUS
 10
43.245111
 20
61.135159
 40
2.000000
 41
0.500000
  1
M3
  7
KANJI
 50
0.000000
 51
30.000000
  0
LINE
  8
2
 62
134
  6
CONTINUOUS
 10
49.000000
 20
64.000000
 11
48.450108
 21
63.164764
  0
LINE
  8
2
 62
134
  6
CONTINUOUS
 10
49.000000
 20
64.000000
 11
48.106162
 21
63.551610
  0
LINE
  8
2
 62
134
  6
CONTINUOUS
 10
48.450108
 20
63.164764
 11
48.106162
 21
63.551610
  0
LINE
  8
2
 62
134
  6
CONTINUOUS
 10
48.819534
 20
63.839547
 11
48.544588
 21
63.421929
  0
LINE
  8
2
 62
134
  6
CONTINUOUS
 10
48.819534
 20
63.839547
 11
48.372615
 21
63.615352
  0
LINE
  8
2
 62
134
  6
CONTINUOUS
 10
48.544588
 20
63.421929
 11
48.372615
 21
63.615352
  0
TEXT
  8
5
 62
94
  6
CONTINUOUS
 10
121.875845
 20
13.739173
 40
2.000000
 41
0.636364
  1
FTP9-6R 外形図
  7
KANJI
 50
0.000000
 51
0.000000
  0
TEXT
  8
5
 62
94
  6
CONTINUOUS
 10
110.285501
 20
9.646654
 40
2.000000
 41
1.000000
  1
山本
  7
KANJI
 50
0.000000
 51
0.000000
  0
TEXT
  8
5
 62
94
  6
CONTINUOUS
 10
88.843365
 20
13.739173
 40
2.000000
 41
0.500000
  1
2006/10/05
  7
KANJI
 50
0.000000
 51
0.000000
  0
DIMENSION
  8
2
 62
134
  6
CONTINUOUS
  2
*D7
 10
60.000000
 20
48.434541
 11
57.500000
 21
48.434541
 70
     0
  1
5
 13
60.000000
 23
62.000000
 14
55.000000
 24
52.500000
 50
180.000000
  0
LINE
  8
1
 62
7
  6
CONTINUOUS
 10
30.000000
 20
53.500000
 11
30.000000
 21
66.500000
  0
LINE
  8
1
 62
7
  6
CONTINUOUS
 10
60.000000
 20
63.500000
 11
60.000000
 21
56.500000
  0
LINE
  8
1
 62
7
  6
CONTINUOUS
 10
56.000000
 20
56.000000
 11
59.500000
 21
56.000000
  0
LINE
  8
1
 62
7
  6
CONTINUOUS
 10
55.000000
 20
56.500000
 11
56.000000
 21
56.500000
  0
LINE
  8
1
 62
7
  6
CONTINUOUS
 10
56.000000
 20
56.500000
 11
56.000000
 21
56.000000
  0
LINE
  8
1
 62
7
  6
CONTINUOUS
 10
55.000000
 20
63.500000
 11
56.000000
 21
63.500000
  0
LINE
  8
1
 62
7
  6
CONTINUOUS
 10
56.000000
 20
64.000000
 11
59.500000
 21
64.000000
  0
LINE
  8
1
 62
7
  6
CONTINUOUS
 10
56.000000
 20
64.000000
 11
56.000000
 21
63.500000
  0
LINE
  8
1
 62
7
  6
CONTINUOUS
 10
59.500000
 20
64.000000
 11
60.000000
 21
63.500000
  0
LINE
  8
1
 62
7
  6
CONTINUOUS
 10
60.000000
 20
56.500000
 11
59.500000
 21
56.000000
  0
LINE
  8
1
 62
7
  6
CONTINUOUS
 10
30.000000
 20
66.500000
 11
30.500000
 21
67.000000
  0
LINE
  8
1
 62
7
  6
CONTINUOUS
 10
30.000000
 20
53.500000
 11
30.500000
 21
53.000000
  0
LINE
  8
1
 62
7
  6
CONTINUOUS
 10
56.000000
 20
63.594000
 11
59.906000
 21
63.594000
  0
LINE
  8
1
 62
7
  6
CONTINUOUS
 10
56.000000
 20
56.406000
 11
59.906000
 21
56.406000
  0
LINE
  8
1
 62
7
  6
DASHDOT
 10
27.296014
 20
60.000000
 11
60.657357
 21
60.000000
  0
LINE
  8
1
 62
7
  6
CONTINUOUS
 10
30.500000
 20
67.000000
 11
54.500000
 21
67.000000
  0
LINE
  8
1
 62
7
  6
CONTINUOUS
 10
55.000000
 20
63.500000
 11
55.000000
 21
66.500000
  0
LINE
  8
1
 62
7
  6
CONTINUOUS
 10
54.500000
 20
67.000000
 11
55.000000
 21
66.500000
  0
LINE
  8
1
 62
7
  6
CONTINUOUS
 10
30.500000
 20
53.000000
 11
54.500000
 21
53.000000
  0
LINE
  8
1
 62
7
  6
CONTINUOUS
 10
55.000000
 20
56.500000
 11
55.000000
 21
53.500000
  0
LINE
  8
1
 62
7
  6
CONTINUOUS
 10
54.500000
 20
53.000000
 11
55.000000
 21
53.500000
  0
LINE
  8
1
 62
7
  6
DOT
 10
52.000000
 20
64.000000
 11
52.581939
 21
63.000000
  0
LINE
  8
1
 62
7
  6
DOT
 10
52.581939
 20
63.000000
 11
52.581939
 21
60.000000
  0
LINE
  8
1
 62
7
  6
DOT
 10
52.000000
 20
63.981791
 11
52.000000
 21
59.962352
  0
LINE
  8
1
 62
7
  6
DOT
 10
52.581939
 20
63.000000
 11
60.000000
 21
63.000000
  0
LINE
  8
1
 62
7
  6
DOT
 10
30.000000
 20
64.000000
 11
52.000000
 21
64.000000
  0
LINE
  8
1
 62
7
  6
DOT
 10
52.000000
 20
56.000000
 11
52.581939
 21
57.000000
  0
LINE
  8
1
 62
7
  6
DOT
 10
52.581939
 20
57.000000
 11
52.581939
 21
60.000000
  0
LINE
  8
1
 62
7
  6
DOT
 10
52.000000
 20
56.018209
 11
52.000000
 21
60.037648
  0
LINE
  8
1
 62
7
  6
DOT
 10
52.581939
 20
57.000000
 11
60.000000
 21
57.000000
  0
LINE
  8
1
 62
7
  6
DOT
 10
30.000000
 20
56.000000
 11
52.000000
 21
56.000000
  0
LINE
  8
1
 62
7
  6
CONTINUOUS
 10
56.000000
 20
56.500000
 11
56.000000
 21
63.500000
  0
LINE
  8
1
 62
7
  6
CONTINUOUS
 10
55.000000
 20
56.500000
 11
55.000000
 21
63.500000
  0
LINE
  8
1
 62
7
  6
CONTINUOUS
 10
30.500000
 20
53.000000
 11
30.500000
 21
67.000000
  0
LINE
  8
1
 62
7
  6
CONTINUOUS
 10
47.700000
 20
67.000000
 11
47.700000
 21
64.000000
  0
LINE
  8
1
 62
7
  6
CONTINUOUS
 10
50.305588
 20
67.000000
 11
50.305588
 21
64.000000
  0
LINE
  8
1
 62
7
  6
DASHDOT
 10
43.230132
 20
76.000000
 11
62.653972
 21
76.000000
  0
LINE
  8
1
 62
7
  6
DASHDOT
 10
49.000000
 20
80.869474
 11
49.000000
 21
60.172315
  0
ARC
  8
1
 62
7
  6
CONTINUOUS
 10
49.250000
 20
76.000000
 40
3.250000
 50
90.000000
 51
180.000000
  0
LINE
  8
1
 62
7
  6
CONTINUOUS
 10
46.000000
 20
67.000000
 11
52.000000
 21
67.000000
  0
LINE
  8
1
 62
7
  6
CONTINUOUS
 10
52.000000
 20
67.000000
 11
52.000000
 21
72.000000
  0
ARC
  8
1
 62
7
  6
CONTINUOUS
 10
51.250000
 20
72.000000
 40
0.750000
 50
0.000000
 51
90.000000
  0
ARC
  8
1
 62
7
  6
CONTINUOUS
 10
51.250000
 20
72.000000
 40
0.750000
 50
90.000000
 51
180.000000
  0
LINE
  8
1
 62
7
  6
CONTINUOUS
 10
50.500000
 20
67.000000
 11
50.500000
 21
72.000000
  0
ARC
  8
1
 62
7
  6
CONTINUOUS
 10
49.750000
 20
72.000000
 40
0.750000
 50
0.000000
 51
90.000000
  0
ARC
  8
1
 62
7
  6
CONTINUOUS
 10
48.250000
 20
72.000000
 40
0.750000
 50
90.000000
 51
180.000000
  0
LINE
  8
1
 62
7
  6
CONTINUOUS
 10
47.500000
 20
67.000000
 11
47.500000
 21
72.000000
  0
ARC
  8
1
 62
7
  6
CONTINUOUS
 10
46.750000
 20
72.000000
 40
0.750000
 50
0.000000
 51
90.000000
  0
LINE
  8
1
 62
7
  6
CONTINUOUS
 10
51.250000
 20
72.750000
 11
46.750000
 21
72.750000
  0
ARC
  8
1
 62
7
  6
CONTINUOUS
 10
46.750000
 20
72.000000
 40
0.750000
 50
90.000000
 51
180.000000
  0
LINE
  8
1
 62
7
  6
CONTINUOUS
 10
46.000000
 20
76.000000
 11
46.000000
 21
67.000000
  0
LINE
  8
1
 62
7
  6
CONTINUOUS
 10
56.000000
 20
79.250000
 11
56.000000
 21
72.750000
  0
LINE
  8
1
 62
7
  6
DOT
 10
56.000000
 20
77.500000
 11
50.500000
 21
77.500000
  0
LINE
  8
1
 62
7
  6
DOT
 10
50.500000
 20
77.500000
 11
50.500000
 21
74.500000
  0
LINE
  8
1
 62
7
  6
DOT
 10
50.500000
 20
74.500000
 11
56.000000
 21
74.500000
  0
LINE
  8
1
 62
7
  6
CONTINUOUS
 10
56.000000
 20
78.500000
 11
58.000000
 21
78.500000
  0
LINE
  8
1
 62
7
  6
CONTINUOUS
 10
56.000000
 20
73.500000
 11
58.000000
 21
73.500000
  0
LINE
  8
1
 62
7
  6
CONTINUOUS
 10
56.000000
 20
79.250000
 11
49.250000
 21
79.250000
  0
LINE
  8
1
 62
7
  6
CONTINUOUS
 10
56.000000
 20
72.750000
 11
46.750000
 21
72.750000
  0
LINE
  8
1
 62
7
  6
CONTINUOUS
 10
58.000000
 20
79.250000
 11
58.000000
 21
72.750000
  0
LINE
  8
1
 62
7
  6
CONTINUOUS
 10
58.000000
 20
72.750000
 11
60.000000
 21
72.750000
  0
LINE
  8
1
 62
7
  6
CONTINUOUS
 10
60.000000
 20
72.750000
 11
60.000000
 21
79.250000
  0
LINE
  8
1
 62
7
  6
CONTINUOUS
 10
60.000000
 20
79.250000
 11
58.000000
 21
79.250000
  0
LINE
  8
1
 62
7
  6
DOT
 10
50.500000
 20
67.000000
 11
50.500000
 21
63.999998
  0
LINE
  8
1
 62
7
  6
DOT
 10
47.500000
 20
67.000000
 11
47.500000
 21
64.000000
  0
LINE
  8
1
 62
7
  6
DOT
 10
47.500000
 20
64.000000
 11
50.500000
 21
64.000000
  0
LINE
  8
1
 62
7
  6
CONTINUOUS
 10
54.500000
 20
67.000000
 11
54.500000
 21
53.000000
  0
TEXT
  8
5
 62
94
  6
CONTINUOUS
 10
119.098778
 20
9.646654
 40
2.000000
 41
1.000000
  1
０１５－８７７－Ａ１０２
  7
KANJI
 50
0.000000
 51
0.000000
  0
TEXT
  8
2
 62
134
  6
CONTINUOUS
 10
99.651316
 20
45.429276
 40
3.000000
 41
0.666667
  1
重量 11g
  7
KANJI
 50
0.000000
 51
0.000000
  0
DIMENSION
  8
2
 62
134
  6
CONTINUOUS
  2
*D8
 10
25.746973
 20
64.000000
 11
25.746973
 21
60.000000
 70
     0
  1
φ8
 13
29.000000
 23
64.000000
 14
29.000000
 24
56.000000
 50
-90.000000
  0
TEXT
  8
2
 62
134
  6
CONTINUOUS
 10
99.511513
 20
49.837171
 40
3.000000
 41
0.750000
  1
耐熱 60℃
  7
KANJI
 50
0.000000
 51
0.000000
  0
ENDSEC
  0
EOF
