  0
SECTION
  2
HEADER
  9
$ACADVER
  1
AC1003
  9
$INSBASE
 10
0.000000
 20
0.000000
  9
$EXTMIN
 10
0.000000
 20
0.000000
  9
$EXTMAX
 10
297.000000
 20
210.000000
  9
$LIMMIN
 10
0.000000
 20
0.000000
  9
$LIMMAX
 10
297.000000
 20
210.000000
  9
$VIEWCTR
 10
148.500000
 20
105.000000
  9
$VIEWSIZE
 40
210.000000
  9
$PEXTMIN
 10
0.000000
 20
0.000000
 30
0.000000
  9
$PEXTMAX
 10
297.000000
 20
210.000000
 30
0.000000
  9
$SNAPMODE
 70
     0
  9
$SNAPUNIT
 10
1.000000
 20
1.000000
  9
$SNAPBASE
 10
0.000000
 20
0.000000
  9
$SNAPANG
 50
0.000000
  9
$SNAPISOPAIR
 70
     0
  9
$SNAPSTYLE
 70
     0
  9
$GRIDMODE
 70
     0
  9
$GRIDUNIT
 10
0.000000
 20
0.000000
  9
$ORTHOMODE
 70
     0
  9
$REGENMODE
 70
     1
  9
$FILLMODE
 70
     1
  9
$QTEXTMODE
 70
     0
  9
$DRAGMODE
 70
     2
  9
$LTSCALE
 40
0.250000
  9
$OSMODE
 70
     0
  9
$ATTMODE
 70
     1
  9
$TEXTSIZE
 40
0.200000
  9
$TRACEWID
 40
0.050000
  9
$TEXTSTYLE
  7
STANDARD
  9
$CLAYER
  8
0
  9
$CELTYPE
  6
BYLAYER
  9
$CECOLOR
 62
   256
  9
$DIMSCALE
 40
1.000000
  9
$DIMASZ
 40
1.000000
  9
$DIMEXO
 40
0.000000
  9
$DIMDLI
 40
0.500000
  9
$DIMRND
 40
0.000000
  9
$DIMDLE
 40
0.000000
  9
$DIMEXE
 40
0.000000
  9
$DIMTP
 40
0.000000
  9
$DIMTM
 40
0.000000
  9
$DIMTXT
 40
0.180000
  9
$DIMCEN
 40
0.000000
  9
$DIMTSZ
 40
0.000000
  9
$DIMTOL
 70
     0
  9
$DIMLIM
 70
     0
  9
$DIMTIH
 70
     1
  9
$DIMTOH
 70
     1
  9
$DIMSE1
 70
     0
  9
$DIMSE2
 70
     0
  9
$DIMTAD
 70
     0
  9
$DIMZIN
 70
     0
  9
$DIMBLK
  1

  9
$DIMASO
 70
     0
  9
$DIMSHO
 70
     0
  9
$DIMPOST
  1

  9
$DIMAPOST
  1

  9
$DIMALT
 70
     0
  9
$DIMALTD
 70
     0
  9
$DIMALTF
 40
25.400000
  9
$DIMLFAC
 40
1.000000
  9
$DIMTOFL
 70
     0
  9
$DIMTVP
 40
0.000000
  9
$DIMTIX
 70
     0
  9
$DIMSOXD
 70
     0
  9
$DIMSAH
 70
     0
  9
$DIMBLKL
  1

  9
$DIMBLKR
  1

  9
$LUNITS
 70
     2
  9
$LUPREC
 70
     2
  9
$AXISMODE
 70
     0
  9
$AXISUNIT
 10
1.000000
 20
1.000000
  9
$SKETCHINC
 40
0.000000
  9
$FILLETRAD
 40
0.000000
  9
$AUNITS
 70
     1
  9
$AUPREC
 70
     2
  9
$MENU
  1
ACAD
  9
$ELEVATION
 40
0.000000
  9
$THICKNESS
 40
0.000000
  9
$VIEWDIR
 10
0.000000
 20
0.000000
 30
1.000000
  9
$LIMCHECK
 70
     1
  9
$BLIPMODE
 70
     1
  9
$CHAMFERA
 40
0.000000
  9
$CHAMFERB
 40
0.000000
  9
$FASTZOOM
 70
     1
  9
$SKPOLY
 70
     0
  9
$TDCREATE
 40
0.000000
  9
$TDUPDATE
 40
0.000000
  9
$TDINDWG
 40
0.000000
  9
$TDUSRTIMER
 40
0.000000
  9
$USRTIMER
 70
     1
  9
$ANGBASE
 50
0.000000
  9
$ANGDIR
 70
     0
  9
$PDMODE
 70
     0
  9
$PDSIZE
 40
0.000000
  9
$PLINEWID
 40
0.000000
  9
$COORDS
 70
     2
  9
$USERI1
 70
     0
  9
$USERI2
 70
     0
  9
$USERI3
 70
     0
  9
$USERI4
 70
     0
  9
$USERI5
 70
     0
  9
$USERR1
 40
0.000000
  9
$USERR2
 40
0.000000
  9
$USERR3
 40
0.000000
  9
$USERR4
 40
0.000000
  9
$USERR5
 40
0.000000
  0
ENDSEC
  0
SECTION
  2
TABLES
  0
TABLE
  2
LTYPE
 70
     5
  0
LTYPE
  2
CONTINUOUS
 70
    64
  3
Solid line
 72
    65
 73
     0
 40
0.0
  0
LTYPE
  2
HIDDEN
 70
    64
  3
------------------------
 72
    65
 73
     2
 40
12.6
 49
8.4
 49
-4.2
  0
LTYPE
  2
DOT
 70
    64
  3
････････････････････････
 72
    65
 73
     2
 40
8.0
 49
6.0
 49
-2.0
  0
LTYPE
  2
DASHDOT
 70
    64
  3
--･--･--･--･--･--･--･--
 72
    65
 73
     4
 40
50.5
 49
30.0
 49
-9.0
 49
2.5
 49
-9.0
  0
LTYPE
  2
DIVIDE
 70
    64
  3
--･･--･･--･･--･･--･･--
 72
    65
 73
     6
 40
58.0
 49
30.0
 49
-9.0
 49
2.5
 49
-5.0
 49
2.5
 49
-9.0
  0
LTYPE
  2
ACAD_ISO06W100
 70
    64
  3
____ ... ____ ... ____
 72
    65
 73
     8
 40
37.5
 49
24.0
 49
-3.0
 49
0.5
 49
-3.0
 49
0.5
 49
-3.0
 49
0.5
 49
-3.0
  0
LTYPE
  2
ACAD_ISO14W100
 70
    64
  3
__ . . . __ . . . __ . . . 
 72
    65
 73
     8
 40
25.5
 49
12.0
 49
-3.0
 49
0.5
 49
-3.0
 49
0.5
 49
-3.0
 49
0.5
 49
-3.0
  0
ENDTAB
  0
TABLE
  2
LAYER
 70
4
  0
LAYER
  2
1
 70
64
 62
7
  6
CONTINUOUS
  0
LAYER
  2
2
 70
64
 62
134
  6
CONTINUOUS
  0
LAYER
  2
3
 70
64
 62
214
  6
CONTINUOUS
  0
LAYER
  2
5
 70
64
 62
94
  6
CONTINUOUS
  0
ENDTAB
  0
TABLE
  2
STYLE
 70
     2
  0
STYLE
  2
STANDARD
 70
    64
 40
0.0
 41
1.0
 50
0.0
 71
     0
 42
0.2
  3
TXT
  4

  0
STYLE
  2
KANJI
 70
    64
 40
0.0
 41
1.0
 50
0.0
 71
     0
 42
0.2
  3
TXT
  4
BIGFONT
  0
ENDTAB
  0
TABLE
  2
VIEW
 70
     0
  0
ENDTAB
  0
ENDSEC
  0
SECTION
  2
BLOCKS
  0
BLOCK
  8
2
 62
134
  6
CONTINUOUS
  2
*D1
 70
    65
 10
0.0
 20
0.0
  0
LINE
  8
2
 62
134
  6
CONTINUOUS
 10
36.000000
 20
89.909828
 11
60.000000
 21
89.909828
  0
LINE
  8
2
 62
134
  6
CONTINUOUS
 10
36.000000
 20
91.909828
 11
36.000000
 21
86.200003
  0
LINE
  8
2
 62
134
  6
CONTINUOUS
 10
60.000000
 20
91.909828
 11
60.000000
 21
86.200003
  0
LINE
  8
2
 62
134
  6
CONTINUOUS
 10
36.000000
 20
89.909828
 11
37.931852
 21
90.427467
  0
LINE
  8
2
 62
134
  6
CONTINUOUS
 10
36.000000
 20
89.909828
 11
37.931852
 21
89.392190
  0
LINE
  8
2
 62
134
  6
CONTINUOUS
 10
37.931852
 20
90.427467
 11
37.931852
 21
89.392190
  0
LINE
  8
2
 62
134
  6
CONTINUOUS
 10
36.482963
 20
89.909828
 11
37.448889
 21
90.168647
  0
LINE
  8
2
 62
134
  6
CONTINUOUS
 10
36.482963
 20
89.909828
 11
37.448889
 21
89.651009
  0
LINE
  8
2
 62
134
  6
CONTINUOUS
 10
37.448889
 20
90.168647
 11
37.448889
 21
89.651009
  0
LINE
  8
2
 62
134
  6
CONTINUOUS
 10
60.000000
 20
89.909828
 11
58.068148
 21
89.392190
  0
LINE
  8
2
 62
134
  6
CONTINUOUS
 10
60.000000
 20
89.909828
 11
58.068148
 21
90.427467
  0
LINE
  8
2
 62
134
  6
CONTINUOUS
 10
58.068148
 20
89.392190
 11
58.068148
 21
90.427467
  0
LINE
  8
2
 62
134
  6
CONTINUOUS
 10
59.517037
 20
89.909828
 11
58.551111
 21
89.651009
  0
LINE
  8
2
 62
134
  6
CONTINUOUS
 10
59.517037
 20
89.909828
 11
58.551111
 21
90.168647
  0
LINE
  8
2
 62
134
  6
CONTINUOUS
 10
58.551111
 20
89.651009
 11
58.551111
 21
90.168647
  0
TEXT
  8
2
 62
134
  6
CONTINUOUS
 10
44.604834
 20
89.909828
 40
4.000000
 41
0.500000
  1
24
  7
KANJI
 50
0.000000
 51
30.000000
  0
ENDBLK
  0
BLOCK
  8
2
 62
134
  6
CONTINUOUS
  2
*D2
 70
    65
 10
0.0
 20
0.0
  0
LINE
  8
2
 62
134
  6
CONTINUOUS
 10
50.752144
 20
66.200003
 11
50.752144
 21
79.200003
  0
LINE
  8
2
 62
134
  6
CONTINUOUS
 10
48.752144
 20
66.200003
 11
60.000000
 21
66.200003
  0
LINE
  8
2
 62
134
  6
CONTINUOUS
 10
50.752144
 20
66.200003
 11
50.234506
 21
68.131855
  0
LINE
  8
2
 62
134
  6
CONTINUOUS
 10
50.752144
 20
66.200003
 11
51.269782
 21
68.131855
  0
LINE
  8
2
 62
134
  6
CONTINUOUS
 10
50.234506
 20
68.131855
 11
51.269782
 21
68.131855
  0
LINE
  8
2
 62
134
  6
CONTINUOUS
 10
50.752144
 20
66.682966
 11
50.493325
 21
67.648892
  0
LINE
  8
2
 62
134
  6
CONTINUOUS
 10
50.752144
 20
66.682966
 11
51.010963
 21
67.648892
  0
LINE
  8
2
 62
134
  6
CONTINUOUS
 10
50.493325
 20
67.648892
 11
51.010963
 21
67.648892
  0
LINE
  8
2
 62
134
  6
CONTINUOUS
 10
50.752144
 20
79.200003
 11
51.269782
 21
77.268151
  0
LINE
  8
2
 62
134
  6
CONTINUOUS
 10
50.752144
 20
79.200003
 11
50.234506
 21
77.268151
  0
LINE
  8
2
 62
134
  6
CONTINUOUS
 10
51.269782
 20
77.268151
 11
50.234506
 21
77.268151
  0
LINE
  8
2
 62
134
  6
CONTINUOUS
 10
50.752144
 20
78.717040
 11
51.010963
 21
77.751114
  0
LINE
  8
2
 62
134
  6
CONTINUOUS
 10
50.752144
 20
78.717040
 11
50.493325
 21
77.751114
  0
LINE
  8
2
 62
134
  6
CONTINUOUS
 10
51.010963
 20
77.751114
 11
50.493325
 21
77.751114
  0
TEXT
  8
2
 62
134
  6
CONTINUOUS
 10
50.752144
 20
69.505502
 40
4.000000
 41
0.500000
  1
13
  7
KANJI
 50
90.000000
 51
30.000000
  0
ENDBLK
  0
BLOCK
  8
2
 62
134
  6
CONTINUOUS
  2
*D3
 70
    65
 10
0.0
 20
0.0
  0
LINE
  8
2
 62
134
  6
CONTINUOUS
 10
43.311418
 20
66.200003
 11
43.311418
 21
114.200003
  0
LINE
  8
2
 62
134
  6
CONTINUOUS
 10
41.311418
 20
66.200003
 11
60.000000
 21
66.200003
  0
LINE
  8
2
 62
134
  6
CONTINUOUS
 10
41.311418
 20
114.200003
 11
60.000000
 21
114.200003
  0
LINE
  8
2
 62
134
  6
CONTINUOUS
 10
43.311418
 20
66.200003
 11
42.793780
 21
68.131855
  0
LINE
  8
2
 62
134
  6
CONTINUOUS
 10
43.311418
 20
66.200003
 11
43.829056
 21
68.131855
  0
LINE
  8
2
 62
134
  6
CONTINUOUS
 10
42.793780
 20
68.131855
 11
43.829056
 21
68.131855
  0
LINE
  8
2
 62
134
  6
CONTINUOUS
 10
43.311418
 20
66.682966
 11
43.052599
 21
67.648892
  0
LINE
  8
2
 62
134
  6
CONTINUOUS
 10
43.311418
 20
66.682966
 11
43.570237
 21
67.648892
  0
LINE
  8
2
 62
134
  6
CONTINUOUS
 10
43.052599
 20
67.648892
 11
43.570237
 21
67.648892
  0
LINE
  8
2
 62
134
  6
CONTINUOUS
 10
43.311418
 20
114.200003
 11
43.829056
 21
112.268151
  0
LINE
  8
2
 62
134
  6
CONTINUOUS
 10
43.311418
 20
114.200003
 11
42.793780
 21
112.268151
  0
LINE
  8
2
 62
134
  6
CONTINUOUS
 10
43.829056
 20
112.268151
 11
42.793780
 21
112.268151
  0
LINE
  8
2
 62
134
  6
CONTINUOUS
 10
43.311418
 20
113.717040
 11
43.570237
 21
112.751114
  0
LINE
  8
2
 62
134
  6
CONTINUOUS
 10
43.311418
 20
113.717040
 11
43.052599
 21
112.751114
  0
LINE
  8
2
 62
134
  6
CONTINUOUS
 10
43.570237
 20
112.751114
 11
43.052599
 21
112.751114
  0
TEXT
  8
2
 62
134
  6
CONTINUOUS
 10
43.311418
 20
94.132860
 40
4.000000
 41
0.500000
  1
48
  7
KANJI
 50
90.000000
 51
30.000000
  0
ENDBLK
  0
BLOCK
  8
2
 62
134
  6
CONTINUOUS
  2
*D4
 70
    65
 10
0.0
 20
0.0
  0
LINE
  8
2
 62
134
  6
CONTINUOUS
 10
247.506424
 20
122.495992
 11
273.506424
 21
122.495992
  0
LINE
  8
2
 62
134
  6
CONTINUOUS
 10
247.506424
 20
124.495992
 11
247.506424
 21
116.000003
  0
LINE
  8
2
 62
134
  6
CONTINUOUS
 10
273.506424
 20
124.495992
 11
273.506424
 21
116.200003
  0
LINE
  8
2
 62
134
  6
CONTINUOUS
 10
247.506424
 20
122.495992
 11
249.438276
 21
123.013630
  0
LINE
  8
2
 62
134
  6
CONTINUOUS
 10
247.506424
 20
122.495992
 11
249.438276
 21
121.978353
  0
LINE
  8
2
 62
134
  6
CONTINUOUS
 10
249.438276
 20
123.013630
 11
249.438276
 21
121.978353
  0
LINE
  8
2
 62
134
  6
CONTINUOUS
 10
247.989387
 20
122.495992
 11
248.955313
 21
122.754811
  0
LINE
  8
2
 62
134
  6
CONTINUOUS
 10
247.989387
 20
122.495992
 11
248.955313
 21
122.237173
  0
LINE
  8
2
 62
134
  6
CONTINUOUS
 10
248.955313
 20
122.754811
 11
248.955313
 21
122.237173
  0
LINE
  8
2
 62
134
  6
CONTINUOUS
 10
273.506424
 20
122.495992
 11
271.574573
 21
121.978353
  0
LINE
  8
2
 62
134
  6
CONTINUOUS
 10
273.506424
 20
122.495992
 11
271.574573
 21
123.013630
  0
LINE
  8
2
 62
134
  6
CONTINUOUS
 10
271.574573
 20
121.978353
 11
271.574573
 21
123.013630
  0
LINE
  8
2
 62
134
  6
CONTINUOUS
 10
273.023461
 20
122.495992
 11
272.057535
 21
122.237173
  0
LINE
  8
2
 62
134
  6
CONTINUOUS
 10
273.023461
 20
122.495992
 11
272.057535
 21
122.754811
  0
LINE
  8
2
 62
134
  6
CONTINUOUS
 10
272.057535
 20
122.237173
 11
272.057535
 21
122.754811
  0
TEXT
  8
2
 62
134
  6
CONTINUOUS
 10
259.273419
 20
122.495992
 40
4.000000
 41
0.500000
  1
26
  7
KANJI
 50
0.000000
 51
30.000000
  0
ENDBLK
  0
BLOCK
  8
2
 62
134
  6
CONTINUOUS
  2
*D5
 70
    65
 10
0.0
 20
0.0
  0
LINE
  8
2
 62
134
  6
CONTINUOUS
 10
26.000000
 20
149.000000
 11
26.000000
 21
172.418564
  0
LINE
  8
2
 62
134
  6
CONTINUOUS
 10
24.000000
 20
157.000000
 11
26.000000
 21
157.000000
  0
LINE
  8
2
 62
134
  6
CONTINUOUS
 10
26.000000
 20
157.000000
 11
26.517638
 21
155.068148
  0
LINE
  8
2
 62
134
  6
CONTINUOUS
 10
26.000000
 20
157.000000
 11
25.482362
 21
155.068148
  0
LINE
  8
2
 62
134
  6
CONTINUOUS
 10
26.517638
 20
155.068148
 11
25.482362
 21
155.068148
  0
LINE
  8
2
 62
134
  6
CONTINUOUS
 10
26.000000
 20
156.517037
 11
26.258819
 21
155.551111
  0
LINE
  8
2
 62
134
  6
CONTINUOUS
 10
26.000000
 20
156.517037
 11
25.741181
 21
155.551111
  0
LINE
  8
2
 62
134
  6
CONTINUOUS
 10
26.258819
 20
155.551111
 11
25.741181
 21
155.551111
  0
LINE
  8
2
 62
134
  6
CONTINUOUS
 10
26.000000
 20
163.000000
 11
25.482362
 21
164.931852
  0
LINE
  8
2
 62
134
  6
CONTINUOUS
 10
26.000000
 20
163.000000
 11
26.517638
 21
164.931852
  0
LINE
  8
2
 62
134
  6
CONTINUOUS
 10
25.482362
 20
164.931852
 11
26.517638
 21
164.931852
  0
LINE
  8
2
 62
134
  6
CONTINUOUS
 10
26.000000
 20
163.482963
 11
25.741181
 21
164.448889
  0
LINE
  8
2
 62
134
  6
CONTINUOUS
 10
26.000000
 20
163.482963
 11
26.258819
 21
164.448889
  0
LINE
  8
2
 62
134
  6
CONTINUOUS
 10
25.741181
 20
164.448889
 11
26.258819
 21
164.448889
  0
TEXT
  8
2
 62
134
  6
CONTINUOUS
 10
26.000000
 20
165.418564
 40
4.000000
 41
0.750000
  1
φ6
  7
KANJI
 50
90.000000
 51
30.000000
  0
ENDBLK
  0
BLOCK
  8
2
 62
134
  6
CONTINUOUS
  2
*D6
 70
    65
 10
0.0
 20
0.0
  0
LINE
  8
2
 62
134
  6
CONTINUOUS
 10
41.732228
 20
147.000000
 11
41.732228
 21
176.795799
  0
LINE
  8
2
 62
134
  6
CONTINUOUS
 10
39.732228
 20
165.000000
 11
41.732228
 21
165.000000
  0
LINE
  8
2
 62
134
  6
CONTINUOUS
 10
41.732228
 20
155.000000
 11
42.249866
 21
153.068148
  0
LINE
  8
2
 62
134
  6
CONTINUOUS
 10
41.732228
 20
155.000000
 11
41.214590
 21
153.068148
  0
LINE
  8
2
 62
134
  6
CONTINUOUS
 10
42.249866
 20
153.068148
 11
41.214590
 21
153.068148
  0
LINE
  8
2
 62
134
  6
CONTINUOUS
 10
41.732228
 20
154.517037
 11
41.991047
 21
153.551111
  0
LINE
  8
2
 62
134
  6
CONTINUOUS
 10
41.732228
 20
154.517037
 11
41.473409
 21
153.551111
  0
LINE
  8
2
 62
134
  6
CONTINUOUS
 10
41.991047
 20
153.551111
 11
41.473409
 21
153.551111
  0
LINE
  8
2
 62
134
  6
CONTINUOUS
 10
41.732228
 20
165.000000
 11
41.214590
 21
166.931852
  0
LINE
  8
2
 62
134
  6
CONTINUOUS
 10
41.732228
 20
165.000000
 11
42.249866
 21
166.931852
  0
LINE
  8
2
 62
134
  6
CONTINUOUS
 10
41.214590
 20
166.931852
 11
42.249866
 21
166.931852
  0
LINE
  8
2
 62
134
  6
CONTINUOUS
 10
41.732228
 20
165.482963
 11
41.473409
 21
166.448889
  0
LINE
  8
2
 62
134
  6
CONTINUOUS
 10
41.732228
 20
165.482963
 11
41.991047
 21
166.448889
  0
LINE
  8
2
 62
134
  6
CONTINUOUS
 10
41.473409
 20
166.448889
 11
41.991047
 21
166.448889
  0
TEXT
  8
2
 62
134
  6
CONTINUOUS
 10
41.732228
 20
167.795799
 40
4.000000
 41
0.666667
  1
φ10
  7
KANJI
 50
90.000000
 51
30.000000
  0
ENDBLK
  0
BLOCK
  8
2
 62
134
  6
CONTINUOUS
  2
*D7
 70
    65
 10
0.0
 20
0.0
  0
LINE
  8
2
 62
134
  6
CONTINUOUS
 10
60.000000
 20
139.841034
 11
88.000000
 21
139.841034
  0
LINE
  8
2
 62
134
  6
CONTINUOUS
 10
60.000000
 20
137.841034
 11
60.000000
 21
146.000000
  0
LINE
  8
2
 62
134
  6
CONTINUOUS
 10
88.000000
 20
137.841034
 11
88.000000
 21
156.500000
  0
LINE
  8
2
 62
134
  6
CONTINUOUS
 10
60.000000
 20
139.841034
 11
61.931852
 21
140.358673
  0
LINE
  8
2
 62
134
  6
CONTINUOUS
 10
60.000000
 20
139.841034
 11
61.931852
 21
139.323396
  0
LINE
  8
2
 62
134
  6
CONTINUOUS
 10
61.931852
 20
140.358673
 11
61.931852
 21
139.323396
  0
LINE
  8
2
 62
134
  6
CONTINUOUS
 10
60.482963
 20
139.841034
 11
61.448889
 21
140.099854
  0
LINE
  8
2
 62
134
  6
CONTINUOUS
 10
60.482963
 20
139.841034
 11
61.448889
 21
139.582215
  0
LINE
  8
2
 62
134
  6
CONTINUOUS
 10
61.448889
 20
140.099854
 11
61.448889
 21
139.582215
  0
LINE
  8
2
 62
134
  6
CONTINUOUS
 10
88.000000
 20
139.841034
 11
86.068148
 21
139.323396
  0
LINE
  8
2
 62
134
  6
CONTINUOUS
 10
88.000000
 20
139.841034
 11
86.068148
 21
140.358673
  0
LINE
  8
2
 62
134
  6
CONTINUOUS
 10
86.068148
 20
139.323396
 11
86.068148
 21
140.358673
  0
LINE
  8
2
 62
134
  6
CONTINUOUS
 10
87.517037
 20
139.841034
 11
86.551111
 21
139.582215
  0
LINE
  8
2
 62
134
  6
CONTINUOUS
 10
87.517037
 20
139.841034
 11
86.551111
 21
140.099854
  0
LINE
  8
2
 62
134
  6
CONTINUOUS
 10
86.551111
 20
139.582215
 11
86.551111
 21
140.099854
  0
TEXT
  8
2
 62
134
  6
CONTINUOUS
 10
71.867606
 20
139.841034
 40
4.000000
 41
0.500000
  1
28
  7
KANJI
 50
0.000000
 51
30.000000
  0
ENDBLK
  0
BLOCK
  8
2
 62
134
  6
CONTINUOUS
  2
*D8
 70
    65
 10
0.0
 20
0.0
  0
LINE
  8
2
 62
134
  6
CONTINUOUS
 10
88.000000
 20
139.841034
 11
108.000000
 21
139.841034
  0
LINE
  8
2
 62
134
  6
CONTINUOUS
 10
88.000000
 20
137.841034
 11
88.000000
 21
156.500000
  0
LINE
  8
2
 62
134
  6
CONTINUOUS
 10
108.000000
 20
137.841034
 11
108.000000
 21
156.500000
  0
LINE
  8
2
 62
134
  6
CONTINUOUS
 10
88.000000
 20
139.841034
 11
89.931852
 21
140.358673
  0
LINE
  8
2
 62
134
  6
CONTINUOUS
 10
88.000000
 20
139.841034
 11
89.931852
 21
139.323396
  0
LINE
  8
2
 62
134
  6
CONTINUOUS
 10
89.931852
 20
140.358673
 11
89.931852
 21
139.323396
  0
LINE
  8
2
 62
134
  6
CONTINUOUS
 10
88.482963
 20
139.841034
 11
89.448889
 21
140.099854
  0
LINE
  8
2
 62
134
  6
CONTINUOUS
 10
88.482963
 20
139.841034
 11
89.448889
 21
139.582215
  0
LINE
  8
2
 62
134
  6
CONTINUOUS
 10
89.448889
 20
140.099854
 11
89.448889
 21
139.582215
  0
LINE
  8
2
 62
134
  6
CONTINUOUS
 10
108.000000
 20
139.841034
 11
106.068148
 21
139.323396
  0
LINE
  8
2
 62
134
  6
CONTINUOUS
 10
108.000000
 20
139.841034
 11
106.068148
 21
140.358673
  0
LINE
  8
2
 62
134
  6
CONTINUOUS
 10
106.068148
 20
139.323396
 11
106.068148
 21
140.358673
  0
LINE
  8
2
 62
134
  6
CONTINUOUS
 10
107.517037
 20
139.841034
 11
106.551111
 21
139.582215
  0
LINE
  8
2
 62
134
  6
CONTINUOUS
 10
107.517037
 20
139.841034
 11
106.551111
 21
140.099854
  0
LINE
  8
2
 62
134
  6
CONTINUOUS
 10
106.551111
 20
139.582215
 11
106.551111
 21
140.099854
  0
TEXT
  8
2
 62
134
  6
CONTINUOUS
 10
95.773527
 20
139.841034
 40
4.000000
 41
0.500000
  1
20
  7
KANJI
 50
0.000000
 51
30.000000
  0
ENDBLK
  0
BLOCK
  8
2
 62
134
  6
CONTINUOUS
  2
*D9
 70
    65
 10
0.0
 20
0.0
  0
LINE
  8
2
 62
134
  6
CONTINUOUS
 10
53.155568
 20
147.000000
 11
53.155568
 21
173.000000
  0
LINE
  8
2
 62
134
  6
CONTINUOUS
 10
51.155568
 20
147.000000
 11
58.200000
 21
147.000000
  0
LINE
  8
2
 62
134
  6
CONTINUOUS
 10
51.155568
 20
173.000000
 11
58.000000
 21
173.000000
  0
LINE
  8
2
 62
134
  6
CONTINUOUS
 10
53.155568
 20
147.000000
 11
52.637929
 21
148.931852
  0
LINE
  8
2
 62
134
  6
CONTINUOUS
 10
53.155568
 20
147.000000
 11
53.673206
 21
148.931852
  0
LINE
  8
2
 62
134
  6
CONTINUOUS
 10
52.637929
 20
148.931852
 11
53.673206
 21
148.931852
  0
LINE
  8
2
 62
134
  6
CONTINUOUS
 10
53.155568
 20
147.482963
 11
52.896748
 21
148.448889
  0
LINE
  8
2
 62
134
  6
CONTINUOUS
 10
53.155568
 20
147.482963
 11
53.414387
 21
148.448889
  0
LINE
  8
2
 62
134
  6
CONTINUOUS
 10
52.896748
 20
148.448889
 11
53.414387
 21
148.448889
  0
LINE
  8
2
 62
134
  6
CONTINUOUS
 10
53.155568
 20
173.000000
 11
53.673206
 21
171.068148
  0
LINE
  8
2
 62
134
  6
CONTINUOUS
 10
53.155568
 20
173.000000
 11
52.637929
 21
171.068148
  0
LINE
  8
2
 62
134
  6
CONTINUOUS
 10
53.673206
 20
171.068148
 11
52.637929
 21
171.068148
  0
LINE
  8
2
 62
134
  6
CONTINUOUS
 10
53.155568
 20
172.517037
 11
53.414387
 21
171.551111
  0
LINE
  8
2
 62
134
  6
CONTINUOUS
 10
53.155568
 20
172.517037
 11
52.896748
 21
171.551111
  0
LINE
  8
2
 62
134
  6
CONTINUOUS
 10
53.414387
 20
171.551111
 11
52.896748
 21
171.551111
  0
TEXT
  8
2
 62
134
  6
CONTINUOUS
 10
53.155568
 20
158.000000
 40
4.000000
 41
0.500000
  1
26
  7
KANJI
 50
90.000000
 51
30.000000
  0
ENDBLK
  0
BLOCK
  8
2
 62
134
  6
CONTINUOUS
  2
*D10
 70
    65
 10
0.0
 20
0.0
  0
LINE
  8
2
 62
134
  6
CONTINUOUS
 10
60.000000
 20
100.967790
 11
83.000000
 21
100.967790
  0
LINE
  8
2
 62
134
  6
CONTINUOUS
 10
60.000000
 20
98.967790
 11
60.000000
 21
107.988961
  0
LINE
  8
2
 62
134
  6
CONTINUOUS
 10
83.000000
 20
98.967790
 11
83.000000
 21
106.350003
  0
LINE
  8
2
 62
134
  6
CONTINUOUS
 10
60.000000
 20
100.967790
 11
61.931852
 21
101.485428
  0
LINE
  8
2
 62
134
  6
CONTINUOUS
 10
60.000000
 20
100.967790
 11
61.931852
 21
100.450152
  0
LINE
  8
2
 62
134
  6
CONTINUOUS
 10
61.931852
 20
101.485428
 11
61.931852
 21
100.450152
  0
LINE
  8
2
 62
134
  6
CONTINUOUS
 10
60.482963
 20
100.967790
 11
61.448889
 21
101.226609
  0
LINE
  8
2
 62
134
  6
CONTINUOUS
 10
60.482963
 20
100.967790
 11
61.448889
 21
100.708971
  0
LINE
  8
2
 62
134
  6
CONTINUOUS
 10
61.448889
 20
101.226609
 11
61.448889
 21
100.708971
  0
LINE
  8
2
 62
134
  6
CONTINUOUS
 10
83.000000
 20
100.967790
 11
81.068148
 21
100.450152
  0
LINE
  8
2
 62
134
  6
CONTINUOUS
 10
83.000000
 20
100.967790
 11
81.068148
 21
101.485428
  0
LINE
  8
2
 62
134
  6
CONTINUOUS
 10
81.068148
 20
100.450152
 11
81.068148
 21
101.485428
  0
LINE
  8
2
 62
134
  6
CONTINUOUS
 10
82.517037
 20
100.967790
 11
81.551111
 21
100.708971
  0
LINE
  8
2
 62
134
  6
CONTINUOUS
 10
82.517037
 20
100.967790
 11
81.551111
 21
101.226609
  0
LINE
  8
2
 62
134
  6
CONTINUOUS
 10
81.551111
 20
100.708971
 11
81.551111
 21
101.226609
  0
TEXT
  8
2
 62
134
  6
CONTINUOUS
 10
69.381216
 20
100.967790
 40
4.000000
 41
0.500000
  1
23
  7
KANJI
 50
0.000000
 51
30.000000
  0
ENDBLK
  0
BLOCK
  8
2
 62
134
  6
CONTINUOUS
  2
*D11
 70
    65
 10
0.0
 20
0.0
  0
LINE
  8
2
 62
134
  6
CONTINUOUS
 10
83.000000
 20
100.967790
 11
103.000000
 21
100.967790
  0
LINE
  8
2
 62
134
  6
CONTINUOUS
 10
83.000000
 20
98.967790
 11
83.000000
 21
106.350003
  0
LINE
  8
2
 62
134
  6
CONTINUOUS
 10
103.000000
 20
98.967790
 11
103.000000
 21
106.350003
  0
LINE
  8
2
 62
134
  6
CONTINUOUS
 10
83.000000
 20
100.967790
 11
84.931852
 21
101.485428
  0
LINE
  8
2
 62
134
  6
CONTINUOUS
 10
83.000000
 20
100.967790
 11
84.931852
 21
100.450152
  0
LINE
  8
2
 62
134
  6
CONTINUOUS
 10
84.931852
 20
101.485428
 11
84.931852
 21
100.450152
  0
LINE
  8
2
 62
134
  6
CONTINUOUS
 10
83.482963
 20
100.967790
 11
84.448889
 21
101.226609
  0
LINE
  8
2
 62
134
  6
CONTINUOUS
 10
83.482963
 20
100.967790
 11
84.448889
 21
100.708971
  0
LINE
  8
2
 62
134
  6
CONTINUOUS
 10
84.448889
 20
101.226609
 11
84.448889
 21
100.708971
  0
LINE
  8
2
 62
134
  6
CONTINUOUS
 10
103.000000
 20
100.967790
 11
101.068148
 21
100.450152
  0
LINE
  8
2
 62
134
  6
CONTINUOUS
 10
103.000000
 20
100.967790
 11
101.068148
 21
101.485428
  0
LINE
  8
2
 62
134
  6
CONTINUOUS
 10
101.068148
 20
100.450152
 11
101.068148
 21
101.485428
  0
LINE
  8
2
 62
134
  6
CONTINUOUS
 10
102.517037
 20
100.967790
 11
101.551111
 21
100.708971
  0
LINE
  8
2
 62
134
  6
CONTINUOUS
 10
102.517037
 20
100.967790
 11
101.551111
 21
101.226609
  0
LINE
  8
2
 62
134
  6
CONTINUOUS
 10
101.551111
 20
100.708971
 11
101.551111
 21
101.226609
  0
TEXT
  8
2
 62
134
  6
CONTINUOUS
 10
90.503957
 20
100.967790
 40
4.000000
 41
0.500000
  1
20
  7
KANJI
 50
0.000000
 51
30.000000
  0
ENDBLK
  0
BLOCK
  8
2
 62
134
  6
CONTINUOUS
  2
*D12
 70
    65
 10
0.0
 20
0.0
  0
LINE
  8
2
 62
134
  6
CONTINUOUS
 10
60.000000
 20
122.495992
 11
120.000000
 21
122.495992
  0
LINE
  8
2
 62
134
  6
CONTINUOUS
 10
60.000000
 20
124.495992
 11
60.000000
 21
114.200003
  0
LINE
  8
2
 62
134
  6
CONTINUOUS
 10
120.000000
 20
124.495992
 11
120.000000
 21
114.200003
  0
LINE
  8
2
 62
134
  6
CONTINUOUS
 10
60.000000
 20
122.495992
 11
61.931852
 21
123.013630
  0
LINE
  8
2
 62
134
  6
CONTINUOUS
 10
60.000000
 20
122.495992
 11
61.931852
 21
121.978353
  0
LINE
  8
2
 62
134
  6
CONTINUOUS
 10
61.931852
 20
123.013630
 11
61.931852
 21
121.978353
  0
LINE
  8
2
 62
134
  6
CONTINUOUS
 10
60.482963
 20
122.495992
 11
61.448889
 21
122.754811
  0
LINE
  8
2
 62
134
  6
CONTINUOUS
 10
60.482963
 20
122.495992
 11
61.448889
 21
122.237173
  0
LINE
  8
2
 62
134
  6
CONTINUOUS
 10
61.448889
 20
122.754811
 11
61.448889
 21
122.237173
  0
LINE
  8
2
 62
134
  6
CONTINUOUS
 10
120.000000
 20
122.495992
 11
118.068148
 21
121.978353
  0
LINE
  8
2
 62
134
  6
CONTINUOUS
 10
120.000000
 20
122.495992
 11
118.068148
 21
123.013630
  0
LINE
  8
2
 62
134
  6
CONTINUOUS
 10
118.068148
 20
121.978353
 11
118.068148
 21
123.013630
  0
LINE
  8
2
 62
134
  6
CONTINUOUS
 10
119.517037
 20
122.495992
 11
118.551111
 21
122.237173
  0
LINE
  8
2
 62
134
  6
CONTINUOUS
 10
119.517037
 20
122.495992
 11
118.551111
 21
122.754811
  0
LINE
  8
2
 62
134
  6
CONTINUOUS
 10
118.551111
 20
122.237173
 11
118.551111
 21
122.754811
  0
TEXT
  8
2
 62
134
  6
CONTINUOUS
 10
88.963758
 20
122.495992
 40
4.000000
 41
0.500000
  1
60
  7
KANJI
 50
0.000000
 51
30.000000
  0
ENDBLK
  0
BLOCK
  8
2
 62
134
  6
CONTINUOUS
  2
*D13
 70
    65
 10
0.0
 20
0.0
  0
LINE
  8
2
 62
134
  6
CONTINUOUS
 10
74.895366
 20
122.200003
 11
74.895366
 21
102.200003
  0
LINE
  8
2
 62
134
  6
CONTINUOUS
 10
72.895366
 20
114.200003
 11
78.325283
 21
114.200003
  0
LINE
  8
2
 62
134
  6
CONTINUOUS
 10
72.895366
 20
110.200003
 11
79.150000
 21
110.200003
  0
LINE
  8
2
 62
134
  6
CONTINUOUS
 10
74.895366
 20
114.200003
 11
74.377728
 21
116.131855
  0
LINE
  8
2
 62
134
  6
CONTINUOUS
 10
74.895366
 20
114.200003
 11
75.413004
 21
116.131855
  0
LINE
  8
2
 62
134
  6
CONTINUOUS
 10
74.377728
 20
116.131855
 11
75.413004
 21
116.131855
  0
LINE
  8
2
 62
134
  6
CONTINUOUS
 10
74.895366
 20
114.682966
 11
74.636547
 21
115.648892
  0
LINE
  8
2
 62
134
  6
CONTINUOUS
 10
74.895366
 20
114.682966
 11
75.154185
 21
115.648892
  0
LINE
  8
2
 62
134
  6
CONTINUOUS
 10
74.636547
 20
115.648892
 11
75.154185
 21
115.648892
  0
LINE
  8
2
 62
134
  6
CONTINUOUS
 10
74.895366
 20
110.200003
 11
75.413004
 21
108.268151
  0
LINE
  8
2
 62
134
  6
CONTINUOUS
 10
74.895366
 20
110.200003
 11
74.377728
 21
108.268151
  0
LINE
  8
2
 62
134
  6
CONTINUOUS
 10
75.413004
 20
108.268151
 11
74.377728
 21
108.268151
  0
LINE
  8
2
 62
134
  6
CONTINUOUS
 10
74.895366
 20
109.717040
 11
75.154185
 21
108.751114
  0
LINE
  8
2
 62
134
  6
CONTINUOUS
 10
74.895366
 20
109.717040
 11
74.636547
 21
108.751114
  0
LINE
  8
2
 62
134
  6
CONTINUOUS
 10
75.154185
 20
108.751114
 11
74.636547
 21
108.751114
  0
TEXT
  8
2
 62
134
  6
CONTINUOUS
 10
74.895366
 20
110.781083
 40
4.000000
 41
0.500000
  1
4
  7
KANJI
 50
90.000000
 51
30.000000
  0
ENDBLK
  0
BLOCK
  8
2
 62
134
  6
CONTINUOUS
  2
*D14
 70
    65
 10
0.0
 20
0.0
  0
LINE
  8
2
 62
134
  6
CONTINUOUS
 10
155.688750
 20
87.800003
 11
155.688750
 21
112.879405
  0
LINE
  8
2
 62
134
  6
CONTINUOUS
 10
155.688750
 20
95.800003
 11
156.206388
 21
93.868151
  0
LINE
  8
2
 62
134
  6
CONTINUOUS
 10
155.688750
 20
95.800003
 11
155.171112
 21
93.868151
  0
LINE
  8
2
 62
134
  6
CONTINUOUS
 10
156.206388
 20
93.868151
 11
155.171112
 21
93.868151
  0
LINE
  8
2
 62
134
  6
CONTINUOUS
 10
155.688750
 20
95.317040
 11
155.947569
 21
94.351114
  0
LINE
  8
2
 62
134
  6
CONTINUOUS
 10
155.688750
 20
95.317040
 11
155.429931
 21
94.351114
  0
LINE
  8
2
 62
134
  6
CONTINUOUS
 10
155.947569
 20
94.351114
 11
155.429931
 21
94.351114
  0
LINE
  8
2
 62
134
  6
CONTINUOUS
 10
155.688750
 20
99.600003
 11
155.171112
 21
101.531855
  0
LINE
  8
2
 62
134
  6
CONTINUOUS
 10
155.688750
 20
99.600003
 11
156.206388
 21
101.531855
  0
LINE
  8
2
 62
134
  6
CONTINUOUS
 10
155.171112
 20
101.531855
 11
156.206388
 21
101.531855
  0
LINE
  8
2
 62
134
  6
CONTINUOUS
 10
155.688750
 20
100.082966
 11
155.429931
 21
101.048892
  0
LINE
  8
2
 62
134
  6
CONTINUOUS
 10
155.688750
 20
100.082966
 11
155.947569
 21
101.048892
  0
LINE
  8
2
 62
134
  6
CONTINUOUS
 10
155.429931
 20
101.048892
 11
155.947569
 21
101.048892
  0
TEXT
  8
2
 62
134
  6
CONTINUOUS
 10
155.688750
 20
101.879405
 40
4.000000
 41
0.625000
  1
φ3.8
  7
KANJI
 50
90.000000
 51
30.000000
  0
ENDBLK
  0
BLOCK
  8
3
 62
214
  6
CONTINUOUS
  2
*D15
 70
    65
 10
0.0
 20
0.0
  0
LINE
  8
3
 62
214
  6
CONTINUOUS
 10
120.000000
 20
122.495992
 11
175.836060
 21
122.495992
  0
LINE
  8
3
 62
214
  6
CONTINUOUS
 10
120.000000
 20
124.495992
 11
120.000000
 21
97.700003
  0
LINE
  8
3
 62
214
  6
CONTINUOUS
 10
175.836060
 20
124.495992
 11
175.836060
 21
97.700003
  0
LINE
  8
3
 62
214
  6
CONTINUOUS
 10
120.000000
 20
122.495992
 11
121.931852
 21
123.013630
  0
LINE
  8
3
 62
214
  6
CONTINUOUS
 10
120.000000
 20
122.495992
 11
121.931852
 21
121.978353
  0
LINE
  8
3
 62
214
  6
CONTINUOUS
 10
121.931852
 20
123.013630
 11
121.931852
 21
121.978353
  0
LINE
  8
3
 62
214
  6
CONTINUOUS
 10
120.482963
 20
122.495992
 11
121.448889
 21
122.754811
  0
LINE
  8
3
 62
214
  6
CONTINUOUS
 10
120.482963
 20
122.495992
 11
121.448889
 21
122.237173
  0
LINE
  8
3
 62
214
  6
CONTINUOUS
 10
121.448889
 20
122.754811
 11
121.448889
 21
122.237173
  0
LINE
  8
3
 62
214
  6
CONTINUOUS
 10
175.836060
 20
122.495992
 11
173.904209
 21
121.978353
  0
LINE
  8
3
 62
214
  6
CONTINUOUS
 10
175.836060
 20
122.495992
 11
173.904209
 21
123.013630
  0
LINE
  8
3
 62
214
  6
CONTINUOUS
 10
173.904209
 20
121.978353
 11
173.904209
 21
123.013630
  0
LINE
  8
3
 62
214
  6
CONTINUOUS
 10
175.353097
 20
122.495992
 11
174.387172
 21
122.237173
  0
LINE
  8
3
 62
214
  6
CONTINUOUS
 10
175.353097
 20
122.495992
 11
174.387172
 21
122.754811
  0
LINE
  8
3
 62
214
  6
CONTINUOUS
 10
174.387172
 20
122.237173
 11
174.387172
 21
122.754811
  0
TEXT
  8
3
 62
214
  6
CONTINUOUS
 10
140.918030
 20
122.495992
 40
4.000000
 41
0.583333
  1
ｹｰﾌﾞﾙ長
  7
KANJI
 50
0.000000
 51
30.000000
  0
ENDBLK
  0
BLOCK
  8
2
 62
134
  6
CONTINUOUS
  2
*D16
 70
    65
 10
0.0
 20
0.0
  0
LINE
  8
2
 62
134
  6
CONTINUOUS
 10
175.836060
 20
122.495992
 11
231.661017
 21
122.495992
  0
LINE
  8
2
 62
134
  6
CONTINUOUS
 10
175.836060
 20
124.495992
 11
175.836060
 21
99.700003
  0
LINE
  8
2
 62
134
  6
CONTINUOUS
 10
231.661017
 20
124.495992
 11
231.661017
 21
103.709167
  0
LINE
  8
2
 62
134
  6
CONTINUOUS
 10
175.836060
 20
122.495992
 11
177.767912
 21
123.013630
  0
LINE
  8
2
 62
134
  6
CONTINUOUS
 10
175.836060
 20
122.495992
 11
177.767912
 21
121.978353
  0
LINE
  8
2
 62
134
  6
CONTINUOUS
 10
177.767912
 20
123.013630
 11
177.767912
 21
121.978353
  0
LINE
  8
2
 62
134
  6
CONTINUOUS
 10
176.319023
 20
122.495992
 11
177.284949
 21
122.754811
  0
LINE
  8
2
 62
134
  6
CONTINUOUS
 10
176.319023
 20
122.495992
 11
177.284949
 21
122.237173
  0
LINE
  8
2
 62
134
  6
CONTINUOUS
 10
177.284949
 20
122.754811
 11
177.284949
 21
122.237173
  0
LINE
  8
2
 62
134
  6
CONTINUOUS
 10
231.661017
 20
122.495992
 11
229.729165
 21
121.978353
  0
LINE
  8
2
 62
134
  6
CONTINUOUS
 10
231.661017
 20
122.495992
 11
229.729165
 21
123.013630
  0
LINE
  8
2
 62
134
  6
CONTINUOUS
 10
229.729165
 20
121.978353
 11
229.729165
 21
123.013630
  0
LINE
  8
2
 62
134
  6
CONTINUOUS
 10
231.178054
 20
122.495992
 11
230.212128
 21
122.237173
  0
LINE
  8
2
 62
134
  6
CONTINUOUS
 10
231.178054
 20
122.495992
 11
230.212128
 21
122.754811
  0
LINE
  8
2
 62
134
  6
CONTINUOUS
 10
230.212128
 20
122.237173
 11
230.212128
 21
122.754811
  0
TEXT
  8
2
 62
134
  6
CONTINUOUS
 10
200.497384
 20
122.495992
 40
4.000000
 41
0.500000
  1
100
  7
KANJI
 50
0.000000
 51
30.000000
  0
ENDBLK
  0
BLOCK
  8
2
 62
134
  6
CONTINUOUS
  2
*D17
 70
    65
 10
0.0
 20
0.0
  0
LINE
  8
2
 62
134
  6
CONTINUOUS
 10
141.027410
 20
66.200003
 11
141.027410
 21
97.700003
  0
LINE
  8
2
 62
134
  6
CONTINUOUS
 10
143.027410
 20
66.200003
 11
118.931775
 21
66.200003
  0
LINE
  8
2
 62
134
  6
CONTINUOUS
 10
143.027410
 20
97.700003
 11
140.954667
 21
97.700003
  0
LINE
  8
2
 62
134
  6
CONTINUOUS
 10
141.027410
 20
66.200003
 11
140.509772
 21
68.131855
  0
LINE
  8
2
 62
134
  6
CONTINUOUS
 10
141.027410
 20
66.200003
 11
141.545048
 21
68.131855
  0
LINE
  8
2
 62
134
  6
CONTINUOUS
 10
140.509772
 20
68.131855
 11
141.545048
 21
68.131855
  0
LINE
  8
2
 62
134
  6
CONTINUOUS
 10
141.027410
 20
66.682966
 11
140.768591
 21
67.648892
  0
LINE
  8
2
 62
134
  6
CONTINUOUS
 10
141.027410
 20
66.682966
 11
141.286229
 21
67.648892
  0
LINE
  8
2
 62
134
  6
CONTINUOUS
 10
140.768591
 20
67.648892
 11
141.286229
 21
67.648892
  0
LINE
  8
2
 62
134
  6
CONTINUOUS
 10
141.027410
 20
97.700003
 11
141.545048
 21
95.768151
  0
LINE
  8
2
 62
134
  6
CONTINUOUS
 10
141.027410
 20
97.700003
 11
140.509772
 21
95.768151
  0
LINE
  8
2
 62
134
  6
CONTINUOUS
 10
141.545048
 20
95.768151
 11
140.509772
 21
95.768151
  0
LINE
  8
2
 62
134
  6
CONTINUOUS
 10
141.027410
 20
97.217040
 11
141.286229
 21
96.251114
  0
LINE
  8
2
 62
134
  6
CONTINUOUS
 10
141.027410
 20
97.217040
 11
140.768591
 21
96.251114
  0
LINE
  8
2
 62
134
  6
CONTINUOUS
 10
141.286229
 20
96.251114
 11
140.768591
 21
96.251114
  0
TEXT
  8
2
 62
134
  6
CONTINUOUS
 10
141.027410
 20
74.625061
 40
4.000000
 41
0.500000
  1
31.5
  7
KANJI
 50
90.000000
 51
30.000000
  0
ENDBLK
  0
BLOCK
  8
2
 62
134
  6
CONTINUOUS
  2
*D18
 70
    65
 10
0.0
 20
0.0
  0
LINE
  8
2
 62
134
  6
CONTINUOUS
 10
124.751119
 20
76.364183
 11
124.751119
 21
112.000003
  0
LINE
  8
2
 62
134
  6
CONTINUOUS
 10
124.751119
 20
91.400003
 11
125.268758
 21
89.468151
  0
LINE
  8
2
 62
134
  6
CONTINUOUS
 10
124.751119
 20
91.400003
 11
124.233481
 21
89.468151
  0
LINE
  8
2
 62
134
  6
CONTINUOUS
 10
125.268758
 20
89.468151
 11
124.233481
 21
89.468151
  0
LINE
  8
2
 62
134
  6
CONTINUOUS
 10
124.751119
 20
90.917040
 11
125.009938
 21
89.951114
  0
LINE
  8
2
 62
134
  6
CONTINUOUS
 10
124.751119
 20
90.917040
 11
124.492300
 21
89.951114
  0
LINE
  8
2
 62
134
  6
CONTINUOUS
 10
125.009938
 20
89.951114
 11
124.492300
 21
89.951114
  0
LINE
  8
2
 62
134
  6
CONTINUOUS
 10
124.751119
 20
104.000003
 11
124.233481
 21
105.931855
  0
LINE
  8
2
 62
134
  6
CONTINUOUS
 10
124.751119
 20
104.000003
 11
125.268758
 21
105.931855
  0
LINE
  8
2
 62
134
  6
CONTINUOUS
 10
124.233481
 20
105.931855
 11
125.268758
 21
105.931855
  0
LINE
  8
2
 62
134
  6
CONTINUOUS
 10
124.751119
 20
104.482966
 11
124.492300
 21
105.448892
  0
LINE
  8
2
 62
134
  6
CONTINUOUS
 10
124.751119
 20
104.482966
 11
125.009938
 21
105.448892
  0
LINE
  8
2
 62
134
  6
CONTINUOUS
 10
124.492300
 20
105.448892
 11
125.009938
 21
105.448892
  0
TEXT
  8
2
 62
134
  6
CONTINUOUS
 10
124.751119
 20
77.364183
 40
4.000000
 41
0.600000
  1
φ12.6
  7
KANJI
 50
90.000000
 51
30.000000
  0
ENDBLK
  0
BLOCK
  8
2
 62
134
  6
CONTINUOUS
  2
*D19
 70
    65
 10
0.0
 20
0.0
  0
LINE
  8
2
 62
134
  6
CONTINUOUS
 10
258.506424
 20
57.990298
 11
273.506424
 21
57.990298
  0
LINE
  8
2
 62
134
  6
CONTINUOUS
 10
258.506424
 20
55.990298
 11
258.506424
 21
89.651941
  0
LINE
  8
2
 62
134
  6
CONTINUOUS
 10
273.506424
 20
55.990298
 11
273.506424
 21
64.200003
  0
LINE
  8
2
 62
134
  6
CONTINUOUS
 10
258.506424
 20
57.990298
 11
260.438275
 21
58.507936
  0
LINE
  8
2
 62
134
  6
CONTINUOUS
 10
258.506424
 20
57.990298
 11
260.438275
 21
57.472660
  0
LINE
  8
2
 62
134
  6
CONTINUOUS
 10
260.438275
 20
58.507936
 11
260.438275
 21
57.472660
  0
LINE
  8
2
 62
134
  6
CONTINUOUS
 10
258.989387
 20
57.990298
 11
259.955313
 21
58.249117
  0
LINE
  8
2
 62
134
  6
CONTINUOUS
 10
258.989387
 20
57.990298
 11
259.955313
 21
57.731479
  0
LINE
  8
2
 62
134
  6
CONTINUOUS
 10
259.955313
 20
58.249117
 11
259.955313
 21
57.731479
  0
LINE
  8
2
 62
134
  6
CONTINUOUS
 10
273.506424
 20
57.990298
 11
271.574573
 21
57.472660
  0
LINE
  8
2
 62
134
  6
CONTINUOUS
 10
273.506424
 20
57.990298
 11
271.574573
 21
58.507936
  0
LINE
  8
2
 62
134
  6
CONTINUOUS
 10
271.574573
 20
57.472660
 11
271.574573
 21
58.507936
  0
LINE
  8
2
 62
134
  6
CONTINUOUS
 10
273.023461
 20
57.990298
 11
272.057535
 21
57.731479
  0
LINE
  8
2
 62
134
  6
CONTINUOUS
 10
273.023461
 20
57.990298
 11
272.057535
 21
58.249117
  0
LINE
  8
2
 62
134
  6
CONTINUOUS
 10
272.057535
 20
57.731479
 11
272.057535
 21
58.249117
  0
TEXT
  8
2
 62
134
  6
CONTINUOUS
 10
263.455648
 20
57.990298
 40
4.000000
 41
0.500000
  1
15
  7
KANJI
 50
0.000000
 51
30.000000
  0
ENDBLK
  0
ENDSEC
  0
SECTION
  2
ENTITIES
  0
LINE
  8
1
 62
7
  6
DASHDOT
 10
68.420792
 20
79.200003
 11
55.000000
 21
79.200003
  0
CIRCLE
  8
1
 62
7
  6
CONTINUOUS
 10
103.000000
 20
110.200003
 40
1.750000
  0
CIRCLE
  8
1
 62
7
  6
CONTINUOUS
 10
83.000000
 20
110.200003
 40
1.750000
  0
LINE
  8
1
 62
7
  6
DASHDOT
 10
103.000000
 20
104.933914
 11
103.000000
 21
115.555980
  0
LINE
  8
1
 62
7
  6
DASHDOT
 10
83.000000
 20
105.750996
 11
83.000000
 21
114.200003
  0
LINE
  8
1
 62
7
  6
DASHDOT
 10
88.000000
 20
115.274027
 11
88.000000
 21
105.372318
  0
LINE
  8
1
 62
7
  6
DASHDOT
 10
80.103879
 20
110.200003
 11
85.274382
 21
110.200003
  0
LINE
  8
1
 62
7
  6
DASHDOT
 10
99.947301
 20
110.200003
 11
106.234453
 21
110.200003
  0
LINE
  8
1
 62
7
  6
DOT
 10
88.000000
 20
107.467126
 11
89.305588
 21
108.220907
  0
LINE
  8
1
 62
7
  6
DOT
 10
88.000000
 20
107.467126
 11
86.700000
 21
108.220907
  0
LINE
  8
1
 62
7
  6
DOT
 10
86.500000
 20
109.200003
 11
89.505588
 21
109.200003
  0
LINE
  8
1
 62
7
  6
DOT
 10
86.500000
 20
114.200003
 11
86.500000
 21
109.200003
  0
LINE
  8
1
 62
7
  6
DOT
 10
86.700000
 20
114.200003
 11
86.700000
 21
108.220907
  0
LINE
  8
1
 62
7
  6
DOT
 10
89.305588
 20
114.200003
 11
89.305588
 21
108.220907
  0
LINE
  8
1
 62
7
  6
DOT
 10
86.700000
 20
108.220907
 11
89.305588
 21
108.220907
  0
LINE
  8
1
 62
7
  6
DOT
 10
86.500000
 20
109.200003
 11
86.700000
 21
108.453347
  0
LINE
  8
1
 62
7
  6
DOT
 10
86.700000
 20
108.453347
 11
89.305588
 21
108.453347
  0
LINE
  8
1
 62
7
  6
DOT
 10
89.500000
 20
114.200003
 11
89.500000
 21
109.200003
  0
LINE
  8
1
 62
7
  6
DOT
 10
89.305588
 20
108.453347
 11
89.500000
 21
109.200003
  0
LINE
  8
1
 62
7
  6
DASHDOT
 10
108.000000
 20
115.274027
 11
108.000000
 21
105.372318
  0
LINE
  8
1
 62
7
  6
DOT
 10
108.000000
 20
107.467126
 11
109.305588
 21
108.220907
  0
LINE
  8
1
 62
7
  6
DOT
 10
108.000000
 20
107.467126
 11
106.700000
 21
108.220907
  0
LINE
  8
1
 62
7
  6
DOT
 10
106.500000
 20
109.200003
 11
109.505588
 21
109.200003
  0
LINE
  8
1
 62
7
  6
DOT
 10
106.500000
 20
114.200003
 11
106.500000
 21
109.200003
  0
LINE
  8
1
 62
7
  6
DOT
 10
106.700000
 20
114.200003
 11
106.700000
 21
108.220907
  0
LINE
  8
1
 62
7
  6
DOT
 10
109.305588
 20
114.200003
 11
109.305588
 21
108.220907
  0
LINE
  8
1
 62
7
  6
DOT
 10
106.700000
 20
108.220907
 11
109.305588
 21
108.220907
  0
LINE
  8
1
 62
7
  6
DOT
 10
106.500000
 20
109.200003
 11
106.700000
 21
108.453347
  0
LINE
  8
1
 62
7
  6
DOT
 10
106.700000
 20
108.453347
 11
109.305588
 21
108.453347
  0
LINE
  8
1
 62
7
  6
DOT
 10
109.500000
 20
114.200003
 11
109.500000
 21
109.200003
  0
LINE
  8
1
 62
7
  6
DOT
 10
109.305588
 20
108.453347
 11
109.500000
 21
109.200003
  0
LINE
  8
1
 62
7
  6
CONTINUOUS
 10
60.000000
 20
112.200003
 11
62.000000
 21
114.200003
  0
LINE
  8
1
 62
7
  6
CONTINUOUS
 10
60.000000
 20
112.200003
 11
60.000000
 21
68.200003
  0
LINE
  8
1
 62
7
  6
CONTINUOUS
 10
60.000000
 20
68.200003
 11
62.000000
 21
66.200003
  0
LINE
  8
1
 62
7
  6
CONTINUOUS
 10
62.000000
 20
66.200003
 11
118.000000
 21
66.200003
  0
LINE
  8
1
 62
7
  6
CONTINUOUS
 10
118.000000
 20
66.200003
 11
120.000000
 21
68.200003
  0
LINE
  8
1
 62
7
  6
CONTINUOUS
 10
120.000000
 20
68.200003
 11
120.000000
 21
112.200003
  0
LINE
  8
1
 62
7
  6
CONTINUOUS
 10
62.000000
 20
114.200003
 11
118.000000
 21
114.200003
  0
LINE
  8
1
 62
7
  6
CONTINUOUS
 10
120.000000
 20
112.200003
 11
118.000000
 21
114.200003
  0
LINE
  8
1
 62
7
  6
CONTINUOUS
 10
58.000000
 20
81.379453
 11
54.000000
 21
81.379453
  0
LINE
  8
1
 62
7
  6
CONTINUOUS
 10
58.000000
 20
81.379453
 11
58.000000
 21
79.200003
  0
LINE
  8
1
 62
7
  6
CONTINUOUS
 10
54.000000
 20
81.379453
 11
54.000000
 21
79.200003
  0
LINE
  8
1
 62
7
  6
CONTINUOUS
 10
36.000000
 20
74.200003
 11
36.000000
 21
84.200003
  0
LINE
  8
1
 62
7
  6
DASHDOT
 10
46.500000
 20
80.057772
 11
46.500000
 21
83.533371
  0
LINE
  8
1
 62
7
  6
CONTINUOUS
 10
36.000000
 20
84.200003
 11
55.200000
 21
84.200003
  0
CIRCLE
  8
1
 62
7
  6
CONTINUOUS
 10
39.750000
 20
79.200003
 40
1.000000
  0
CIRCLE
  8
1
 62
7
  6
CONTINUOUS
 10
39.750000
 20
79.200003
 40
0.782631
  0
LINE
  8
1
 62
7
  6
CONTINUOUS
 10
45.700802
 20
81.449967
 11
45.701140
 21
81.389508
  0
LINE
  8
1
 62
7
  6
CONTINUOUS
 10
45.701140
 20
81.389508
 11
45.707559
 21
81.329237
  0
LINE
  8
1
 62
7
  6
CONTINUOUS
 10
45.707559
 20
81.329237
 11
45.720008
 21
81.269612
  0
LINE
  8
1
 62
7
  6
CONTINUOUS
 10
45.720008
 20
81.269612
 11
45.738394
 21
81.211087
  0
LINE
  8
1
 62
7
  6
CONTINUOUS
 10
45.738394
 20
81.211087
 11
45.762576
 21
81.154107
  0
LINE
  8
1
 62
7
  6
CONTINUOUS
 10
45.762576
 20
81.154107
 11
45.792370
 21
81.099107
  0
LINE
  8
1
 62
7
  6
CONTINUOUS
 10
45.792370
 20
81.099107
 11
45.827550
 21
81.046505
  0
LINE
  8
1
 62
7
  6
CONTINUOUS
 10
45.827550
 20
81.046505
 11
45.867847
 21
80.996700
  0
LINE
  8
1
 62
7
  6
CONTINUOUS
 10
45.867847
 20
80.996700
 11
45.912955
 21
80.950073
  0
LINE
  8
1
 62
7
  6
CONTINUOUS
 10
45.912955
 20
80.950073
 11
45.962532
 21
80.906978
  0
LINE
  8
1
 62
7
  6
CONTINUOUS
 10
45.962532
 20
80.906978
 11
46.016198
 21
80.867743
  0
LINE
  8
1
 62
7
  6
CONTINUOUS
 10
46.016198
 20
80.867743
 11
46.073547
 21
80.832666
  0
LINE
  8
1
 62
7
  6
CONTINUOUS
 10
46.073547
 20
80.832666
 11
46.134141
 21
80.802015
  0
LINE
  8
1
 62
7
  6
CONTINUOUS
 10
46.134141
 20
80.802015
 11
46.197520
 21
80.776022
  0
LINE
  8
1
 62
7
  6
CONTINUOUS
 10
46.197520
 20
80.776022
 11
46.263201
 21
80.754887
  0
LINE
  8
1
 62
7
  6
CONTINUOUS
 10
46.263201
 20
80.754887
 11
46.330684
 21
80.738768
  0
LINE
  8
1
 62
7
  6
CONTINUOUS
 10
46.330684
 20
80.738768
 11
46.399455
 21
80.727790
  0
LINE
  8
1
 62
7
  6
CONTINUOUS
 10
46.399455
 20
80.727790
 11
46.468992
 21
80.722036
  0
LINE
  8
1
 62
7
  6
CONTINUOUS
 10
46.468992
 20
80.722036
 11
46.538765
 21
80.721549
  0
LINE
  8
1
 62
7
  6
CONTINUOUS
 10
46.538765
 20
80.721549
 11
46.608242
 21
80.726333
  0
LINE
  8
1
 62
7
  6
CONTINUOUS
 10
46.608242
 20
80.726333
 11
46.676896
 21
80.736353
  0
LINE
  8
1
 62
7
  6
CONTINUOUS
 10
46.676896
 20
80.736353
 11
46.744204
 21
80.751530
  0
LINE
  8
1
 62
7
  6
CONTINUOUS
 10
46.744204
 20
80.751530
 11
46.809653
 21
80.771751
  0
LINE
  8
1
 62
7
  6
CONTINUOUS
 10
46.809653
 20
80.771751
 11
46.872745
 21
80.796861
  0
LINE
  8
1
 62
7
  6
CONTINUOUS
 10
46.872745
 20
80.796861
 11
46.933001
 21
80.826669
  0
LINE
  8
1
 62
7
  6
CONTINUOUS
 10
46.933001
 20
80.826669
 11
46.989961
 21
80.860948
  0
LINE
  8
1
 62
7
  6
CONTINUOUS
 10
46.989961
 20
80.860948
 11
47.043193
 21
80.899437
  0
LINE
  8
1
 62
7
  6
CONTINUOUS
 10
47.043193
 20
80.899437
 11
47.092290
 21
80.941844
  0
LINE
  8
1
 62
7
  6
CONTINUOUS
 10
47.092290
 20
80.941844
 11
47.136879
 21
80.987845
  0
LINE
  8
1
 62
7
  6
CONTINUOUS
 10
47.136879
 20
80.987845
 11
47.176622
 21
81.037091
  0
LINE
  8
1
 62
7
  6
CONTINUOUS
 10
47.176622
 20
81.037091
 11
47.211215
 21
81.089207
  0
LINE
  8
1
 62
7
  6
CONTINUOUS
 10
47.211215
 20
81.089207
 11
47.240395
 21
81.143795
  0
LINE
  8
1
 62
7
  6
CONTINUOUS
 10
47.240395
 20
81.143795
 11
47.263941
 21
81.200442
  0
LINE
  8
1
 62
7
  6
CONTINUOUS
 10
47.263941
 20
81.200442
 11
47.281672
 21
81.258714
  0
LINE
  8
1
 62
7
  6
CONTINUOUS
 10
47.281672
 20
81.258714
 11
47.293455
 21
81.318170
  0
LINE
  8
1
 62
7
  6
CONTINUOUS
 10
47.293455
 20
81.318170
 11
47.299198
 21
81.378357
  0
LINE
  8
1
 62
7
  6
CONTINUOUS
 10
47.299198
 20
81.378357
 11
47.298860
 21
81.438816
  0
LINE
  8
1
 62
7
  6
CONTINUOUS
 10
47.298860
 20
81.438816
 11
47.292441
 21
81.499087
  0
LINE
  8
1
 62
7
  6
CONTINUOUS
 10
47.292441
 20
81.499087
 11
47.279992
 21
81.558712
  0
LINE
  8
1
 62
7
  6
CONTINUOUS
 10
47.279992
 20
81.558712
 11
47.261606
 21
81.617237
  0
LINE
  8
1
 62
7
  6
CONTINUOUS
 10
47.261606
 20
81.617237
 11
47.237424
 21
81.674217
  0
LINE
  8
1
 62
7
  6
CONTINUOUS
 10
47.237424
 20
81.674217
 11
47.207630
 21
81.729217
  0
LINE
  8
1
 62
7
  6
CONTINUOUS
 10
47.207630
 20
81.729217
 11
47.172450
 21
81.781819
  0
LINE
  8
1
 62
7
  6
CONTINUOUS
 10
47.172450
 20
81.781819
 11
47.132153
 21
81.831624
  0
LINE
  8
1
 62
7
  6
CONTINUOUS
 10
47.132153
 20
81.831624
 11
47.087045
 21
81.878251
  0
LINE
  8
1
 62
7
  6
CONTINUOUS
 10
47.087045
 20
81.878251
 11
47.037468
 21
81.921346
  0
LINE
  8
1
 62
7
  6
CONTINUOUS
 10
47.037468
 20
81.921346
 11
46.983802
 21
81.960582
  0
LINE
  8
1
 62
7
  6
CONTINUOUS
 10
46.983802
 20
81.960582
 11
46.926453
 21
81.995658
  0
LINE
  8
1
 62
7
  6
CONTINUOUS
 10
46.926453
 20
81.995658
 11
46.865859
 21
82.026309
  0
LINE
  8
1
 62
7
  6
CONTINUOUS
 10
46.865859
 20
82.026309
 11
46.802480
 21
82.052302
  0
LINE
  8
1
 62
7
  6
CONTINUOUS
 10
46.802480
 20
82.052302
 11
46.736799
 21
82.073437
  0
LINE
  8
1
 62
7
  6
CONTINUOUS
 10
46.736799
 20
82.073437
 11
46.669316
 21
82.089556
  0
LINE
  8
1
 62
7
  6
CONTINUOUS
 10
46.669316
 20
82.089556
 11
46.600545
 21
82.100534
  0
LINE
  8
1
 62
7
  6
CONTINUOUS
 10
46.600545
 20
82.100534
 11
46.531008
 21
82.106288
  0
LINE
  8
1
 62
7
  6
CONTINUOUS
 10
46.531008
 20
82.106288
 11
46.461235
 21
82.106775
  0
LINE
  8
1
 62
7
  6
CONTINUOUS
 10
46.461235
 20
82.106775
 11
46.391758
 21
82.101991
  0
LINE
  8
1
 62
7
  6
CONTINUOUS
 10
46.391758
 20
82.101991
 11
46.323104
 21
82.091972
  0
LINE
  8
1
 62
7
  6
CONTINUOUS
 10
46.323104
 20
82.091972
 11
46.255796
 21
82.076794
  0
LINE
  8
1
 62
7
  6
CONTINUOUS
 10
46.255796
 20
82.076794
 11
46.190347
 21
82.056573
  0
LINE
  8
1
 62
7
  6
CONTINUOUS
 10
46.190347
 20
82.056573
 11
46.127255
 21
82.031463
  0
LINE
  8
1
 62
7
  6
CONTINUOUS
 10
46.127255
 20
82.031463
 11
46.066999
 21
82.001656
  0
LINE
  8
1
 62
7
  6
CONTINUOUS
 10
46.066999
 20
82.001656
 11
46.010039
 21
81.967376
  0
LINE
  8
1
 62
7
  6
CONTINUOUS
 10
46.010039
 20
81.967376
 11
45.956807
 21
81.928887
  0
LINE
  8
1
 62
7
  6
CONTINUOUS
 10
45.956807
 20
81.928887
 11
45.907710
 21
81.886480
  0
LINE
  8
1
 62
7
  6
CONTINUOUS
 10
45.907710
 20
81.886480
 11
45.863121
 21
81.840479
  0
LINE
  8
1
 62
7
  6
CONTINUOUS
 10
45.863121
 20
81.840479
 11
45.823378
 21
81.791233
  0
LINE
  8
1
 62
7
  6
CONTINUOUS
 10
45.823378
 20
81.791233
 11
45.788785
 21
81.739118
  0
LINE
  8
1
 62
7
  6
CONTINUOUS
 10
45.788785
 20
81.739118
 11
45.759605
 21
81.684529
  0
LINE
  8
1
 62
7
  6
CONTINUOUS
 10
45.759605
 20
81.684529
 11
45.736059
 21
81.627883
  0
LINE
  8
1
 62
7
  6
CONTINUOUS
 10
45.736059
 20
81.627883
 11
45.718328
 21
81.569610
  0
LINE
  8
1
 62
7
  6
CONTINUOUS
 10
45.718328
 20
81.569610
 11
45.706545
 21
81.510154
  0
LINE
  8
1
 62
7
  6
CONTINUOUS
 10
45.706545
 20
81.510154
 11
45.700802
 21
81.449967
  0
LINE
  8
1
 62
7
  6
CONTINUOUS
 10
45.500888
 20
81.435887
 11
45.501509
 21
81.360315
  0
LINE
  8
1
 62
7
  6
CONTINUOUS
 10
45.501509
 20
81.360315
 11
45.509730
 21
81.284997
  0
LINE
  8
1
 62
7
  6
CONTINUOUS
 10
45.509730
 20
81.284997
 11
45.525486
 21
81.210507
  0
LINE
  8
1
 62
7
  6
CONTINUOUS
 10
45.525486
 20
81.210507
 11
45.548660
 21
81.137411
  0
LINE
  8
1
 62
7
  6
CONTINUOUS
 10
45.548660
 20
81.137411
 11
45.579073
 21
81.066266
  0
LINE
  8
1
 62
7
  6
CONTINUOUS
 10
45.579073
 20
81.066266
 11
45.616495
 21
80.997613
  0
LINE
  8
1
 62
7
  6
CONTINUOUS
 10
45.616495
 20
80.997613
 11
45.660642
 21
80.931975
  0
LINE
  8
1
 62
7
  6
CONTINUOUS
 10
45.660642
 20
80.931975
 11
45.711176
 21
80.869852
  0
LINE
  8
1
 62
7
  6
CONTINUOUS
 10
45.711176
 20
80.869852
 11
45.767714
 21
80.811715
  0
LINE
  8
1
 62
7
  6
CONTINUOUS
 10
45.767714
 20
80.811715
 11
45.829825
 21
80.758009
  0
LINE
  8
1
 62
7
  6
CONTINUOUS
 10
45.829825
 20
80.758009
 11
45.897037
 21
80.709140
  0
LINE
  8
1
 62
7
  6
CONTINUOUS
 10
45.897037
 20
80.709140
 11
45.968837
 21
80.665482
  0
LINE
  8
1
 62
7
  6
CONTINUOUS
 10
45.968837
 20
80.665482
 11
46.044680
 21
80.627366
  0
LINE
  8
1
 62
7
  6
CONTINUOUS
 10
46.044680
 20
80.627366
 11
46.123988
 21
80.595083
  0
LINE
  8
1
 62
7
  6
CONTINUOUS
 10
46.123988
 20
80.595083
 11
46.206157
 21
80.568878
  0
LINE
  8
1
 62
7
  6
CONTINUOUS
 10
46.206157
 20
80.568878
 11
46.290564
 21
80.548951
  0
LINE
  8
1
 62
7
  6
CONTINUOUS
 10
46.290564
 20
80.548951
 11
46.376564
 21
80.535454
  0
LINE
  8
1
 62
7
  6
CONTINUOUS
 10
46.376564
 20
80.535454
 11
46.463503
 21
80.528488
  0
LINE
  8
1
 62
7
  6
CONTINUOUS
 10
46.463503
 20
80.528488
 11
46.550720
 21
80.528108
  0
LINE
  8
1
 62
7
  6
CONTINUOUS
 10
46.550720
 20
80.528108
 11
46.637551
 21
80.534315
  0
LINE
  8
1
 62
7
  6
CONTINUOUS
 10
46.637551
 20
80.534315
 11
46.723336
 21
80.547064
  0
LINE
  8
1
 62
7
  6
CONTINUOUS
 10
46.723336
 20
80.547064
 11
46.807420
 21
80.566256
  0
LINE
  8
1
 62
7
  6
CONTINUOUS
 10
46.807420
 20
80.566256
 11
46.889165
 21
80.591745
  0
LINE
  8
1
 62
7
  6
CONTINUOUS
 10
46.889165
 20
80.591745
 11
46.967948
 21
80.623339
  0
LINE
  8
1
 62
7
  6
CONTINUOUS
 10
46.967948
 20
80.623339
 11
47.043170
 21
80.660796
  0
LINE
  8
1
 62
7
  6
CONTINUOUS
 10
47.043170
 20
80.660796
 11
47.114258
 21
80.703831
  0
LINE
  8
1
 62
7
  6
CONTINUOUS
 10
47.114258
 20
80.703831
 11
47.180671
 21
80.752116
  0
LINE
  8
1
 62
7
  6
CONTINUOUS
 10
47.180671
 20
80.752116
 11
47.241904
 21
80.805285
  0
LINE
  8
1
 62
7
  6
CONTINUOUS
 10
47.241904
 20
80.805285
 11
47.297490
 21
80.862932
  0
LINE
  8
1
 62
7
  6
CONTINUOUS
 10
47.297490
 20
80.862932
 11
47.347008
 21
80.924619
  0
LINE
  8
1
 62
7
  6
CONTINUOUS
 10
47.347008
 20
80.924619
 11
47.390078
 21
80.989877
  0
LINE
  8
1
 62
7
  6
CONTINUOUS
 10
47.390078
 20
80.989877
 11
47.426375
 21
81.058208
  0
LINE
  8
1
 62
7
  6
CONTINUOUS
 10
47.426375
 20
81.058208
 11
47.455622
 21
81.129092
  0
LINE
  8
1
 62
7
  6
CONTINUOUS
 10
47.455622
 20
81.129092
 11
47.477595
 21
81.201991
  0
LINE
  8
1
 62
7
  6
CONTINUOUS
 10
47.477595
 20
81.201991
 11
47.492129
 21
81.276349
  0
LINE
  8
1
 62
7
  6
CONTINUOUS
 10
47.492129
 20
81.276349
 11
47.499112
 21
81.351601
  0
LINE
  8
1
 62
7
  6
CONTINUOUS
 10
47.499112
 20
81.351601
 11
47.498491
 21
81.427173
  0
LINE
  8
1
 62
7
  6
CONTINUOUS
 10
47.498491
 20
81.427173
 11
47.490270
 21
81.502491
  0
LINE
  8
1
 62
7
  6
CONTINUOUS
 10
47.490270
 20
81.502491
 11
47.474514
 21
81.576982
  0
LINE
  8
1
 62
7
  6
CONTINUOUS
 10
47.474514
 20
81.576982
 11
47.451340
 21
81.650078
  0
LINE
  8
1
 62
7
  6
CONTINUOUS
 10
47.451340
 20
81.650078
 11
47.420927
 21
81.721223
  0
LINE
  8
1
 62
7
  6
CONTINUOUS
 10
47.420927
 20
81.721223
 11
47.383505
 21
81.789875
  0
LINE
  8
1
 62
7
  6
CONTINUOUS
 10
47.383505
 20
81.789875
 11
47.339358
 21
81.855513
  0
LINE
  8
1
 62
7
  6
CONTINUOUS
 10
47.339358
 20
81.855513
 11
47.288824
 21
81.917637
  0
LINE
  8
1
 62
7
  6
CONTINUOUS
 10
47.288824
 20
81.917637
 11
47.232286
 21
81.975773
  0
LINE
  8
1
 62
7
  6
CONTINUOUS
 10
47.232286
 20
81.975773
 11
47.170175
 21
82.029480
  0
LINE
  8
1
 62
7
  6
CONTINUOUS
 10
47.170175
 20
82.029480
 11
47.102963
 21
82.078348
  0
LINE
  8
1
 62
7
  6
CONTINUOUS
 10
47.102963
 20
82.078348
 11
47.031163
 21
82.122006
  0
LINE
  8
1
 62
7
  6
CONTINUOUS
 10
47.031163
 20
82.122006
 11
46.955320
 21
82.160122
  0
LINE
  8
1
 62
7
  6
CONTINUOUS
 10
46.955320
 20
82.160122
 11
46.876012
 21
82.192405
  0
LINE
  8
1
 62
7
  6
CONTINUOUS
 10
46.876012
 20
82.192405
 11
46.793843
 21
82.218610
  0
LINE
  8
1
 62
7
  6
CONTINUOUS
 10
46.793843
 20
82.218610
 11
46.709436
 21
82.238537
  0
LINE
  8
1
 62
7
  6
CONTINUOUS
 10
46.709436
 20
82.238537
 11
46.623436
 21
82.252035
  0
LINE
  8
1
 62
7
  6
CONTINUOUS
 10
46.623436
 20
82.252035
 11
46.536497
 21
82.259000
  0
LINE
  8
1
 62
7
  6
CONTINUOUS
 10
46.536497
 20
82.259000
 11
46.449280
 21
82.259381
  0
LINE
  8
1
 62
7
  6
CONTINUOUS
 10
46.449280
 20
82.259381
 11
46.362449
 21
82.253173
  0
LINE
  8
1
 62
7
  6
CONTINUOUS
 10
46.362449
 20
82.253173
 11
46.276664
 21
82.240425
  0
LINE
  8
1
 62
7
  6
CONTINUOUS
 10
46.276664
 20
82.240425
 11
46.192580
 21
82.221233
  0
LINE
  8
1
 62
7
  6
CONTINUOUS
 10
46.192580
 20
82.221233
 11
46.110835
 21
82.195743
  0
LINE
  8
1
 62
7
  6
CONTINUOUS
 10
46.110835
 20
82.195743
 11
46.032052
 21
82.164149
  0
LINE
  8
1
 62
7
  6
CONTINUOUS
 10
46.032052
 20
82.164149
 11
45.956830
 21
82.126693
  0
LINE
  8
1
 62
7
  6
CONTINUOUS
 10
45.956830
 20
82.126693
 11
45.885742
 21
82.083658
  0
LINE
  8
1
 62
7
  6
CONTINUOUS
 10
45.885742
 20
82.083658
 11
45.819329
 21
82.035372
  0
LINE
  8
1
 62
7
  6
CONTINUOUS
 10
45.819329
 20
82.035372
 11
45.758096
 21
81.982204
  0
LINE
  8
1
 62
7
  6
CONTINUOUS
 10
45.758096
 20
81.982204
 11
45.702510
 21
81.924556
  0
LINE
  8
1
 62
7
  6
CONTINUOUS
 10
45.702510
 20
81.924556
 11
45.652992
 21
81.862869
  0
LINE
  8
1
 62
7
  6
CONTINUOUS
 10
45.652992
 20
81.862869
 11
45.609922
 21
81.797612
  0
LINE
  8
1
 62
7
  6
CONTINUOUS
 10
45.609922
 20
81.797612
 11
45.573625
 21
81.729281
  0
LINE
  8
1
 62
7
  6
CONTINUOUS
 10
45.573625
 20
81.729281
 11
45.544378
 21
81.658396
  0
LINE
  8
1
 62
7
  6
CONTINUOUS
 10
45.544378
 20
81.658396
 11
45.522405
 21
81.585497
  0
LINE
  8
1
 62
7
  6
CONTINUOUS
 10
45.522405
 20
81.585497
 11
45.507871
 21
81.511139
  0
LINE
  8
1
 62
7
  6
CONTINUOUS
 10
45.507871
 20
81.511139
 11
45.500888
 21
81.435887
  0
LINE
  8
1
 62
7
  6
DASHDOT
 10
47.892231
 20
81.450003
 11
44.916632
 21
81.450003
  0
LINE
  8
1
 62
7
  6
DASHDOT
 10
39.750000
 20
77.662915
 11
39.750000
 21
80.701005
  0
LINE
  8
1
 62
7
  6
DASHDOT
 10
39.000000
 20
72.947074
 11
39.000000
 21
76.619989
  0
LINE
  8
1
 62
7
  6
DASHDOT
 10
46.500000
 20
72.947074
 11
46.500000
 21
76.619989
  0
LINE
  8
1
 62
7
  6
DASHDOT
 10
39.000000
 20
82.925118
 11
39.000000
 21
85.909105
  0
LINE
  8
1
 62
7
  6
CONTINUOUS
 10
55.200000
 20
84.200003
 11
60.000000
 21
84.200003
  0
LINE
  8
1
 62
7
  6
CONTINUOUS
 10
60.000000
 20
74.200003
 11
36.000000
 21
74.200003
  0
LINE
  8
1
 62
7
  6
CONTINUOUS
 10
58.000000
 20
77.020554
 11
54.000000
 21
77.020554
  0
LINE
  8
1
 62
7
  6
CONTINUOUS
 10
58.000000
 20
77.020554
 11
58.000000
 21
79.200003
  0
LINE
  8
1
 62
7
  6
CONTINUOUS
 10
54.000000
 20
77.020554
 11
54.000000
 21
79.200003
  0
LINE
  8
1
 62
7
  6
CONTINUOUS
 10
56.000000
 20
79.200003
 11
54.000000
 21
77.020554
  0
LINE
  8
1
 62
7
  6
CONTINUOUS
 10
56.000000
 20
79.200003
 11
58.000000
 21
77.020554
  0
LINE
  8
1
 62
7
  6
CONTINUOUS
 10
56.000000
 20
79.200003
 11
54.000000
 21
81.379453
  0
LINE
  8
1
 62
7
  6
CONTINUOUS
 10
56.000000
 20
79.200003
 11
58.000000
 21
81.379453
  0
LINE
  8
1
 62
7
  6
CONTINUOUS
 10
35.000000
 20
76.200003
 11
34.000000
 21
76.200003
  0
LINE
  8
1
 62
7
  6
CONTINUOUS
 10
33.000000
 20
76.200003
 11
32.000000
 21
76.200003
  0
LINE
  8
1
 62
7
  6
CONTINUOUS
 10
31.000000
 20
76.200003
 11
30.000000
 21
76.200003
  0
LINE
  8
1
 62
7
  6
CONTINUOUS
 10
29.000000
 20
76.200003
 11
28.000000
 21
76.200003
  0
LINE
  8
1
 62
7
  6
CONTINUOUS
 10
27.000000
 20
76.200003
 11
26.000000
 21
76.200003
  0
LINE
  8
1
 62
7
  6
CONTINUOUS
 10
25.000000
 20
76.200003
 11
24.000000
 21
76.200003
  0
LINE
  8
1
 62
7
  6
CONTINUOUS
 10
23.000000
 20
76.200003
 11
22.000000
 21
76.200003
  0
LINE
  8
1
 62
7
  6
CONTINUOUS
 10
21.000000
 20
76.200003
 11
20.000000
 21
76.200003
  0
LINE
  8
1
 62
7
  6
CONTINUOUS
 10
19.000000
 20
76.200003
 11
18.000000
 21
76.200003
  0
LINE
  8
1
 62
7
  6
CONTINUOUS
 10
17.000000
 20
76.700003
 11
17.000000
 21
76.200003
  0
LINE
  8
1
 62
7
  6
CONTINUOUS
 10
34.000000
 20
82.200003
 11
33.000000
 21
82.200003
  0
LINE
  8
1
 62
7
  6
CONTINUOUS
 10
32.000000
 20
82.200003
 11
31.000000
 21
82.200003
  0
LINE
  8
1
 62
7
  6
CONTINUOUS
 10
30.000000
 20
82.200003
 11
29.000000
 21
82.200003
  0
LINE
  8
1
 62
7
  6
CONTINUOUS
 10
26.000000
 20
82.200003
 11
25.000000
 21
82.200003
  0
LINE
  8
1
 62
7
  6
CONTINUOUS
 10
24.000000
 20
82.200003
 11
23.000000
 21
82.200003
  0
LINE
  8
1
 62
7
  6
CONTINUOUS
 10
22.000000
 20
82.200003
 11
21.000000
 21
82.200003
  0
LINE
  8
1
 62
7
  6
CONTINUOUS
 10
20.000000
 20
82.200003
 11
19.000000
 21
82.200003
  0
LINE
  8
1
 62
7
  6
CONTINUOUS
 10
18.000000
 20
82.200003
 11
17.000000
 21
82.200003
  0
LINE
  8
1
 62
7
  6
CONTINUOUS
 10
35.000000
 20
76.200003
 11
34.000000
 21
82.200003
  0
LINE
  8
1
 62
7
  6
CONTINUOUS
 10
34.000000
 20
76.200003
 11
33.000000
 21
82.200003
  0
LINE
  8
1
 62
7
  6
CONTINUOUS
 10
33.000000
 20
76.200003
 11
32.000000
 21
82.200003
  0
LINE
  8
1
 62
7
  6
CONTINUOUS
 10
32.000000
 20
76.200003
 11
31.000000
 21
82.200003
  0
LINE
  8
1
 62
7
  6
CONTINUOUS
 10
31.000000
 20
76.200003
 11
30.000000
 21
82.200003
  0
LINE
  8
1
 62
7
  6
CONTINUOUS
 10
30.000000
 20
76.200003
 11
29.000000
 21
82.200003
  0
LINE
  8
1
 62
7
  6
CONTINUOUS
 10
29.000000
 20
76.200003
 11
28.000000
 21
82.200003
  0
LINE
  8
1
 62
7
  6
CONTINUOUS
 10
28.000000
 20
76.200003
 11
27.000000
 21
82.200003
  0
LINE
  8
1
 62
7
  6
CONTINUOUS
 10
27.000000
 20
76.200003
 11
26.000000
 21
82.200003
  0
LINE
  8
1
 62
7
  6
CONTINUOUS
 10
26.000000
 20
76.200003
 11
25.000000
 21
82.200003
  0
LINE
  8
1
 62
7
  6
CONTINUOUS
 10
25.000000
 20
76.200003
 11
24.000000
 21
82.200003
  0
LINE
  8
1
 62
7
  6
CONTINUOUS
 10
24.000000
 20
76.200003
 11
23.000000
 21
82.200003
  0
LINE
  8
1
 62
7
  6
CONTINUOUS
 10
23.000000
 20
76.200003
 11
22.000000
 21
82.200003
  0
LINE
  8
1
 62
7
  6
CONTINUOUS
 10
22.000000
 20
76.200003
 11
21.000000
 21
82.200003
  0
LINE
  8
1
 62
7
  6
CONTINUOUS
 10
21.000000
 20
76.200003
 11
20.000000
 21
82.200003
  0
LINE
  8
1
 62
7
  6
CONTINUOUS
 10
20.000000
 20
76.200003
 11
19.000000
 21
82.200003
  0
LINE
  8
1
 62
7
  6
CONTINUOUS
 10
19.000000
 20
76.200003
 11
18.000000
 21
82.200003
  0
LINE
  8
1
 62
7
  6
CONTINUOUS
 10
18.000000
 20
76.200003
 11
17.000000
 21
82.200003
  0
LINE
  8
1
 62
7
  6
CONTINUOUS
 10
17.000000
 20
76.700003
 11
17.000000
 21
82.200003
  0
LINE
  8
1
 62
7
  6
CONTINUOUS
 10
36.000000
 20
76.700003
 11
34.916667
 21
76.700003
  0
LINE
  8
1
 62
7
  6
CONTINUOUS
 10
33.916667
 20
76.700003
 11
32.916667
 21
76.700003
  0
LINE
  8
1
 62
7
  6
CONTINUOUS
 10
31.916667
 20
76.700003
 11
30.916667
 21
76.700003
  0
LINE
  8
1
 62
7
  6
CONTINUOUS
 10
29.916667
 20
76.700003
 11
28.916667
 21
76.700003
  0
LINE
  8
1
 62
7
  6
CONTINUOUS
 10
27.916667
 20
76.700003
 11
26.916667
 21
76.700003
  0
LINE
  8
1
 62
7
  6
CONTINUOUS
 10
25.916667
 20
76.700003
 11
24.916667
 21
76.700003
  0
LINE
  8
1
 62
7
  6
CONTINUOUS
 10
23.916667
 20
76.700003
 11
22.916667
 21
76.700003
  0
LINE
  8
1
 62
7
  6
CONTINUOUS
 10
21.916667
 20
76.700003
 11
20.916667
 21
76.700003
  0
LINE
  8
1
 62
7
  6
CONTINUOUS
 10
19.916667
 20
76.700003
 11
18.916667
 21
76.700003
  0
LINE
  8
1
 62
7
  6
CONTINUOUS
 10
17.916667
 20
76.700003
 11
17.000000
 21
76.700003
  0
LINE
  8
1
 62
7
  6
CONTINUOUS
 10
19.083333
 20
81.700003
 11
18.083333
 21
81.700003
  0
LINE
  8
1
 62
7
  6
CONTINUOUS
 10
21.083333
 20
81.700003
 11
20.083333
 21
81.700003
  0
LINE
  8
1
 62
7
  6
CONTINUOUS
 10
22.983760
 20
81.700003
 11
22.083333
 21
81.700003
  0
LINE
  8
1
 62
7
  6
CONTINUOUS
 10
25.083333
 20
81.700003
 11
24.083333
 21
81.700003
  0
LINE
  8
1
 62
7
  6
CONTINUOUS
 10
27.083333
 20
81.700003
 11
26.083333
 21
81.700003
  0
LINE
  8
1
 62
7
  6
CONTINUOUS
 10
29.083333
 20
81.700003
 11
28.083333
 21
81.700003
  0
LINE
  8
1
 62
7
  6
CONTINUOUS
 10
31.083333
 20
81.700003
 11
30.083333
 21
81.700003
  0
LINE
  8
1
 62
7
  6
CONTINUOUS
 10
33.083333
 20
81.700003
 11
32.083333
 21
81.700003
  0
LINE
  8
1
 62
7
  6
CONTINUOUS
 10
34.983760
 20
81.700003
 11
34.083333
 21
81.700003
  0
LINE
  8
1
 62
7
  6
CONTINUOUS
 10
36.000000
 20
76.700003
 11
34.899213
 21
82.203940
  0
LINE
  8
1
 62
7
  6
CONTINUOUS
 10
35.913382
 20
82.200003
 11
34.900000
 21
82.200003
  0
LINE
  8
1
 62
7
  6
CONTINUOUS
 10
35.008735
 20
81.700003
 11
35.000000
 21
81.700003
  0
LINE
  8
1
 62
7
  6
CONTINUOUS
 10
28.000000
 20
82.200003
 11
27.000000
 21
82.200003
  0
DIMENSION
  8
2
 62
134
  6
CONTINUOUS
  2
*D1
 10
36.000000
 20
89.909828
 11
49.604834
 21
89.909828
 70
     0
  1
24
 13
36.000000
 23
86.200003
 14
60.000000
 24
86.200003
 50
0.000000
  0
TEXT
  8
2
 62
134
  6
CONTINUOUS
 10
48.604834
 20
89.909828
 40
4.000000
 41
0.750000
  1
±1
  7
KANJI
 50
0.000000
 51
30.000000
  0
LINE
  8
1
 62
7
  6
DASHDOT
 10
10.265128
 20
79.200003
 11
69.636819
 21
79.200003
  0
LINE
  8
1
 62
7
  6
CONTINUOUS
 10
248.506424
 20
114.200003
 11
273.506424
 21
114.200003
  0
LINE
  8
1
 62
7
  6
DASHDOT
 10
260.506424
 20
117.164228
 11
260.506424
 21
63.903628
  0
LINE
  8
1
 62
7
  6
DASHDOT
 10
247.506424
 20
110.200003
 11
275.657894
 21
110.200003
  0
LINE
  8
1
 62
7
  6
CONTINUOUS
 10
248.506424
 20
66.200003
 11
273.506424
 21
66.200003
  0
LINE
  8
1
 62
7
  6
CONTINUOUS
 10
248.506424
 20
114.200003
 11
248.506424
 21
66.200003
  0
LINE
  8
1
 62
7
  6
CONTINUOUS
 10
273.506424
 20
114.200003
 11
273.506424
 21
66.200003
  0
LINE
  8
1
 62
7
  6
DOT
 10
248.506424
 20
111.950003
 11
273.506424
 21
111.950003
  0
LINE
  8
1
 62
7
  6
DOT
 10
248.506424
 20
108.450003
 11
273.506424
 21
108.450003
  0
TEXT
  8
3
 62
214
  6
CONTINUOUS
 10
193.395256
 20
143.652229
 40
4.000000
 41
0.750000
  1
4-M3圧着端子
  7
KANJI
 50
0.000000
 51
0.000000
  0
DIMENSION
  8
2
 62
134
  6
CONTINUOUS
  2
*D2
 10
50.752144
 20
66.200003
 11
50.752144
 21
71.505502
 70
     0
  1
13
 13
60.000000
 23
66.200003
 14
50.752144
 24
79.200003
 50
90.000000
  0
DIMENSION
  8
2
 62
134
  6
CONTINUOUS
  2
*D3
 10
43.311418
 20
66.200003
 11
43.311418
 21
96.132860
 70
     0
  1
48
 13
60.000000
 23
66.200003
 14
60.000000
 24
114.200003
 50
90.000000
  0
LINE
  8
3
 62
214
  6
CONTINUOUS
 10
22.000000
 20
82.200003
 11
27.358138
 21
103.826106
  0
LINE
  8
3
 62
214
  6
CONTINUOUS
 10
27.358138
 20
103.826106
 11
42.608990
 21
103.826106
  0
TEXT
  8
3
 62
214
  6
CONTINUOUS
 10
32.608990
 20
103.826106
 40
4.000000
 41
0.500000
  1
ﾌｧｲﾊﾞ
  7
KANJI
 50
0.000000
 51
30.000000
  0
LINE
  8
3
 62
214
  6
CONTINUOUS
 10
22.000000
 20
82.200003
 11
21.962147
 21
84.199645
  0
LINE
  8
3
 62
214
  6
CONTINUOUS
 10
22.000000
 20
82.200003
 11
22.967039
 21
83.950670
  0
LINE
  8
3
 62
214
  6
CONTINUOUS
 10
21.962147
 20
84.199645
 11
22.967039
 21
83.950670
  0
LINE
  8
3
 62
214
  6
CONTINUOUS
 10
22.116148
 20
82.668792
 11
22.097222
 21
83.668613
  0
LINE
  8
3
 62
214
  6
CONTINUOUS
 10
22.116148
 20
82.668792
 11
22.599668
 21
83.544125
  0
LINE
  8
3
 62
214
  6
CONTINUOUS
 10
22.097222
 20
83.668613
 11
22.599668
 21
83.544125
  0
LINE
  8
2
 62
134
  6
CONTINUOUS
 10
60.000000
 20
122.495992
 11
58.068148
 21
121.978353
  0
LINE
  8
2
 62
134
  6
CONTINUOUS
 10
58.068148
 20
121.978353
 11
58.068148
 21
123.013630
  0
LINE
  8
2
 62
134
  6
CONTINUOUS
 10
58.068148
 20
123.013630
 11
60.000000
 21
122.495992
  0
LINE
  8
2
 62
134
  6
CONTINUOUS
 10
60.000000
 20
124.495992
 11
60.000000
 21
114.200003
  0
TEXT
  8
3
 62
214
  6
CONTINUOUS
 10
35.704589
 20
122.495992
 40
4.000000
 41
0.583333
  1
ﾌｧｲﾊﾞ長
  7
KANJI
 50
0.000000
 51
30.000000
  0
DIMENSION
  8
2
 62
134
  6
CONTINUOUS
  2
*D4
 10
247.506424
 20
122.495992
 11
261.273419
 21
122.495992
 70
     0
  1
26
 13
247.506424
 23
116.000003
 14
273.506424
 24
116.200003
 50
0.000000
  0
LINE
  8
1
 62
7
  6
CONTINUOUS
 10
60.000000
 20
173.000000
 11
60.000000
 21
148.000000
  0
LINE
  8
1
 62
7
  6
CONTINUOUS
 10
60.000000
 20
148.000000
 11
120.000000
 21
148.000000
  0
LINE
  8
1
 62
7
  6
CONTINUOUS
 10
120.000000
 20
148.000000
 11
120.000000
 21
173.000000
  0
LINE
  8
1
 62
7
  6
CONTINUOUS
 10
120.000000
 20
173.000000
 11
60.000000
 21
173.000000
  0
CIRCLE
  8
1
 62
7
  6
CONTINUOUS
 10
88.000000
 20
160.000000
 40
1.500000
  0
CIRCLE
  8
1
 62
7
  6
CONTINUOUS
 10
88.000000
 20
160.000000
 40
1.230000
  0
CIRCLE
  8
1
 62
7
  6
CONTINUOUS
 10
108.000000
 20
160.000000
 40
1.500000
  0
CIRCLE
  8
1
 62
7
  6
CONTINUOUS
 10
108.000000
 20
160.000000
 40
1.230000
  0
LINE
  8
1
 62
7
  6
DASHDOT
 10
108.000000
 20
162.001370
 11
108.000000
 21
158.083970
  0
LINE
  8
1
 62
7
  6
DASHDOT
 10
88.000000
 20
162.001370
 11
88.000000
 21
158.083970
  0
LINE
  8
1
 62
7
  6
CONTINUOUS
 10
36.000000
 20
155.000000
 11
36.000000
 21
165.000000
  0
LINE
  8
1
 62
7
  6
DASHDOT
 10
46.500000
 20
160.857769
 11
46.500000
 21
164.333368
  0
LINE
  8
1
 62
7
  6
CONTINUOUS
 10
36.000000
 20
165.000000
 11
55.200000
 21
165.000000
  0
CIRCLE
  8
1
 62
7
  6
CONTINUOUS
 10
39.750000
 20
160.000000
 40
1.000000
  0
CIRCLE
  8
1
 62
7
  6
CONTINUOUS
 10
39.750000
 20
160.000000
 40
0.782631
  0
LINE
  8
1
 62
7
  6
CONTINUOUS
 10
45.700802
 20
162.249964
 11
45.701140
 21
162.189505
  0
LINE
  8
1
 62
7
  6
CONTINUOUS
 10
45.701140
 20
162.189505
 11
45.707559
 21
162.129234
  0
LINE
  8
1
 62
7
  6
CONTINUOUS
 10
45.707559
 20
162.129234
 11
45.720008
 21
162.069609
  0
LINE
  8
1
 62
7
  6
CONTINUOUS
 10
45.720008
 20
162.069609
 11
45.738394
 21
162.011084
  0
LINE
  8
1
 62
7
  6
CONTINUOUS
 10
45.738394
 20
162.011084
 11
45.762576
 21
161.954104
  0
LINE
  8
1
 62
7
  6
CONTINUOUS
 10
45.762576
 20
161.954104
 11
45.792370
 21
161.899104
  0
LINE
  8
1
 62
7
  6
CONTINUOUS
 10
45.792370
 20
161.899104
 11
45.827550
 21
161.846502
  0
LINE
  8
1
 62
7
  6
CONTINUOUS
 10
45.827550
 20
161.846502
 11
45.867847
 21
161.796697
  0
LINE
  8
1
 62
7
  6
CONTINUOUS
 10
45.867847
 20
161.796697
 11
45.912955
 21
161.750070
  0
LINE
  8
1
 62
7
  6
CONTINUOUS
 10
45.912955
 20
161.750070
 11
45.962532
 21
161.706975
  0
LINE
  8
1
 62
7
  6
CONTINUOUS
 10
45.962532
 20
161.706975
 11
46.016198
 21
161.667739
  0
LINE
  8
1
 62
7
  6
CONTINUOUS
 10
46.016198
 20
161.667739
 11
46.073547
 21
161.632663
  0
LINE
  8
1
 62
7
  6
CONTINUOUS
 10
46.073547
 20
161.632663
 11
46.134141
 21
161.602012
  0
LINE
  8
1
 62
7
  6
CONTINUOUS
 10
46.134141
 20
161.602012
 11
46.197520
 21
161.576019
  0
LINE
  8
1
 62
7
  6
CONTINUOUS
 10
46.197520
 20
161.576019
 11
46.263201
 21
161.554884
  0
LINE
  8
1
 62
7
  6
CONTINUOUS
 10
46.263201
 20
161.554884
 11
46.330684
 21
161.538765
  0
LINE
  8
1
 62
7
  6
CONTINUOUS
 10
46.330684
 20
161.538765
 11
46.399455
 21
161.527787
  0
LINE
  8
1
 62
7
  6
CONTINUOUS
 10
46.399455
 20
161.527787
 11
46.468992
 21
161.522033
  0
LINE
  8
1
 62
7
  6
CONTINUOUS
 10
46.468992
 20
161.522033
 11
46.538765
 21
161.521546
  0
LINE
  8
1
 62
7
  6
CONTINUOUS
 10
46.538765
 20
161.521546
 11
46.608242
 21
161.526330
  0
LINE
  8
1
 62
7
  6
CONTINUOUS
 10
46.608242
 20
161.526330
 11
46.676896
 21
161.536349
  0
LINE
  8
1
 62
7
  6
CONTINUOUS
 10
46.676896
 20
161.536349
 11
46.744204
 21
161.551527
  0
LINE
  8
1
 62
7
  6
CONTINUOUS
 10
46.744204
 20
161.551527
 11
46.809653
 21
161.571748
  0
LINE
  8
1
 62
7
  6
CONTINUOUS
 10
46.809653
 20
161.571748
 11
46.872745
 21
161.596858
  0
LINE
  8
1
 62
7
  6
CONTINUOUS
 10
46.872745
 20
161.596858
 11
46.933001
 21
161.626666
  0
LINE
  8
1
 62
7
  6
CONTINUOUS
 10
46.933001
 20
161.626666
 11
46.989961
 21
161.660945
  0
LINE
  8
1
 62
7
  6
CONTINUOUS
 10
46.989961
 20
161.660945
 11
47.043193
 21
161.699434
  0
LINE
  8
1
 62
7
  6
CONTINUOUS
 10
47.043193
 20
161.699434
 11
47.092290
 21
161.741841
  0
LINE
  8
1
 62
7
  6
CONTINUOUS
 10
47.092290
 20
161.741841
 11
47.136879
 21
161.787842
  0
LINE
  8
1
 62
7
  6
CONTINUOUS
 10
47.136879
 20
161.787842
 11
47.176622
 21
161.837088
  0
LINE
  8
1
 62
7
  6
CONTINUOUS
 10
47.176622
 20
161.837088
 11
47.211215
 21
161.889203
  0
LINE
  8
1
 62
7
  6
CONTINUOUS
 10
47.211215
 20
161.889203
 11
47.240395
 21
161.943792
  0
LINE
  8
1
 62
7
  6
CONTINUOUS
 10
47.240395
 20
161.943792
 11
47.263941
 21
162.000439
  0
LINE
  8
1
 62
7
  6
CONTINUOUS
 10
47.263941
 20
162.000439
 11
47.281672
 21
162.058711
  0
LINE
  8
1
 62
7
  6
CONTINUOUS
 10
47.281672
 20
162.058711
 11
47.293455
 21
162.118167
  0
LINE
  8
1
 62
7
  6
CONTINUOUS
 10
47.293455
 20
162.118167
 11
47.299198
 21
162.178354
  0
LINE
  8
1
 62
7
  6
CONTINUOUS
 10
47.299198
 20
162.178354
 11
47.298860
 21
162.238813
  0
LINE
  8
1
 62
7
  6
CONTINUOUS
 10
47.298860
 20
162.238813
 11
47.292441
 21
162.299084
  0
LINE
  8
1
 62
7
  6
CONTINUOUS
 10
47.292441
 20
162.299084
 11
47.279992
 21
162.358709
  0
LINE
  8
1
 62
7
  6
CONTINUOUS
 10
47.279992
 20
162.358709
 11
47.261606
 21
162.417234
  0
LINE
  8
1
 62
7
  6
CONTINUOUS
 10
47.261606
 20
162.417234
 11
47.237424
 21
162.474214
  0
LINE
  8
1
 62
7
  6
CONTINUOUS
 10
47.237424
 20
162.474214
 11
47.207630
 21
162.529214
  0
LINE
  8
1
 62
7
  6
CONTINUOUS
 10
47.207630
 20
162.529214
 11
47.172450
 21
162.581816
  0
LINE
  8
1
 62
7
  6
CONTINUOUS
 10
47.172450
 20
162.581816
 11
47.132153
 21
162.631621
  0
LINE
  8
1
 62
7
  6
CONTINUOUS
 10
47.132153
 20
162.631621
 11
47.087045
 21
162.678248
  0
LINE
  8
1
 62
7
  6
CONTINUOUS
 10
47.087045
 20
162.678248
 11
47.037468
 21
162.721343
  0
LINE
  8
1
 62
7
  6
CONTINUOUS
 10
47.037468
 20
162.721343
 11
46.983802
 21
162.760579
  0
LINE
  8
1
 62
7
  6
CONTINUOUS
 10
46.983802
 20
162.760579
 11
46.926453
 21
162.795655
  0
LINE
  8
1
 62
7
  6
CONTINUOUS
 10
46.926453
 20
162.795655
 11
46.865859
 21
162.826306
  0
LINE
  8
1
 62
7
  6
CONTINUOUS
 10
46.865859
 20
162.826306
 11
46.802480
 21
162.852299
  0
LINE
  8
1
 62
7
  6
CONTINUOUS
 10
46.802480
 20
162.852299
 11
46.736799
 21
162.873434
  0
LINE
  8
1
 62
7
  6
CONTINUOUS
 10
46.736799
 20
162.873434
 11
46.669316
 21
162.889553
  0
LINE
  8
1
 62
7
  6
CONTINUOUS
 10
46.669316
 20
162.889553
 11
46.600545
 21
162.900531
  0
LINE
  8
1
 62
7
  6
CONTINUOUS
 10
46.600545
 20
162.900531
 11
46.531008
 21
162.906285
  0
LINE
  8
1
 62
7
  6
CONTINUOUS
 10
46.531008
 20
162.906285
 11
46.461235
 21
162.906772
  0
LINE
  8
1
 62
7
  6
CONTINUOUS
 10
46.461235
 20
162.906772
 11
46.391758
 21
162.901988
  0
LINE
  8
1
 62
7
  6
CONTINUOUS
 10
46.391758
 20
162.901988
 11
46.323104
 21
162.891968
  0
LINE
  8
1
 62
7
  6
CONTINUOUS
 10
46.323104
 20
162.891968
 11
46.255796
 21
162.876791
  0
LINE
  8
1
 62
7
  6
CONTINUOUS
 10
46.255796
 20
162.876791
 11
46.190347
 21
162.856570
  0
LINE
  8
1
 62
7
  6
CONTINUOUS
 10
46.190347
 20
162.856570
 11
46.127255
 21
162.831460
  0
LINE
  8
1
 62
7
  6
CONTINUOUS
 10
46.127255
 20
162.831460
 11
46.066999
 21
162.801652
  0
LINE
  8
1
 62
7
  6
CONTINUOUS
 10
46.066999
 20
162.801652
 11
46.010039
 21
162.767373
  0
LINE
  8
1
 62
7
  6
CONTINUOUS
 10
46.010039
 20
162.767373
 11
45.956807
 21
162.728884
  0
LINE
  8
1
 62
7
  6
CONTINUOUS
 10
45.956807
 20
162.728884
 11
45.907710
 21
162.686477
  0
LINE
  8
1
 62
7
  6
CONTINUOUS
 10
45.907710
 20
162.686477
 11
45.863121
 21
162.640476
  0
LINE
  8
1
 62
7
  6
CONTINUOUS
 10
45.863121
 20
162.640476
 11
45.823378
 21
162.591230
  0
LINE
  8
1
 62
7
  6
CONTINUOUS
 10
45.823378
 20
162.591230
 11
45.788785
 21
162.539115
  0
LINE
  8
1
 62
7
  6
CONTINUOUS
 10
45.788785
 20
162.539115
 11
45.759605
 21
162.484526
  0
LINE
  8
1
 62
7
  6
CONTINUOUS
 10
45.759605
 20
162.484526
 11
45.736059
 21
162.427879
  0
LINE
  8
1
 62
7
  6
CONTINUOUS
 10
45.736059
 20
162.427879
 11
45.718328
 21
162.369607
  0
LINE
  8
1
 62
7
  6
CONTINUOUS
 10
45.718328
 20
162.369607
 11
45.706545
 21
162.310151
  0
LINE
  8
1
 62
7
  6
CONTINUOUS
 10
45.706545
 20
162.310151
 11
45.700802
 21
162.249964
  0
LINE
  8
1
 62
7
  6
CONTINUOUS
 10
45.500888
 20
162.235884
 11
45.501509
 21
162.160312
  0
LINE
  8
1
 62
7
  6
CONTINUOUS
 10
45.501509
 20
162.160312
 11
45.509730
 21
162.084994
  0
LINE
  8
1
 62
7
  6
CONTINUOUS
 10
45.509730
 20
162.084994
 11
45.525486
 21
162.010503
  0
LINE
  8
1
 62
7
  6
CONTINUOUS
 10
45.525486
 20
162.010503
 11
45.548660
 21
161.937408
  0
LINE
  8
1
 62
7
  6
CONTINUOUS
 10
45.548660
 20
161.937408
 11
45.579073
 21
161.866263
  0
LINE
  8
1
 62
7
  6
CONTINUOUS
 10
45.579073
 20
161.866263
 11
45.616495
 21
161.797610
  0
LINE
  8
1
 62
7
  6
CONTINUOUS
 10
45.616495
 20
161.797610
 11
45.660642
 21
161.731972
  0
LINE
  8
1
 62
7
  6
CONTINUOUS
 10
45.660642
 20
161.731972
 11
45.711176
 21
161.669849
  0
LINE
  8
1
 62
7
  6
CONTINUOUS
 10
45.711176
 20
161.669849
 11
45.767714
 21
161.611712
  0
LINE
  8
1
 62
7
  6
CONTINUOUS
 10
45.767714
 20
161.611712
 11
45.829825
 21
161.558006
  0
LINE
  8
1
 62
7
  6
CONTINUOUS
 10
45.829825
 20
161.558006
 11
45.897037
 21
161.509137
  0
LINE
  8
1
 62
7
  6
CONTINUOUS
 10
45.897037
 20
161.509137
 11
45.968837
 21
161.465479
  0
LINE
  8
1
 62
7
  6
CONTINUOUS
 10
45.968837
 20
161.465479
 11
46.044680
 21
161.427363
  0
LINE
  8
1
 62
7
  6
CONTINUOUS
 10
46.044680
 20
161.427363
 11
46.123988
 21
161.395080
  0
LINE
  8
1
 62
7
  6
CONTINUOUS
 10
46.123988
 20
161.395080
 11
46.206157
 21
161.368875
  0
LINE
  8
1
 62
7
  6
CONTINUOUS
 10
46.206157
 20
161.368875
 11
46.290564
 21
161.348948
  0
LINE
  8
1
 62
7
  6
CONTINUOUS
 10
46.290564
 20
161.348948
 11
46.376564
 21
161.335451
  0
LINE
  8
1
 62
7
  6
CONTINUOUS
 10
46.376564
 20
161.335451
 11
46.463503
 21
161.328485
  0
LINE
  8
1
 62
7
  6
CONTINUOUS
 10
46.463503
 20
161.328485
 11
46.550720
 21
161.328105
  0
LINE
  8
1
 62
7
  6
CONTINUOUS
 10
46.550720
 20
161.328105
 11
46.637551
 21
161.334312
  0
LINE
  8
1
 62
7
  6
CONTINUOUS
 10
46.637551
 20
161.334312
 11
46.723336
 21
161.347061
  0
LINE
  8
1
 62
7
  6
CONTINUOUS
 10
46.723336
 20
161.347061
 11
46.807420
 21
161.366253
  0
LINE
  8
1
 62
7
  6
CONTINUOUS
 10
46.807420
 20
161.366253
 11
46.889165
 21
161.391742
  0
LINE
  8
1
 62
7
  6
CONTINUOUS
 10
46.889165
 20
161.391742
 11
46.967948
 21
161.423336
  0
LINE
  8
1
 62
7
  6
CONTINUOUS
 10
46.967948
 20
161.423336
 11
47.043170
 21
161.460793
  0
LINE
  8
1
 62
7
  6
CONTINUOUS
 10
47.043170
 20
161.460793
 11
47.114258
 21
161.503827
  0
LINE
  8
1
 62
7
  6
CONTINUOUS
 10
47.114258
 20
161.503827
 11
47.180671
 21
161.552113
  0
LINE
  8
1
 62
7
  6
CONTINUOUS
 10
47.180671
 20
161.552113
 11
47.241904
 21
161.605282
  0
LINE
  8
1
 62
7
  6
CONTINUOUS
 10
47.241904
 20
161.605282
 11
47.297490
 21
161.662929
  0
LINE
  8
1
 62
7
  6
CONTINUOUS
 10
47.297490
 20
161.662929
 11
47.347008
 21
161.724616
  0
LINE
  8
1
 62
7
  6
CONTINUOUS
 10
47.347008
 20
161.724616
 11
47.390078
 21
161.789873
  0
LINE
  8
1
 62
7
  6
CONTINUOUS
 10
47.390078
 20
161.789873
 11
47.426375
 21
161.858205
  0
LINE
  8
1
 62
7
  6
CONTINUOUS
 10
47.426375
 20
161.858205
 11
47.455622
 21
161.929089
  0
LINE
  8
1
 62
7
  6
CONTINUOUS
 10
47.455622
 20
161.929089
 11
47.477595
 21
162.001988
  0
LINE
  8
1
 62
7
  6
CONTINUOUS
 10
47.477595
 20
162.001988
 11
47.492129
 21
162.076346
  0
LINE
  8
1
 62
7
  6
CONTINUOUS
 10
47.492129
 20
162.076346
 11
47.499112
 21
162.151598
  0
LINE
  8
1
 62
7
  6
CONTINUOUS
 10
47.499112
 20
162.151598
 11
47.498491
 21
162.227170
  0
LINE
  8
1
 62
7
  6
CONTINUOUS
 10
47.498491
 20
162.227170
 11
47.490270
 21
162.302488
  0
LINE
  8
1
 62
7
  6
CONTINUOUS
 10
47.490270
 20
162.302488
 11
47.474514
 21
162.376979
  0
LINE
  8
1
 62
7
  6
CONTINUOUS
 10
47.474514
 20
162.376979
 11
47.451340
 21
162.450075
  0
LINE
  8
1
 62
7
  6
CONTINUOUS
 10
47.451340
 20
162.450075
 11
47.420927
 21
162.521219
  0
LINE
  8
1
 62
7
  6
CONTINUOUS
 10
47.420927
 20
162.521219
 11
47.383505
 21
162.589872
  0
LINE
  8
1
 62
7
  6
CONTINUOUS
 10
47.383505
 20
162.589872
 11
47.339358
 21
162.655510
  0
LINE
  8
1
 62
7
  6
CONTINUOUS
 10
47.339358
 20
162.655510
 11
47.288824
 21
162.717633
  0
LINE
  8
1
 62
7
  6
CONTINUOUS
 10
47.288824
 20
162.717633
 11
47.232286
 21
162.775770
  0
LINE
  8
1
 62
7
  6
CONTINUOUS
 10
47.232286
 20
162.775770
 11
47.170175
 21
162.829477
  0
LINE
  8
1
 62
7
  6
CONTINUOUS
 10
47.170175
 20
162.829477
 11
47.102963
 21
162.878345
  0
LINE
  8
1
 62
7
  6
CONTINUOUS
 10
47.102963
 20
162.878345
 11
47.031163
 21
162.922003
  0
LINE
  8
1
 62
7
  6
CONTINUOUS
 10
47.031163
 20
162.922003
 11
46.955320
 21
162.960119
  0
LINE
  8
1
 62
7
  6
CONTINUOUS
 10
46.955320
 20
162.960119
 11
46.876012
 21
162.992402
  0
LINE
  8
1
 62
7
  6
CONTINUOUS
 10
46.876012
 20
162.992402
 11
46.793843
 21
163.018607
  0
LINE
  8
1
 62
7
  6
CONTINUOUS
 10
46.793843
 20
163.018607
 11
46.709436
 21
163.038534
  0
LINE
  8
1
 62
7
  6
CONTINUOUS
 10
46.709436
 20
163.038534
 11
46.623436
 21
163.052032
  0
LINE
  8
1
 62
7
  6
CONTINUOUS
 10
46.623436
 20
163.052032
 11
46.536497
 21
163.058997
  0
LINE
  8
1
 62
7
  6
CONTINUOUS
 10
46.536497
 20
163.058997
 11
46.449280
 21
163.059378
  0
LINE
  8
1
 62
7
  6
CONTINUOUS
 10
46.449280
 20
163.059378
 11
46.362449
 21
163.053170
  0
LINE
  8
1
 62
7
  6
CONTINUOUS
 10
46.362449
 20
163.053170
 11
46.276664
 21
163.040422
  0
LINE
  8
1
 62
7
  6
CONTINUOUS
 10
46.276664
 20
163.040422
 11
46.192580
 21
163.021230
  0
LINE
  8
1
 62
7
  6
CONTINUOUS
 10
46.192580
 20
163.021230
 11
46.110835
 21
162.995740
  0
LINE
  8
1
 62
7
  6
CONTINUOUS
 10
46.110835
 20
162.995740
 11
46.032052
 21
162.964146
  0
LINE
  8
1
 62
7
  6
CONTINUOUS
 10
46.032052
 20
162.964146
 11
45.956830
 21
162.926690
  0
LINE
  8
1
 62
7
  6
CONTINUOUS
 10
45.956830
 20
162.926690
 11
45.885742
 21
162.883655
  0
LINE
  8
1
 62
7
  6
CONTINUOUS
 10
45.885742
 20
162.883655
 11
45.819329
 21
162.835369
  0
LINE
  8
1
 62
7
  6
CONTINUOUS
 10
45.819329
 20
162.835369
 11
45.758096
 21
162.782200
  0
LINE
  8
1
 62
7
  6
CONTINUOUS
 10
45.758096
 20
162.782200
 11
45.702510
 21
162.724553
  0
LINE
  8
1
 62
7
  6
CONTINUOUS
 10
45.702510
 20
162.724553
 11
45.652992
 21
162.662866
  0
LINE
  8
1
 62
7
  6
CONTINUOUS
 10
45.652992
 20
162.662866
 11
45.609922
 21
162.597609
  0
LINE
  8
1
 62
7
  6
CONTINUOUS
 10
45.609922
 20
162.597609
 11
45.573625
 21
162.529278
  0
LINE
  8
1
 62
7
  6
CONTINUOUS
 10
45.573625
 20
162.529278
 11
45.544378
 21
162.458393
  0
LINE
  8
1
 62
7
  6
CONTINUOUS
 10
45.544378
 20
162.458393
 11
45.522405
 21
162.385494
  0
LINE
  8
1
 62
7
  6
CONTINUOUS
 10
45.522405
 20
162.385494
 11
45.507871
 21
162.311136
  0
LINE
  8
1
 62
7
  6
CONTINUOUS
 10
45.507871
 20
162.311136
 11
45.500888
 21
162.235884
  0
LINE
  8
1
 62
7
  6
DASHDOT
 10
47.892231
 20
162.250000
 11
44.916632
 21
162.250000
  0
LINE
  8
1
 62
7
  6
DASHDOT
 10
39.750000
 20
158.462912
 11
39.750000
 21
161.501001
  0
LINE
  8
1
 62
7
  6
DASHDOT
 10
39.000000
 20
153.747071
 11
39.000000
 21
157.419986
  0
LINE
  8
1
 62
7
  6
DASHDOT
 10
46.500000
 20
153.747071
 11
46.500000
 21
157.419986
  0
LINE
  8
1
 62
7
  6
DASHDOT
 10
39.000000
 20
163.725115
 11
39.000000
 21
166.709102
  0
LINE
  8
1
 62
7
  6
CONTINUOUS
 10
55.200000
 20
165.000000
 11
60.000000
 21
165.000000
  0
LINE
  8
1
 62
7
  6
CONTINUOUS
 10
60.000000
 20
155.000000
 11
36.000000
 21
155.000000
  0
LINE
  8
1
 62
7
  6
CONTINUOUS
 10
35.000000
 20
157.000000
 11
34.000000
 21
157.000000
  0
LINE
  8
1
 62
7
  6
CONTINUOUS
 10
33.000000
 20
157.000000
 11
32.000000
 21
157.000000
  0
LINE
  8
1
 62
7
  6
CONTINUOUS
 10
31.000000
 20
157.000000
 11
30.000000
 21
157.000000
  0
LINE
  8
1
 62
7
  6
CONTINUOUS
 10
29.000000
 20
157.000000
 11
28.000000
 21
157.000000
  0
LINE
  8
1
 62
7
  6
CONTINUOUS
 10
27.000000
 20
157.000000
 11
26.000000
 21
157.000000
  0
LINE
  8
1
 62
7
  6
CONTINUOUS
 10
25.000000
 20
157.000000
 11
24.000000
 21
157.000000
  0
LINE
  8
1
 62
7
  6
CONTINUOUS
 10
23.000000
 20
157.000000
 11
22.000000
 21
157.000000
  0
LINE
  8
1
 62
7
  6
CONTINUOUS
 10
21.000000
 20
157.000000
 11
20.000000
 21
157.000000
  0
LINE
  8
1
 62
7
  6
CONTINUOUS
 10
19.000000
 20
157.000000
 11
18.000000
 21
157.000000
  0
LINE
  8
1
 62
7
  6
CONTINUOUS
 10
17.000000
 20
157.500000
 11
17.000000
 21
157.000000
  0
LINE
  8
1
 62
7
  6
CONTINUOUS
 10
34.000000
 20
163.000000
 11
33.000000
 21
163.000000
  0
LINE
  8
1
 62
7
  6
CONTINUOUS
 10
32.000000
 20
163.000000
 11
31.000000
 21
163.000000
  0
LINE
  8
1
 62
7
  6
CONTINUOUS
 10
30.000000
 20
163.000000
 11
29.000000
 21
163.000000
  0
LINE
  8
1
 62
7
  6
CONTINUOUS
 10
26.000000
 20
163.000000
 11
25.000000
 21
163.000000
  0
LINE
  8
1
 62
7
  6
CONTINUOUS
 10
24.000000
 20
163.000000
 11
23.000000
 21
163.000000
  0
LINE
  8
1
 62
7
  6
CONTINUOUS
 10
22.000000
 20
163.000000
 11
21.000000
 21
163.000000
  0
LINE
  8
1
 62
7
  6
CONTINUOUS
 10
20.000000
 20
163.000000
 11
19.000000
 21
163.000000
  0
LINE
  8
1
 62
7
  6
CONTINUOUS
 10
18.000000
 20
163.000000
 11
17.000000
 21
163.000000
  0
LINE
  8
1
 62
7
  6
CONTINUOUS
 10
35.000000
 20
157.000000
 11
34.000000
 21
163.000000
  0
LINE
  8
1
 62
7
  6
CONTINUOUS
 10
34.000000
 20
157.000000
 11
33.000000
 21
163.000000
  0
LINE
  8
1
 62
7
  6
CONTINUOUS
 10
33.000000
 20
157.000000
 11
32.000000
 21
163.000000
  0
LINE
  8
1
 62
7
  6
CONTINUOUS
 10
32.000000
 20
157.000000
 11
31.000000
 21
163.000000
  0
LINE
  8
1
 62
7
  6
CONTINUOUS
 10
31.000000
 20
157.000000
 11
30.000000
 21
163.000000
  0
LINE
  8
1
 62
7
  6
CONTINUOUS
 10
30.000000
 20
157.000000
 11
29.000000
 21
163.000000
  0
LINE
  8
1
 62
7
  6
CONTINUOUS
 10
29.000000
 20
157.000000
 11
28.000000
 21
163.000000
  0
LINE
  8
1
 62
7
  6
CONTINUOUS
 10
28.000000
 20
157.000000
 11
27.000000
 21
163.000000
  0
LINE
  8
1
 62
7
  6
CONTINUOUS
 10
27.000000
 20
157.000000
 11
26.000000
 21
163.000000
  0
LINE
  8
1
 62
7
  6
CONTINUOUS
 10
26.000000
 20
157.000000
 11
25.000000
 21
163.000000
  0
LINE
  8
1
 62
7
  6
CONTINUOUS
 10
25.000000
 20
157.000000
 11
24.000000
 21
163.000000
  0
LINE
  8
1
 62
7
  6
CONTINUOUS
 10
24.000000
 20
157.000000
 11
23.000000
 21
163.000000
  0
LINE
  8
1
 62
7
  6
CONTINUOUS
 10
23.000000
 20
157.000000
 11
22.000000
 21
163.000000
  0
LINE
  8
1
 62
7
  6
CONTINUOUS
 10
22.000000
 20
157.000000
 11
21.000000
 21
163.000000
  0
LINE
  8
1
 62
7
  6
CONTINUOUS
 10
21.000000
 20
157.000000
 11
20.000000
 21
163.000000
  0
LINE
  8
1
 62
7
  6
CONTINUOUS
 10
20.000000
 20
157.000000
 11
19.000000
 21
163.000000
  0
LINE
  8
1
 62
7
  6
CONTINUOUS
 10
19.000000
 20
157.000000
 11
18.000000
 21
163.000000
  0
LINE
  8
1
 62
7
  6
CONTINUOUS
 10
18.000000
 20
157.000000
 11
17.000000
 21
163.000000
  0
LINE
  8
1
 62
7
  6
CONTINUOUS
 10
17.000000
 20
157.500000
 11
17.000000
 21
163.000000
  0
LINE
  8
1
 62
7
  6
CONTINUOUS
 10
36.000000
 20
157.500000
 11
34.916667
 21
157.500000
  0
LINE
  8
1
 62
7
  6
CONTINUOUS
 10
33.916667
 20
157.500000
 11
32.916667
 21
157.500000
  0
LINE
  8
1
 62
7
  6
CONTINUOUS
 10
31.916667
 20
157.500000
 11
30.916667
 21
157.500000
  0
LINE
  8
1
 62
7
  6
CONTINUOUS
 10
29.916667
 20
157.500000
 11
28.916667
 21
157.500000
  0
LINE
  8
1
 62
7
  6
CONTINUOUS
 10
27.916667
 20
157.500000
 11
26.916667
 21
157.500000
  0
LINE
  8
1
 62
7
  6
CONTINUOUS
 10
25.916667
 20
157.500000
 11
24.916667
 21
157.500000
  0
LINE
  8
1
 62
7
  6
CONTINUOUS
 10
23.916667
 20
157.500000
 11
22.916667
 21
157.500000
  0
LINE
  8
1
 62
7
  6
CONTINUOUS
 10
21.916667
 20
157.500000
 11
20.916667
 21
157.500000
  0
LINE
  8
1
 62
7
  6
CONTINUOUS
 10
19.916667
 20
157.500000
 11
18.916667
 21
157.500000
  0
LINE
  8
1
 62
7
  6
CONTINUOUS
 10
17.916667
 20
157.500000
 11
17.000000
 21
157.500000
  0
LINE
  8
1
 62
7
  6
CONTINUOUS
 10
19.083333
 20
162.500000
 11
18.083333
 21
162.500000
  0
LINE
  8
1
 62
7
  6
CONTINUOUS
 10
21.083333
 20
162.500000
 11
20.083333
 21
162.500000
  0
LINE
  8
1
 62
7
  6
CONTINUOUS
 10
22.983760
 20
162.500000
 11
22.083333
 21
162.500000
  0
LINE
  8
1
 62
7
  6
CONTINUOUS
 10
25.083333
 20
162.500000
 11
24.083333
 21
162.500000
  0
LINE
  8
1
 62
7
  6
CONTINUOUS
 10
27.083333
 20
162.500000
 11
26.083333
 21
162.500000
  0
LINE
  8
1
 62
7
  6
CONTINUOUS
 10
29.083333
 20
162.500000
 11
28.083333
 21
162.500000
  0
LINE
  8
1
 62
7
  6
CONTINUOUS
 10
31.083333
 20
162.500000
 11
30.083333
 21
162.500000
  0
LINE
  8
1
 62
7
  6
CONTINUOUS
 10
33.083333
 20
162.500000
 11
32.083333
 21
162.500000
  0
LINE
  8
1
 62
7
  6
CONTINUOUS
 10
34.983760
 20
162.500000
 11
34.083333
 21
162.500000
  0
LINE
  8
1
 62
7
  6
CONTINUOUS
 10
36.000000
 20
157.500000
 11
34.899213
 21
163.003937
  0
LINE
  8
1
 62
7
  6
CONTINUOUS
 10
35.913382
 20
163.000000
 11
34.900000
 21
163.000000
  0
LINE
  8
1
 62
7
  6
CONTINUOUS
 10
35.008735
 20
162.500000
 11
35.000000
 21
162.500000
  0
LINE
  8
1
 62
7
  6
CONTINUOUS
 10
28.000000
 20
163.000000
 11
27.000000
 21
163.000000
  0
DIMENSION
  8
2
 62
134
  6
CONTINUOUS
  2
*D5
 10
26.000000
 20
157.000000
 11
26.000000
 21
168.418564
 70
     0
  1
φ6
 13
26.000000
 23
157.000000
 14
26.000000
 24
163.000000
 50
90.000000
  0
DIMENSION
  8
2
 62
134
  6
CONTINUOUS
  2
*D6
 10
41.732228
 20
155.000000
 11
41.732228
 21
171.795799
 70
     0
  1
φ10
 13
41.732228
 23
155.000000
 14
41.732228
 24
165.000000
 50
90.000000
  0
LINE
  8
3
 62
214
  6
CONTINUOUS
 10
109.058801
 20
158.937484
 11
119.824885
 21
141.939156
  0
LINE
  8
3
 62
214
  6
CONTINUOUS
 10
119.824885
 20
141.939156
 11
138.845018
 21
141.939156
  0
TEXT
  8
3
 62
214
  6
CONTINUOUS
 10
120.845018
 20
141.812555
 40
4.000000
 41
0.642857
  1
2-M3深さ4
  7
KANJI
 50
0.000000
 51
30.000000
  0
LINE
  8
3
 62
214
  6
CONTINUOUS
 10
109.058801
 20
158.937484
 11
110.529780
 21
157.582412
  0
LINE
  8
3
 62
214
  6
CONTINUOUS
 10
109.058801
 20
158.937484
 11
109.655170
 21
157.028468
  0
LINE
  8
3
 62
214
  6
CONTINUOUS
 10
110.529780
 20
157.582412
 11
109.655170
 21
157.028468
  0
LINE
  8
3
 62
214
  6
CONTINUOUS
 10
109.317220
 20
158.529473
 11
110.052709
 21
157.851937
  0
LINE
  8
3
 62
214
  6
CONTINUOUS
 10
109.317220
 20
158.529473
 11
109.615404
 21
157.574965
  0
LINE
  8
3
 62
214
  6
CONTINUOUS
 10
110.052709
 20
157.851937
 11
109.615404
 21
157.574965
  0
TEXT
  8
3
 62
214
  6
CONTINUOUS
 10
125.065927
 20
136.846234
 40
4.000000
 41
1.000000
  1
取付穴
  7
KANJI
 50
0.000000
 51
0.000000
  0
DIMENSION
  8
2
 62
134
  6
CONTINUOUS
  2
*D7
 10
60.000000
 20
139.841034
 11
73.867606
 21
139.841034
 70
     0
  1
28
 13
60.000000
 23
146.000000
 14
88.000000
 24
156.500000
 50
0.000000
  0
DIMENSION
  8
2
 62
134
  6
CONTINUOUS
  2
*D8
 10
88.000000
 20
139.841034
 11
97.773527
 21
139.841034
 70
     0
  1
20
 13
88.000000
 23
156.500000
 14
108.000000
 24
156.500000
 50
0.000000
  0
DIMENSION
  8
2
 62
134
  6
CONTINUOUS
  2
*D9
 10
53.155568
 20
147.000000
 11
53.155568
 21
160.000000
 70
     0
  1
26
 13
58.200000
 23
147.000000
 14
58.000000
 24
173.000000
 50
90.000000
  0
TEXT
  8
3
 62
214
  6
CONTINUOUS
 10
115.111883
 20
129.982690
 40
4.000000
 41
1.000000
  1
取付穴
  7
KANJI
 50
0.000000
 51
0.000000
  0
LINE
  8
3
 62
214
  6
CONTINUOUS
 10
104.051196
 20
111.722333
 11
110.934987
 21
125.110234
  0
LINE
  8
3
 62
214
  6
CONTINUOUS
 10
110.934987
 20
125.110234
 11
125.246028
 21
125.110234
  0
TEXT
  8
3
 62
214
  6
CONTINUOUS
 10
111.246028
 20
125.207069
 40
4.000000
 41
0.583333
  1
2-φ3.5
  7
KANJI
 50
0.000000
 51
30.000000
  0
LINE
  8
3
 62
214
  6
CONTINUOUS
 10
104.051196
 20
111.722333
 11
104.474231
 21
113.677081
  0
LINE
  8
3
 62
214
  6
CONTINUOUS
 10
104.051196
 20
111.722333
 11
105.394930
 21
113.203676
  0
LINE
  8
3
 62
214
  6
CONTINUOUS
 10
104.474231
 20
113.677081
 11
105.394930
 21
113.203676
  0
LINE
  8
3
 62
214
  6
CONTINUOUS
 10
104.272042
 20
112.151844
 11
104.483560
 21
113.129218
  0
LINE
  8
3
 62
214
  6
CONTINUOUS
 10
104.272042
 20
112.151844
 11
104.943909
 21
112.892516
  0
LINE
  8
3
 62
214
  6
CONTINUOUS
 10
104.483560
 20
113.129218
 11
104.943909
 21
112.892516
  0
DIMENSION
  8
2
 62
134
  6
CONTINUOUS
  2
*D10
 10
60.000000
 20
100.967790
 11
71.381216
 21
100.967790
 70
     0
  1
23
 13
60.000000
 23
107.988961
 14
83.000000
 24
106.350003
 50
0.000000
  0
DIMENSION
  8
2
 62
134
  6
CONTINUOUS
  2
*D11
 10
83.000000
 20
100.967790
 11
92.503957
 21
100.967790
 70
     0
  1
20
 13
83.000000
 23
106.350003
 14
103.000000
 24
106.350003
 50
0.000000
  0
DIMENSION
  8
2
 62
134
  6
CONTINUOUS
  2
*D12
 10
60.000000
 20
122.495992
 11
90.963758
 21
122.495992
 70
     0
  1
60
 13
60.000000
 23
114.200003
 14
120.000000
 24
114.200003
 50
0.000000
  0
LINE
  8
2
 62
134
  6
CONTINUOUS
 10
60.000000
 20
122.495992
 11
15.891883
 21
122.495992
  0
TEXT
  8
5
 62
94
  6
CONTINUOUS
 10
210.962748
 20
27.718070
 40
1.750000
 41
4.000000
  1
製図
  7
KANJI
 50
-90.000000
 51
0.000000
  0
TEXT
  8
5
 62
94
  6
CONTINUOUS
 10
230.795530
 20
27.554163
 40
1.750000
 41
4.000000
  1
図番
  7
KANJI
 50
-90.000000
 51
0.000000
  0
TEXT
  8
5
 62
94
  6
CONTINUOUS
 10
230.795530
 20
40.830653
 40
1.750000
 41
4.000000
  1
図　名
  7
KANJI
 50
-90.000000
 51
0.000000
  0
TEXT
  8
5
 62
94
  6
CONTINUOUS
 10
165.888245
 20
35.421713
 40
1.750000
 41
4.000000
  1
日付
  7
KANJI
 50
-90.000000
 51
0.000000
  0
TEXT
  8
5
 62
94
  6
CONTINUOUS
 10
200.964404
 20
35.585620
 40
1.750000
 41
4.000000
  1
図法
  7
KANJI
 50
-90.000000
 51
0.000000
  0
TEXT
  8
5
 62
94
  6
CONTINUOUS
 10
200.800497
 20
43.617077
 40
1.750000
 41
4.000000
  1
尺度
  7
KANJI
 50
-90.000000
 51
0.000000
  0
TEXT
  8
5
 62
94
  6
CONTINUOUS
 10
165.888245
 20
43.453170
 40
1.750000
 41
4.000000
  1
公差
  7
KANJI
 50
-90.000000
 51
0.000000
  0
TEXT
  8
5
 62
94
  6
CONTINUOUS
 10
165.888245
 20
27.554163
 40
1.750000
 41
4.000000
  1
承認
  7
KANJI
 50
-90.000000
 51
0.000000
  0
TEXT
  8
5
 62
94
  6
CONTINUOUS
 10
190.966060
 20
27.554163
 40
1.750000
 41
4.000000
  1
設計
  7
KANJI
 50
-90.000000
 51
0.000000
  0
TEXT
  8
5
 62
94
  6
CONTINUOUS
 10
184.409768
 20
13.622044
 40
4.500000
 41
1.888889
  1
ジャパンセンサー株式会社
  7
KANJI
 50
0.000000
 51
0.000000
  0
LINE
  8
5
 62
94
  6
CONTINUOUS
 10
165.000000
 20
44.066580
 11
285.000000
 21
44.066580
  0
LINE
  8
5
 62
94
  6
CONTINUOUS
 10
165.000000
 20
12.066580
 11
165.000000
 21
44.066580
  0
LINE
  8
5
 62
94
  6
CONTINUOUS
 10
285.000000
 20
20.066580
 11
165.000000
 21
20.066580
  0
LINE
  8
5
 62
94
  6
CONTINUOUS
 10
230.000000
 20
44.066580
 11
230.000000
 21
20.066580
  0
LINE
  8
5
 62
94
  6
CONTINUOUS
 10
285.000000
 20
28.066580
 11
165.000000
 21
28.066580
  0
LINE
  8
5
 62
94
  6
CONTINUOUS
 10
235.000000
 20
20.066580
 11
235.000000
 21
44.066580
  0
LINE
  8
5
 62
94
  6
CONTINUOUS
 10
205.000000
 20
44.066580
 11
205.000000
 21
28.066580
  0
LINE
  8
5
 62
94
  6
CONTINUOUS
 10
170.000000
 20
20.066580
 11
170.000000
 21
44.066580
  0
LINE
  8
5
 62
94
  6
CONTINUOUS
 10
165.000000
 20
36.066580
 11
230.000000
 21
36.066580
  0
LINE
  8
5
 62
94
  6
CONTINUOUS
 10
200.000000
 20
44.066580
 11
200.000000
 21
28.066580
  0
LINE
  8
5
 62
94
  6
CONTINUOUS
 10
190.000000
 20
20.066580
 11
190.000000
 21
28.066580
  0
LINE
  8
5
 62
94
  6
CONTINUOUS
 10
210.000000
 20
20.066580
 11
210.000000
 21
28.066580
  0
LINE
  8
5
 62
94
  6
CONTINUOUS
 10
195.000000
 20
28.066580
 11
195.000000
 21
20.066580
  0
LINE
  8
5
 62
94
  6
CONTINUOUS
 10
215.000000
 20
28.066580
 11
215.000000
 21
20.066580
  0
TEXT
  8
5
 62
94
  6
CONTINUOUS
 10
209.979305
 20
37.716415
 40
4.000000
 41
1.000000
  1
１／１
  7
KANJI
 50
0.000000
 51
0.000000
  0
TEXT
  8
5
 62
94
  6
CONTINUOUS
 10
208.995861
 20
29.357143
 40
4.000000
 41
1.000000
  1
三角法
  7
KANJI
 50
0.000000
 51
0.000000
  0
TEXT
  8
5
 62
94
  6
CONTINUOUS
 10
196.211093
 20
21.817408
 40
4.000000
 41
1.000000
  1
須藤
  7
KANJI
 50
0.810149
 51
0.000000
  0
TEXT
  8
5
 62
94
  6
CONTINUOUS
 10
216.207781
 20
21.981316
 40
4.000000
 41
1.000000
  1
須藤
  7
KANJI
 50
-0.112820
 51
0.000000
  0
LINE
  8
5
 62
94
  6
CONTINUOUS
 10
285.000000
 20
197.066580
 11
10.000000
 21
197.066580
  0
LINE
  8
5
 62
94
  6
CONTINUOUS
 10
10.000000
 20
197.066580
 11
10.000000
 21
12.066580
  0
LINE
  8
5
 62
94
  6
CONTINUOUS
 10
10.000000
 20
12.066580
 11
285.000000
 21
12.066580
  0
LINE
  8
5
 62
94
  6
CONTINUOUS
 10
285.000000
 20
12.066580
 11
285.000000
 21
197.066580
  0
DIMENSION
  8
2
 62
134
  6
CONTINUOUS
  2
*D13
 10
74.895366
 20
114.200003
 11
74.895366
 21
111.781083
 70
     0
  1
4
 13
78.325283
 23
114.200003
 14
79.150000
 24
110.200003
 50
-90.000000
  0
LINE
  8
1
 62
7
  6
DASHDOT
 10
30.000000
 20
160.000000
 11
128.150327
 21
160.000000
  0
CIRCLE
  8
1
 62
7
  6
CONTINUOUS
 10
116.000000
 20
110.200003
 40
2.000000
  0
LINE
  8
1
 62
7
  6
CONTINUOUS
 10
115.000000
 20
110.400003
 11
115.000000
 21
110.000003
  0
LINE
  8
1
 62
7
  6
CONTINUOUS
 10
115.800000
 20
111.200003
 11
116.200000
 21
111.200003
  0
LINE
  8
1
 62
7
  6
CONTINUOUS
 10
117.000000
 20
110.400003
 11
117.000000
 21
110.000003
  0
LINE
  8
1
 62
7
  6
CONTINUOUS
 10
116.200000
 20
109.200003
 11
115.800000
 21
109.200003
  0
LINE
  8
1
 62
7
  6
CONTINUOUS
 10
116.200000
 20
109.400003
 11
116.200000
 21
109.200003
  0
LINE
  8
1
 62
7
  6
CONTINUOUS
 10
117.000000
 20
110.000003
 11
116.800000
 21
110.000003
  0
ARC
  8
1
 62
7
  6
CONTINUOUS
 10
116.800000
 20
109.400003
 40
0.600000
 50
90.000000
 51
180.000000
  0
LINE
  8
1
 62
7
  6
CONTINUOUS
 10
116.800000
 20
110.400003
 11
117.000000
 21
110.400003
  0
LINE
  8
1
 62
7
  6
CONTINUOUS
 10
116.200000
 20
111.200003
 11
116.200000
 21
111.000003
  0
ARC
  8
1
 62
7
  6
CONTINUOUS
 10
116.800000
 20
111.000003
 40
0.600000
 50
180.000000
 51
-90.000000
  0
LINE
  8
1
 62
7
  6
CONTINUOUS
 10
115.000000
 20
110.400003
 11
115.200000
 21
110.400003
  0
LINE
  8
1
 62
7
  6
CONTINUOUS
 10
115.800000
 20
111.000003
 11
115.800000
 21
111.200003
  0
ARC
  8
1
 62
7
  6
CONTINUOUS
 10
115.200000
 20
111.000003
 40
0.600000
 50
-90.000000
 51
0.000000
  0
LINE
  8
1
 62
7
  6
CONTINUOUS
 10
115.200000
 20
110.000003
 11
115.000000
 21
110.000003
  0
LINE
  8
1
 62
7
  6
CONTINUOUS
 10
115.800000
 20
109.200003
 11
115.800000
 21
109.400003
  0
ARC
  8
1
 62
7
  6
CONTINUOUS
 10
115.200000
 20
109.400003
 40
0.600000
 50
0.000000
 51
90.000000
  0
LINE
  8
1
 62
7
  6
DASHDOT
 10
116.000000
 20
112.694585
 11
116.000000
 21
107.799558
  0
LINE
  8
1
 62
7
  6
DASHDOT
 10
113.452426
 20
110.200003
 11
118.502034
 21
110.200003
  0
CIRCLE
  8
1
 62
7
  6
CONTINUOUS
 10
64.000000
 20
70.200003
 40
2.000000
  0
LINE
  8
1
 62
7
  6
CONTINUOUS
 10
63.000000
 20
70.400003
 11
63.000000
 21
70.000003
  0
LINE
  8
1
 62
7
  6
CONTINUOUS
 10
63.800000
 20
71.200003
 11
64.200000
 21
71.200003
  0
LINE
  8
1
 62
7
  6
CONTINUOUS
 10
65.000000
 20
70.400003
 11
65.000000
 21
70.000003
  0
LINE
  8
1
 62
7
  6
CONTINUOUS
 10
64.200000
 20
69.200003
 11
63.800000
 21
69.200003
  0
LINE
  8
1
 62
7
  6
CONTINUOUS
 10
64.200000
 20
69.400003
 11
64.200000
 21
69.200003
  0
LINE
  8
1
 62
7
  6
CONTINUOUS
 10
65.000000
 20
70.000003
 11
64.800000
 21
70.000003
  0
ARC
  8
1
 62
7
  6
CONTINUOUS
 10
64.800000
 20
69.400003
 40
0.600000
 50
90.000000
 51
180.000000
  0
LINE
  8
1
 62
7
  6
CONTINUOUS
 10
64.800000
 20
70.400003
 11
65.000000
 21
70.400003
  0
LINE
  8
1
 62
7
  6
CONTINUOUS
 10
64.200000
 20
71.200003
 11
64.200000
 21
71.000003
  0
ARC
  8
1
 62
7
  6
CONTINUOUS
 10
64.800000
 20
71.000003
 40
0.600000
 50
180.000000
 51
-90.000000
  0
LINE
  8
1
 62
7
  6
CONTINUOUS
 10
63.000000
 20
70.400003
 11
63.200000
 21
70.400003
  0
LINE
  8
1
 62
7
  6
CONTINUOUS
 10
63.800000
 20
71.000003
 11
63.800000
 21
71.200003
  0
ARC
  8
1
 62
7
  6
CONTINUOUS
 10
63.200000
 20
71.000003
 40
0.600000
 50
-90.000000
 51
0.000000
  0
LINE
  8
1
 62
7
  6
CONTINUOUS
 10
63.200000
 20
70.000003
 11
63.000000
 21
70.000003
  0
LINE
  8
1
 62
7
  6
CONTINUOUS
 10
63.800000
 20
69.200003
 11
63.800000
 21
69.400003
  0
ARC
  8
1
 62
7
  6
CONTINUOUS
 10
63.200000
 20
69.400003
 40
0.600000
 50
0.000000
 51
90.000000
  0
LINE
  8
1
 62
7
  6
DASHDOT
 10
64.000000
 20
72.694585
 11
64.000000
 21
67.799558
  0
LINE
  8
1
 62
7
  6
DASHDOT
 10
61.452426
 20
70.200003
 11
66.502034
 21
70.200003
  0
LINE
  8
1
 62
7
  6
DASHDOT
 10
114.534286
 20
97.700003
 11
122.514693
 21
97.700003
  0
LINE
  8
1
 62
7
  6
CONTINUOUS
 10
185.836060
 20
99.300003
 11
175.836060
 21
99.300003
  0
LINE
  8
1
 62
7
  6
CONTINUOUS
 10
185.836060
 20
98.500003
 11
175.836060
 21
98.500003
  0
LINE
  8
1
 62
7
  6
CONTINUOUS
 10
185.836060
 20
97.700003
 11
175.836060
 21
97.700003
  0
LINE
  8
1
 62
7
  6
CONTINUOUS
 10
185.836060
 20
96.900003
 11
175.836060
 21
96.900003
  0
LINE
  8
1
 62
7
  6
CONTINUOUS
 10
185.836060
 20
96.100003
 11
175.836060
 21
96.100003
  0
LINE
  8
1
 62
7
  6
CONTINUOUS
 10
164.836060
 20
100.200003
 11
164.836060
 21
95.200003
  0
LINE
  8
1
 62
7
  6
CONTINUOUS
 10
164.836060
 20
95.200003
 11
185.836060
 21
95.200003
  0
LINE
  8
1
 62
7
  6
CONTINUOUS
 10
185.836060
 20
95.200003
 11
185.836060
 21
100.200003
  0
LINE
  8
1
 62
7
  6
CONTINUOUS
 10
185.836060
 20
100.200003
 11
164.836060
 21
100.200003
  0
LINE
  8
1
 62
7
  6
CONTINUOUS
 10
175.836060
 20
95.500003
 11
175.836060
 21
99.900003
  0
LINE
  8
1
 62
7
  6
CONTINUOUS
 10
231.835328
 20
95.683228
 11
233.268117
 21
95.557875
  0
LINE
  8
1
 62
7
  6
CONTINUOUS
 10
231.486705
 20
91.698450
 11
232.919494
 21
91.573097
  0
ARC
  8
1
 62
7
  6
CONTINUOUS
 10
235.645795
 20
93.342216
 40
3.250000
 50
-147.020128
 51
137.020128
  0
LINE
  8
1
 62
7
  6
CONTINUOUS
 10
231.861475
 20
95.982087
 11
216.918554
 21
97.289423
  0
LINE
  8
1
 62
7
  6
CONTINUOUS
 10
216.918554
 20
97.289423
 11
216.517638
 21
92.706927
  0
LINE
  8
1
 62
7
  6
CONTINUOUS
 10
216.517638
 20
92.706927
 11
231.460558
 21
91.399591
  0
LINE
  8
1
 62
7
  6
CONTINUOUS
 10
231.460558
 20
91.399591
 11
231.861475
 21
95.982087
  0
LINE
  8
1
 62
7
  6
DASHDOT
 10
241.991201
 20
92.787065
 11
183.798223
 21
97.878291
  0
LINE
  8
1
 62
7
  6
CONTINUOUS
 10
216.761674
 20
95.496272
 11
185.879638
 21
98.198100
  0
LINE
  8
1
 62
7
  6
CONTINUOUS
 10
216.674518
 20
94.500078
 11
185.792483
 21
97.201906
  0
ARC
  8
1
 62
7
  6
CONTINUOUS
 10
234.132352
 20
84.759051
 40
3.250000
 50
-157.020128
 51
127.020128
  0
LINE
  8
1
 62
7
  6
CONTINUOUS
 10
230.863932
 20
88.015956
 11
216.375045
 21
91.898242
  0
LINE
  8
1
 62
7
  6
CONTINUOUS
 10
216.375045
 20
91.898242
 11
215.184477
 21
87.454983
  0
LINE
  8
1
 62
7
  6
CONTINUOUS
 10
215.184477
 20
87.454983
 11
229.673365
 21
83.572698
  0
LINE
  8
1
 62
7
  6
CONTINUOUS
 10
229.673365
 20
83.572698
 11
230.863932
 21
88.015956
  0
LINE
  8
1
 62
7
  6
DASHDOT
 10
240.284956
 20
83.110466
 11
183.860142
 21
98.229449
  0
LINE
  8
1
 62
7
  6
CONTINUOUS
 10
215.909171
 20
90.159576
 11
185.965470
 21
98.182966
  0
LINE
  8
1
 62
7
  6
CONTINUOUS
 10
215.650351
 20
89.193650
 11
185.706651
 21
97.217040
  0
LINE
  8
1
 62
7
  6
CONTINUOUS
 10
231.486705
 20
103.701557
 11
232.919494
 21
103.826909
  0
LINE
  8
1
 62
7
  6
CONTINUOUS
 10
231.835328
 20
99.716778
 11
233.268117
 21
99.842131
  0
ARC
  8
1
 62
7
  6
CONTINUOUS
 10
235.645795
 20
102.057790
 40
3.250000
 50
-137.020128
 51
147.020128
  0
LINE
  8
1
 62
7
  6
CONTINUOUS
 10
231.460558
 20
104.000415
 11
216.517638
 21
102.693079
  0
LINE
  8
1
 62
7
  6
CONTINUOUS
 10
216.517638
 20
102.693079
 11
216.918554
 21
98.110583
  0
LINE
  8
1
 62
7
  6
CONTINUOUS
 10
216.918554
 20
98.110583
 11
231.861475
 21
99.417919
  0
LINE
  8
1
 62
7
  6
CONTINUOUS
 10
231.861475
 20
99.417919
 11
231.460558
 21
104.000415
  0
LINE
  8
1
 62
7
  6
DASHDOT
 10
241.991201
 20
102.612941
 11
183.798223
 21
97.521715
  0
LINE
  8
1
 62
7
  6
CONTINUOUS
 10
216.674518
 20
100.899928
 11
185.792483
 21
98.198100
  0
LINE
  8
1
 62
7
  6
CONTINUOUS
 10
216.761674
 20
99.903734
 11
185.879638
 21
97.201906
  0
ARC
  8
1
 62
7
  6
CONTINUOUS
 10
234.132352
 20
110.640955
 40
3.250000
 50
-127.020128
 51
157.020128
  0
LINE
  8
1
 62
7
  6
CONTINUOUS
 10
229.673365
 20
111.827309
 11
215.184477
 21
107.945023
  0
LINE
  8
1
 62
7
  6
CONTINUOUS
 10
215.184477
 20
107.945023
 11
216.375045
 21
103.501764
  0
LINE
  8
1
 62
7
  6
CONTINUOUS
 10
216.375045
 20
103.501764
 11
230.863932
 21
107.384050
  0
LINE
  8
1
 62
7
  6
CONTINUOUS
 10
230.863932
 20
107.384050
 11
229.673365
 21
111.827309
  0
LINE
  8
1
 62
7
  6
DASHDOT
 10
240.284956
 20
112.289541
 11
183.860142
 21
97.170557
  0
LINE
  8
1
 62
7
  6
CONTINUOUS
 10
215.650351
 20
106.206356
 11
185.706651
 21
98.182966
  0
LINE
  8
1
 62
7
  6
CONTINUOUS
 10
215.909171
 20
105.240431
 11
185.965470
 21
97.217040
  0
CIRCLE
  8
1
 62
7
  6
CONTINUOUS
 10
234.132352
 20
110.640955
 40
1.500000
  0
CIRCLE
  8
1
 62
7
  6
CONTINUOUS
 10
235.645795
 20
102.057790
 40
1.500000
  0
CIRCLE
  8
1
 62
7
  6
CONTINUOUS
 10
235.645795
 20
93.342216
 40
1.500000
  0
CIRCLE
  8
1
 62
7
  6
CONTINUOUS
 10
234.132352
 20
84.759051
 40
1.500000
  0
LINE
  8
1
 62
7
  6
CONTINUOUS
 10
175.836060
 20
99.850003
 11
185.836060
 21
99.850003
  0
LINE
  8
1
 62
7
  6
CONTINUOUS
 10
185.836060
 20
95.550003
 11
175.836060
 21
95.550003
  0
LINE
  8
1
 62
7
  6
DASHDOT
 10
185.836060
 20
97.700003
 11
148.909150
 21
97.700003
  0
LINE
  8
1
 62
7
  6
CONTINUOUS
 10
134.500000
 20
100.200003
 11
134.500000
 21
95.200003
  0
LINE
  8
1
 62
7
  6
CONTINUOUS
 10
120.000000
 20
91.950003
 11
120.595823
 21
91.950003
  0
LINE
  8
1
 62
7
  6
CONTINUOUS
 10
128.877333
 20
104.000003
 11
135.895207
 21
104.000003
  0
LINE
  8
1
 62
7
  6
CONTINUOUS
 10
135.895207
 20
104.000003
 11
135.895207
 21
91.400003
  0
LINE
  8
1
 62
7
  6
CONTINUOUS
 10
135.895207
 20
91.400003
 11
128.877333
 21
91.400003
  0
LINE
  8
1
 62
7
  6
CONTINUOUS
 10
135.895207
 20
102.700003
 11
148.955757
 21
102.700003
  0
LINE
  8
1
 62
7
  6
CONTINUOUS
 10
148.955757
 20
102.700003
 11
148.955757
 21
92.700003
  0
LINE
  8
1
 62
7
  6
CONTINUOUS
 10
148.955757
 20
92.700003
 11
135.895207
 21
92.700003
  0
LINE
  8
1
 62
7
  6
CONTINUOUS
 10
152.107840
 20
100.950003
 11
152.107840
 21
94.450003
  0
LINE
  8
1
 62
7
  6
CONTINUOUS
 10
152.107840
 20
100.950003
 11
148.955757
 21
102.700003
  0
LINE
  8
1
 62
7
  6
CONTINUOUS
 10
152.107840
 20
94.450003
 11
148.955757
 21
92.700003
  0
LINE
  8
1
 62
7
  6
CONTINUOUS
 10
122.293122
 20
91.950003
 11
122.768249
 21
91.950003
  0
LINE
  8
1
 62
7
  6
CONTINUOUS
 10
121.763915
 20
93.200003
 11
122.293122
 21
93.200003
  0
LINE
  8
1
 62
7
  6
CONTINUOUS
 10
129.813917
 20
104.000003
 11
129.813917
 21
91.400003
  0
LINE
  8
1
 62
7
  6
CONTINUOUS
 10
130.750501
 20
104.000003
 11
130.750501
 21
91.400003
  0
LINE
  8
1
 62
7
  6
CONTINUOUS
 10
131.687084
 20
104.000003
 11
131.687084
 21
91.400003
  0
LINE
  8
1
 62
7
  6
CONTINUOUS
 10
132.623668
 20
104.000003
 11
132.623668
 21
91.400003
  0
LINE
  8
1
 62
7
  6
CONTINUOUS
 10
133.560252
 20
104.000003
 11
133.560252
 21
91.400003
  0
LINE
  8
1
 62
7
  6
CONTINUOUS
 10
134.496835
 20
104.000003
 11
134.496835
 21
91.400003
  0
LINE
  8
1
 62
7
  6
CONTINUOUS
 10
135.433419
 20
104.000003
 11
135.433419
 21
91.400003
  0
LINE
  8
1
 62
7
  6
DASHDOT
 10
114.251394
 20
97.700003
 11
168.561130
 21
97.700003
  0
LINE
  8
1
 62
7
  6
CONTINUOUS
 10
159.530364
 20
100.508508
 11
158.085946
 21
94.730833
  0
LINE
  8
1
 62
7
  6
CONTINUOUS
 10
158.481441
 20
100.551497
 11
157.032724
 21
94.756627
  0
LINE
  8
1
 62
7
  6
CONTINUOUS
 10
175.836060
 20
99.600003
 11
159.303238
 21
99.600003
  0
LINE
  8
1
 62
7
  6
CONTINUOUS
 10
158.353238
 20
95.800003
 11
175.836060
 21
95.800003
  0
LINE
  8
1
 62
7
  6
CONTINUOUS
 10
158.243568
 20
99.600003
 11
152.107840
 21
99.600003
  0
LINE
  8
1
 62
7
  6
CONTINUOUS
 10
152.107840
 20
95.800003
 11
157.293568
 21
95.800003
  0
DIMENSION
  8
2
 62
134
  6
CONTINUOUS
  2
*D14
 10
155.688750
 20
95.800003
 11
155.688750
 21
106.879405
 70
     0
  1
φ3.8
 13
155.688750
 23
95.800003
 14
155.688750
 24
99.600003
 50
90.000000
  0
LINE
  8
3
 62
214
  6
CONTINUOUS
 10
144.514384
 20
92.700003
 11
152.227732
 21
77.121318
  0
LINE
  8
3
 62
214
  6
CONTINUOUS
 10
152.227732
 20
77.121318
 11
164.969526
 21
77.121318
  0
TEXT
  8
3
 62
214
  6
CONTINUOUS
 10
156.969526
 20
76.864206
 40
4.000000
 41
0.500000
  1
ｺﾈｸﾀ
  7
KANJI
 50
0.000000
 51
30.000000
  0
LINE
  8
3
 62
214
  6
CONTINUOUS
 10
144.514384
 20
92.700003
 11
145.835463
 21
91.198420
  0
LINE
  8
3
 62
214
  6
CONTINUOUS
 10
144.514384
 20
92.700003
 11
144.907680
 21
90.739055
  0
LINE
  8
3
 62
214
  6
CONTINUOUS
 10
145.835463
 20
91.198420
 11
144.907680
 21
90.739055
  0
LINE
  8
3
 62
214
  6
CONTINUOUS
 10
144.728681
 20
92.267187
 11
145.389220
 21
91.516395
  0
LINE
  8
3
 62
214
  6
CONTINUOUS
 10
144.728681
 20
92.267187
 11
144.925329
 21
91.286713
  0
LINE
  8
3
 62
214
  6
CONTINUOUS
 10
145.389220
 20
91.516395
 11
144.925329
 21
91.286713
  0
LINE
  8
3
 62
214
  6
CONTINUOUS
 10
160.636195
 20
95.800003
 11
173.963133
 21
77.604916
  0
LINE
  8
3
 62
214
  6
CONTINUOUS
 10
173.963133
 20
77.604916
 11
197.889303
 21
77.604916
  0
TEXT
  8
3
 62
214
  6
CONTINUOUS
 10
179.889303
 20
77.871455
 40
4.000000
 41
0.642857
  1
接続ｹｰﾌﾞﾙ
  7
KANJI
 50
0.000000
 51
30.000000
  0
LINE
  8
3
 62
214
  6
CONTINUOUS
 10
160.636195
 20
95.800003
 11
162.195326
 21
94.547361
  0
LINE
  8
3
 62
214
  6
CONTINUOUS
 10
160.636195
 20
95.800003
 11
161.360121
 21
93.935618
  0
LINE
  8
3
 62
214
  6
CONTINUOUS
 10
162.195326
 20
94.547361
 11
161.360121
 21
93.935618
  0
LINE
  8
3
 62
214
  6
CONTINUOUS
 10
160.921577
 20
95.410375
 11
161.701143
 21
94.784054
  0
LINE
  8
3
 62
214
  6
CONTINUOUS
 10
160.921577
 20
95.410375
 11
161.283540
 21
94.478182
  0
LINE
  8
3
 62
214
  6
CONTINUOUS
 10
161.701143
 20
94.784054
 11
161.283540
 21
94.478182
  0
TEXT
  8
3
 62
214
  6
CONTINUOUS
 10
207.565142
 20
87.233452
 40
4.000000
 41
0.500000
  1
ｱｶ
  7
KANJI
 50
-15.000000
 51
0.000000
  0
TEXT
  8
3
 62
214
  6
CONTINUOUS
 10
208.989044
 20
104.083943
 40
4.000000
 41
0.500000
  1
ｸﾛ
  7
KANJI
 50
15.000000
 51
0.000000
  0
TEXT
  8
3
 62
214
  6
CONTINUOUS
 10
208.016160
 20
99.487367
 40
4.000000
 41
0.500000
  1
ﾐﾄﾞﾘ
  7
KANJI
 50
5.000000
 51
0.000000
  0
TEXT
  8
3
 62
214
  6
CONTINUOUS
 10
208.264779
 20
94.863587
 40
4.000000
 41
0.500000
  1
ｼﾛ
  7
KANJI
 50
-5.000000
 51
0.000000
  0
LINE
  8
1
 62
7
  6
CONTINUOUS
 10
234.132352
 20
113.890955
 11
218.126281
 21
138.636054
  0
LINE
  8
1
 62
7
  6
CONTINUOUS
 10
218.126281
 20
138.636054
 11
204.467259
 21
138.636054
  0
TEXT
  8
1
 62
7
  6
CONTINUOUS
 10
204.467259
 20
138.636054
 40
4.000000
 41
0.600000
  1
1：GND
  7
KANJI
 50
0.000000
 51
30.000000
  0
LINE
  8
1
 62
7
  6
CONTINUOUS
 10
234.132352
 20
113.890955
 11
232.648486
 21
115.231904
  0
LINE
  8
1
 62
7
  6
CONTINUOUS
 10
234.132352
 20
113.890955
 11
233.517761
 21
115.794184
  0
LINE
  8
1
 62
7
  6
CONTINUOUS
 10
232.648486
 20
115.231904
 11
233.517761
 21
115.794184
  0
LINE
  8
1
 62
7
  6
CONTINUOUS
 10
233.870045
 20
114.296477
 11
233.128112
 21
114.966952
  0
LINE
  8
1
 62
7
  6
CONTINUOUS
 10
233.870045
 20
114.296477
 11
233.562749
 21
115.248092
  0
LINE
  8
1
 62
7
  6
CONTINUOUS
 10
233.128112
 20
114.966952
 11
233.562749
 21
115.248092
  0
DIMENSION
  8
3
 62
214
  6
CONTINUOUS
  2
*D15
 10
120.000000
 20
122.495992
 11
147.918030
 21
122.495992
 70
     0
  1
ｹｰﾌﾞﾙ長
 13
120.000000
 23
97.700003
 14
175.836060
 24
97.700003
 50
0.000000
  0
DIMENSION
  8
2
 62
134
  6
CONTINUOUS
  2
*D16
 10
175.836060
 20
122.495992
 11
203.497384
 21
122.495992
 70
     0
  1
100
 13
175.836060
 23
99.700003
 14
231.661017
 24
103.709167
 50
0.000000
  0
LINE
  8
1
 62
7
  6
CONTINUOUS
 10
230.786287
 20
87.726179
 11
232.175541
 21
87.353929
  0
LINE
  8
1
 62
7
  6
CONTINUOUS
 10
229.751010
 20
83.862475
 11
231.140265
 21
83.490226
  0
LINE
  8
1
 62
7
  6
CONTINUOUS
 10
229.751010
 20
111.537531
 11
231.140265
 21
111.909780
  0
LINE
  8
1
 62
7
  6
CONTINUOUS
 10
230.786287
 20
107.673828
 11
232.175541
 21
108.046077
  0
LINE
  8
1
 62
7
  6
CONTINUOUS
 10
234.132352
 20
81.509051
 11
219.733391
 21
65.753837
  0
LINE
  8
1
 62
7
  6
CONTINUOUS
 10
219.733391
 20
65.753837
 11
193.086074
 21
65.753837
  0
TEXT
  8
1
 62
7
  6
CONTINUOUS
 10
193.086074
 20
65.753837
 40
4.000000
 41
0.590909
  1
4：DC+10～27V
  7
KANJI
 50
0.000000
 51
30.000000
  0
LINE
  8
1
 62
7
  6
CONTINUOUS
 10
234.132352
 20
81.509051
 11
233.211186
 21
79.733817
  0
LINE
  8
1
 62
7
  6
CONTINUOUS
 10
234.132352
 20
81.509051
 11
232.446982
 21
80.432237
  0
LINE
  8
1
 62
7
  6
CONTINUOUS
 10
233.211186
 20
79.733817
 11
232.446982
 21
80.432237
  0
LINE
  8
1
 62
7
  6
CONTINUOUS
 10
233.806535
 20
81.152545
 11
233.345952
 21
80.264928
  0
LINE
  8
1
 62
7
  6
CONTINUOUS
 10
233.806535
 20
81.152545
 11
232.963850
 21
80.614138
  0
LINE
  8
1
 62
7
  6
CONTINUOUS
 10
233.345952
 20
80.264928
 11
232.963850
 21
80.614138
  0
DIMENSION
  8
2
 62
134
  6
CONTINUOUS
  2
*D17
 10
141.027410
 20
66.200003
 11
141.027410
 21
78.625061
 70
     0
  1
31.5
 13
118.931775
 23
66.200003
 14
140.954667
 24
97.700003
 50
90.000000
  0
LINE
  8
1
 62
7
  6
CONTINUOUS
 10
120.000000
 20
103.450003
 11
120.595823
 21
103.450003
  0
LINE
  8
1
 62
7
  6
CONTINUOUS
 10
122.768249
 20
103.450003
 11
122.293122
 21
103.450003
  0
LINE
  8
1
 62
7
  6
CONTINUOUS
 10
121.763915
 20
102.200003
 11
122.293122
 21
102.200003
  0
LINE
  8
1
 62
7
  6
CONTINUOUS
 10
120.595823
 20
103.700003
 11
120.595823
 21
91.700003
  0
LINE
  8
1
 62
7
  6
CONTINUOUS
 10
120.595823
 20
91.700003
 11
121.763915
 21
91.700003
  0
LINE
  8
1
 62
7
  6
CONTINUOUS
 10
121.763915
 20
91.700003
 11
121.763915
 21
103.700003
  0
LINE
  8
1
 62
7
  6
CONTINUOUS
 10
121.763915
 20
103.700003
 11
120.595823
 21
103.700003
  0
LINE
  8
1
 62
7
  6
CONTINUOUS
 10
122.768249
 20
104.000003
 11
122.768249
 21
91.400003
  0
LINE
  8
1
 62
7
  6
CONTINUOUS
 10
122.768249
 20
91.400003
 11
128.877333
 21
91.400003
  0
LINE
  8
1
 62
7
  6
CONTINUOUS
 10
128.877333
 20
91.400003
 11
128.877333
 21
104.000003
  0
LINE
  8
1
 62
7
  6
CONTINUOUS
 10
128.877333
 20
104.000003
 11
122.768249
 21
104.000003
  0
LINE
  8
1
 62
7
  6
CONTINUOUS
 10
122.293122
 20
103.450003
 11
122.293122
 21
91.950003
  0
DIMENSION
  8
2
 62
134
  6
CONTINUOUS
  2
*D18
 10
124.751119
 20
91.400003
 11
124.751119
 21
83.364183
 70
     0
  1
φ12.6
 13
124.751119
 23
91.400003
 14
124.751119
 24
104.000003
 50
90.000000
  0
TEXT
  8
5
 62
94
  6
CONTINUOUS
 10
239.646523
 20
30.657030
 40
4.000000
 41
1.000000
  1
外形図
  7
KANJI
 50
0.000000
 51
0.000000
  0
TEXT
  8
5
 62
94
  6
CONTINUOUS
 10
236.167162
 20
37.388600
 40
4.000000
 41
0.766667
  1
ＦＴＡ９－Ｒ RS232C出力
  7
KANJI
 50
0.000000
 51
0.000000
  0
TEXT
  8
5
 62
94
  6
CONTINUOUS
 10
235.841714
 20
21.893890
 40
4.000000
 41
1.000000
  1
０１５－８７８－Ａ２
  7
KANJI
 50
0.000000
 51
0.000000
  0
LINE
  8
1
 62
7
  6
CONTINUOUS
 10
232.919494
 20
91.573097
 11
214.101757
 21
72.286533
  0
LINE
  8
1
 62
7
  6
CONTINUOUS
 10
214.101757
 20
72.286533
 11
186.906356
 21
72.286533
  0
TEXT
  8
1
 62
7
  6
CONTINUOUS
 10
186.906356
 20
72.511799
 40
4.000000
 41
0.541667
  1
3：RS232C TXD
  7
KANJI
 50
0.000000
 51
30.000000
  0
LINE
  8
1
 62
7
  6
CONTINUOUS
 10
232.919494
 20
91.573097
 11
231.940879
 21
89.828874
  0
LINE
  8
1
 62
7
  6
CONTINUOUS
 10
232.919494
 20
91.573097
 11
231.199877
 21
90.551863
  0
LINE
  8
1
 62
7
  6
CONTINUOUS
 10
231.940879
 20
89.828874
 11
231.199877
 21
90.551863
  0
LINE
  8
1
 62
7
  6
CONTINUOUS
 10
232.582215
 20
91.227415
 11
232.092908
 21
90.355303
  0
LINE
  8
1
 62
7
  6
CONTINUOUS
 10
232.582215
 20
91.227415
 11
231.722407
 21
90.716798
  0
LINE
  8
1
 62
7
  6
CONTINUOUS
 10
232.092908
 20
90.355303
 11
231.722407
 21
90.716798
  0
LINE
  8
1
 62
7
  6
CONTINUOUS
 10
232.919494
 20
103.826909
 11
215.423097
 21
131.202297
  0
LINE
  8
1
 62
7
  6
CONTINUOUS
 10
215.423097
 20
131.202297
 11
189.002298
 21
131.202297
  0
TEXT
  8
1
 62
7
  6
CONTINUOUS
 10
189.002298
 20
131.202297
 40
4.000000
 41
0.541667
  1
2：RS232C RXD
  7
KANJI
 50
0.000000
 51
30.000000
  0
LINE
  8
1
 62
7
  6
CONTINUOUS
 10
232.919494
 20
103.826909
 11
231.442965
 21
105.175931
  0
LINE
  8
1
 62
7
  6
CONTINUOUS
 10
232.919494
 20
103.826909
 11
232.315293
 21
105.733462
  0
LINE
  8
1
 62
7
  6
CONTINUOUS
 10
231.442965
 20
105.175931
 11
232.315293
 21
105.733462
  0
LINE
  8
1
 62
7
  6
CONTINUOUS
 10
232.659403
 20
104.233856
 11
231.921138
 21
104.908367
  0
LINE
  8
1
 62
7
  6
CONTINUOUS
 10
232.659403
 20
104.233856
 11
232.357302
 21
105.187132
  0
LINE
  8
1
 62
7
  6
CONTINUOUS
 10
231.921138
 20
104.908367
 11
232.357302
 21
105.187132
  0
TEXT
  8
3
 62
214
  6
CONTINUOUS
 10
146.363636
 20
56.699301
 40
4.000000
 41
0.647059
  1
重量 ；110g(ｹｰﾌﾞﾙ除く)
  7
KANJI
 50
0.000000
 51
0.000000
  0
CIRCLE
  8
1
 62
7
  6
CONTINUOUS
 10
258.506424
 20
97.700003
 40
4.000000
  0
LINE
  8
1
 62
7
  6
DASHDOT
 10
253.345015
 20
97.700003
 11
264.302528
 21
97.700003
  0
CIRCLE
  8
1
 62
7
  6
CONTINUOUS
 10
258.506424
 20
97.700003
 40
4.500000
  0
CIRCLE
  8
1
 62
7
  6
CONTINUOUS
 10
258.506424
 20
97.700003
 40
6.048062
  0
LINE
  8
1
 62
7
  6
DASHDOT
 10
251.243654
 20
97.700003
 11
266.476473
 21
97.700003
  0
CIRCLE
  8
1
 62
7
  6
CONTINUOUS
 10
258.506424
 20
97.700003
 40
3.172423
  0
LINE
  8
1
 62
7
  6
DASHDOT
 10
258.506424
 20
105.446985
 11
258.506424
 21
89.036729
  0
DIMENSION
  8
2
 62
134
  6
CONTINUOUS
  2
*D19
 10
258.506424
 20
57.990298
 11
265.455648
 21
57.990298
 70
     0
  1
15
 13
258.506424
 23
89.651941
 14
273.506424
 24
64.200003
 50
0.000000
  0
TEXT
  8
5
 62
94
  6
CONTINUOUS
 10
172.772351
 20
29.848865
 40
4.000000
 41
0.500000
  1
2009/09/15
  7
KANJI
 50
0.160943
 51
0.000000
  0
LINE
  8
3
 62
214
  6
CONTINUOUS
 10
96.014484
 20
75.196535
 11
107.740055
 21
55.043209
  0
LINE
  8
3
 62
214
  6
CONTINUOUS
 10
107.740055
 20
55.043209
 11
134.351282
 21
55.043209
  0
TEXT
  8
3
 62
214
  6
CONTINUOUS
 10
114.351282
 20
55.240700
 40
4.000000
 41
1.000000
  1
温度変換器
  7
KANJI
 50
0.000000
 51
30.000000
  0
LINE
  8
3
 62
214
  6
CONTINUOUS
 10
96.014484
 20
75.196535
 11
97.433419
 21
73.787059
  0
LINE
  8
3
 62
214
  6
CONTINUOUS
 10
96.014484
 20
75.196535
 11
96.538580
 21
73.266425
  0
LINE
  8
3
 62
214
  6
CONTINUOUS
 10
97.433419
 20
73.787059
 11
96.538580
 21
73.266425
  0
LINE
  8
3
 62
214
  6
CONTINUOUS
 10
96.257363
 20
74.779087
 11
96.966830
 21
74.074349
  0
LINE
  8
3
 62
214
  6
CONTINUOUS
 10
96.257363
 20
74.779087
 11
96.519411
 21
73.814032
  0
LINE
  8
3
 62
214
  6
CONTINUOUS
 10
96.966830
 20
74.074349
 11
96.519411
 21
73.814032
  0
LINE
  8
1
 62
7
  6
CONTINUOUS
 10
62.200000
 20
66.400003
 11
60.200000
 21
68.400003
  0
LINE
  8
1
 62
7
  6
CONTINUOUS
 10
60.200000
 20
112.000003
 11
60.200000
 21
68.400003
  0
LINE
  8
1
 62
7
  6
CONTINUOUS
 10
117.800000
 20
66.400003
 11
62.200000
 21
66.400003
  0
LINE
  8
1
 62
7
  6
CONTINUOUS
 10
119.800000
 20
68.400003
 11
117.800000
 21
66.400003
  0
LINE
  8
1
 62
7
  6
CONTINUOUS
 10
119.800000
 20
112.000003
 11
119.800000
 21
68.400003
  0
LINE
  8
1
 62
7
  6
CONTINUOUS
 10
117.800000
 20
114.000003
 11
119.800000
 21
112.000003
  0
LINE
  8
1
 62
7
  6
CONTINUOUS
 10
62.200000
 20
114.000003
 11
117.800000
 21
114.000003
  0
LINE
  8
1
 62
7
  6
CONTINUOUS
 10
60.200000
 20
112.000003
 11
62.200000
 21
114.000003
  0
LINE
  8
1
 62
7
  6
DASHDOT
 10
85.879190
 20
110.200003
 11
106.234453
 21
110.200003
  0
CIRCLE
  8
1
 62
7
  6
CONTINUOUS
 10
83.000000
 20
110.200003
 40
1.850000
  0
CIRCLE
  8
1
 62
7
  6
CONTINUOUS
 10
103.000000
 20
110.200003
 40
1.850000
  0
LINE
  8
1
 62
7
  6
DASHDOT
 10
80.103879
 20
110.200003
 11
85.274382
 21
110.200003
  0
LINE
  8
1
 62
7
  6
DASHDOT
 10
83.000000
 20
105.750996
 11
83.000000
 21
114.200003
  0
LINE
  8
1
 62
7
  6
DASHDOT
 10
103.000000
 20
104.933914
 11
103.000000
 21
115.555980
  0
LINE
  8
1
 62
7
  6
CONTINUOUS
 10
60.200000
 20
148.000000
 11
60.200000
 21
147.000000
  0
LINE
  8
1
 62
7
  6
CONTINUOUS
 10
60.200000
 20
147.000000
 11
119.800000
 21
147.000000
  0
LINE
  8
1
 62
7
  6
CONTINUOUS
 10
119.800000
 20
147.000000
 11
119.800000
 21
148.000000
  0
LINE
  8
1
 62
7
  6
CONTINUOUS
 10
119.800000
 20
148.000000
 11
60.200000
 21
148.000000
  0
LINE
  8
1
 62
7
  6
CONTINUOUS
 10
247.506424
 20
114.000003
 11
247.506424
 21
66.400003
  0
LINE
  8
1
 62
7
  6
CONTINUOUS
 10
247.506424
 20
66.400003
 11
248.506424
 21
66.400003
  0
LINE
  8
1
 62
7
  6
CONTINUOUS
 10
248.506424
 20
66.400003
 11
248.506424
 21
114.000003
  0
LINE
  8
1
 62
7
  6
CONTINUOUS
 10
248.506424
 20
114.000003
 11
247.506424
 21
114.000003
  0
LINE
  8
1
 62
7
  6
CONTINUOUS
 10
248.326039
 20
111.300003
 11
248.326039
 21
109.100003
  0
LINE
  8
1
 62
7
  6
CONTINUOUS
 10
248.326040
 20
109.100003
 11
247.806424
 21
108.200003
  0
LINE
  8
1
 62
7
  6
CONTINUOUS
 10
248.326039
 20
111.300003
 11
247.806424
 21
112.200003
  0
LINE
  8
1
 62
7
  6
CONTINUOUS
 10
247.806424
 20
112.200003
 11
247.506424
 21
112.200003
  0
LINE
  8
1
 62
7
  6
CONTINUOUS
 10
247.806424
 20
108.200003
 11
247.806424
 21
112.200003
  0
LINE
  8
1
 62
7
  6
CONTINUOUS
 10
247.506424
 20
108.200003
 11
247.806424
 21
108.200003
  0
LINE
  8
1
 62
7
  6
CONTINUOUS
 10
248.506424
 20
111.300003
 11
248.326039
 21
111.300003
  0
LINE
  8
1
 62
7
  6
CONTINUOUS
 10
248.506424
 20
109.100003
 11
248.326040
 21
109.100003
  0
LINE
  8
1
 62
7
  6
DASHDOT
 10
246.706756
 20
110.200003
 11
250.106633
 21
110.200003
  0
LINE
  8
1
 62
7
  6
CONTINUOUS
 10
248.326039
 20
71.300003
 11
248.326039
 21
69.100003
  0
LINE
  8
1
 62
7
  6
CONTINUOUS
 10
248.326040
 20
69.100003
 11
247.806424
 21
68.200003
  0
LINE
  8
1
 62
7
  6
CONTINUOUS
 10
248.326039
 20
71.300003
 11
247.806424
 21
72.200003
  0
LINE
  8
1
 62
7
  6
CONTINUOUS
 10
247.806424
 20
72.200003
 11
247.506424
 21
72.200003
  0
LINE
  8
1
 62
7
  6
CONTINUOUS
 10
247.806424
 20
68.200003
 11
247.806424
 21
72.200003
  0
LINE
  8
1
 62
7
  6
CONTINUOUS
 10
247.506424
 20
68.200003
 11
247.806424
 21
68.200003
  0
LINE
  8
1
 62
7
  6
CONTINUOUS
 10
248.506424
 20
71.300003
 11
248.326039
 21
71.300003
  0
LINE
  8
1
 62
7
  6
CONTINUOUS
 10
248.506424
 20
69.100003
 11
248.326040
 21
69.100003
  0
LINE
  8
1
 62
7
  6
DASHDOT
 10
246.706756
 20
70.200003
 11
250.106633
 21
70.200003
  0
ENDSEC
  0
EOF
