  0
SECTION
  2
HEADER
  9
$ACADVER
  1
AC1003
  9
$INSBASE
 10
0.000000
 20
0.000000
  9
$EXTMIN
 10
0.000000
 20
0.000000
  9
$EXTMAX
 10
297.000000
 20
210.000000
  9
$LIMMIN
 10
0.000000
 20
0.000000
  9
$LIMMAX
 10
297.000000
 20
210.000000
  9
$VIEWCTR
 10
148.500000
 20
105.000000
  9
$VIEWSIZE
 40
210.000000
  9
$PEXTMIN
 10
0.000000
 20
0.000000
 30
0.000000
  9
$PEXTMAX
 10
297.000000
 20
210.000000
 30
0.000000
  9
$SNAPMODE
 70
     0
  9
$SNAPUNIT
 10
1.000000
 20
1.000000
  9
$SNAPBASE
 10
0.000000
 20
0.000000
  9
$SNAPANG
 50
0.000000
  9
$SNAPISOPAIR
 70
     0
  9
$SNAPSTYLE
 70
     0
  9
$GRIDMODE
 70
     0
  9
$GRIDUNIT
 10
0.000000
 20
0.000000
  9
$ORTHOMODE
 70
     0
  9
$REGENMODE
 70
     1
  9
$FILLMODE
 70
     1
  9
$QTEXTMODE
 70
     0
  9
$DRAGMODE
 70
     2
  9
$LTSCALE
 40
0.250000
  9
$OSMODE
 70
     0
  9
$ATTMODE
 70
     1
  9
$TEXTSIZE
 40
0.200000
  9
$TRACEWID
 40
0.050000
  9
$TEXTSTYLE
  7
STANDARD
  9
$CLAYER
  8
0
  9
$CELTYPE
  6
BYLAYER
  9
$CECOLOR
 62
   256
  9
$DIMSCALE
 40
1.000000
  9
$DIMASZ
 40
1.000000
  9
$DIMEXO
 40
0.000000
  9
$DIMDLI
 40
0.500000
  9
$DIMRND
 40
0.000000
  9
$DIMDLE
 40
0.000000
  9
$DIMEXE
 40
0.000000
  9
$DIMTP
 40
0.000000
  9
$DIMTM
 40
0.000000
  9
$DIMTXT
 40
0.180000
  9
$DIMCEN
 40
0.000000
  9
$DIMTSZ
 40
0.000000
  9
$DIMTOL
 70
     0
  9
$DIMLIM
 70
     0
  9
$DIMTIH
 70
     1
  9
$DIMTOH
 70
     1
  9
$DIMSE1
 70
     0
  9
$DIMSE2
 70
     0
  9
$DIMTAD
 70
     0
  9
$DIMZIN
 70
     0
  9
$DIMBLK
  1

  9
$DIMASO
 70
     0
  9
$DIMSHO
 70
     0
  9
$DIMPOST
  1

  9
$DIMAPOST
  1

  9
$DIMALT
 70
     0
  9
$DIMALTD
 70
     0
  9
$DIMALTF
 40
25.400000
  9
$DIMLFAC
 40
1.000000
  9
$DIMTOFL
 70
     0
  9
$DIMTVP
 40
0.000000
  9
$DIMTIX
 70
     0
  9
$DIMSOXD
 70
     0
  9
$DIMSAH
 70
     0
  9
$DIMBLKL
  1

  9
$DIMBLKR
  1

  9
$LUNITS
 70
     2
  9
$LUPREC
 70
     2
  9
$AXISMODE
 70
     0
  9
$AXISUNIT
 10
1.000000
 20
1.000000
  9
$SKETCHINC
 40
0.000000
  9
$FILLETRAD
 40
0.000000
  9
$AUNITS
 70
     1
  9
$AUPREC
 70
     2
  9
$MENU
  1
ACAD
  9
$ELEVATION
 40
0.000000
  9
$THICKNESS
 40
0.000000
  9
$VIEWDIR
 10
0.000000
 20
0.000000
 30
1.000000
  9
$LIMCHECK
 70
     1
  9
$BLIPMODE
 70
     1
  9
$CHAMFERA
 40
0.000000
  9
$CHAMFERB
 40
0.000000
  9
$FASTZOOM
 70
     1
  9
$SKPOLY
 70
     0
  9
$TDCREATE
 40
0.000000
  9
$TDUPDATE
 40
0.000000
  9
$TDINDWG
 40
0.000000
  9
$TDUSRTIMER
 40
0.000000
  9
$USRTIMER
 70
     1
  9
$ANGBASE
 50
0.000000
  9
$ANGDIR
 70
     0
  9
$PDMODE
 70
     0
  9
$PDSIZE
 40
0.000000
  9
$PLINEWID
 40
0.000000
  9
$COORDS
 70
     2
  9
$USERI1
 70
     0
  9
$USERI2
 70
     0
  9
$USERI3
 70
     0
  9
$USERI4
 70
     0
  9
$USERI5
 70
     0
  9
$USERR1
 40
0.000000
  9
$USERR2
 40
0.000000
  9
$USERR3
 40
0.000000
  9
$USERR4
 40
0.000000
  9
$USERR5
 40
0.000000
  0
ENDSEC
  0
SECTION
  2
TABLES
  0
TABLE
  2
LTYPE
 70
     5
  0
LTYPE
  2
CONTINUOUS
 70
    64
  3
Solid line
 72
    65
 73
     0
 40
0.0
  0
LTYPE
  2
HIDDEN
 70
    64
  3
------------------------
 72
    65
 73
     2
 40
12.6
 49
8.4
 49
-4.2
  0
LTYPE
  2
DOT
 70
    64
  3
････････････････････････
 72
    65
 73
     2
 40
8.0
 49
6.0
 49
-2.0
  0
LTYPE
  2
DASHDOT
 70
    64
  3
--･--･--･--･--･--･--･--
 72
    65
 73
     4
 40
50.5
 49
30.0
 49
-9.0
 49
2.5
 49
-9.0
  0
LTYPE
  2
DIVIDE
 70
    64
  3
--･･--･･--･･--･･--･･--
 72
    65
 73
     6
 40
58.0
 49
30.0
 49
-9.0
 49
2.5
 49
-5.0
 49
2.5
 49
-9.0
  0
LTYPE
  2
ACAD_ISO06W100
 70
    64
  3
____ ... ____ ... ____
 72
    65
 73
     8
 40
37.5
 49
24.0
 49
-3.0
 49
0.5
 49
-3.0
 49
0.5
 49
-3.0
 49
0.5
 49
-3.0
  0
LTYPE
  2
ACAD_ISO14W100
 70
    64
  3
__ . . . __ . . . __ . . . 
 72
    65
 73
     8
 40
25.5
 49
12.0
 49
-3.0
 49
0.5
 49
-3.0
 49
0.5
 49
-3.0
 49
0.5
 49
-3.0
  0
ENDTAB
  0
TABLE
  2
LAYER
 70
4
  0
LAYER
  2
1
 70
64
 62
7
  6
CONTINUOUS
  0
LAYER
  2
2
 70
64
 62
134
  6
CONTINUOUS
  0
LAYER
  2
3
 70
64
 62
214
  6
CONTINUOUS
  0
LAYER
  2
5
 70
64
 62
94
  6
CONTINUOUS
  0
ENDTAB
  0
TABLE
  2
STYLE
 70
     2
  0
STYLE
  2
STANDARD
 70
    64
 40
0.0
 41
1.0
 50
0.0
 71
     0
 42
0.2
  3
TXT
  4

  0
STYLE
  2
KANJI
 70
    64
 40
0.0
 41
1.0
 50
0.0
 71
     0
 42
0.2
  3
TXT
  4
BIGFONT
  0
ENDTAB
  0
TABLE
  2
VIEW
 70
     0
  0
ENDTAB
  0
ENDSEC
  0
SECTION
  2
BLOCKS
  0
BLOCK
  8
2
 62
134
  6
CONTINUOUS
  2
*D1
 70
    65
 10
0.0
 20
0.0
  0
LINE
  8
2
 62
134
  6
CONTINUOUS
 10
212.142717
 20
110.000000
 11
212.142717
 21
117.000000
  0
LINE
  8
2
 62
134
  6
CONTINUOUS
 10
214.142717
 20
110.000000
 11
209.005096
 21
110.000000
  0
LINE
  8
2
 62
134
  6
CONTINUOUS
 10
214.142717
 20
117.000000
 11
209.910572
 21
117.000000
  0
LINE
  8
2
 62
134
  6
CONTINUOUS
 10
212.142717
 20
110.000000
 11
211.625078
 21
111.931852
  0
LINE
  8
2
 62
134
  6
CONTINUOUS
 10
212.142717
 20
110.000000
 11
212.660355
 21
111.931852
  0
LINE
  8
2
 62
134
  6
CONTINUOUS
 10
211.625078
 20
111.931852
 11
212.660355
 21
111.931852
  0
LINE
  8
2
 62
134
  6
CONTINUOUS
 10
212.142717
 20
110.482963
 11
211.883897
 21
111.448889
  0
LINE
  8
2
 62
134
  6
CONTINUOUS
 10
212.142717
 20
110.482963
 11
212.401536
 21
111.448889
  0
LINE
  8
2
 62
134
  6
CONTINUOUS
 10
211.883897
 20
111.448889
 11
212.401536
 21
111.448889
  0
LINE
  8
2
 62
134
  6
CONTINUOUS
 10
212.142717
 20
117.000000
 11
212.660355
 21
115.068148
  0
LINE
  8
2
 62
134
  6
CONTINUOUS
 10
212.142717
 20
117.000000
 11
211.625078
 21
115.068148
  0
LINE
  8
2
 62
134
  6
CONTINUOUS
 10
212.660355
 20
115.068148
 11
211.625078
 21
115.068148
  0
LINE
  8
2
 62
134
  6
CONTINUOUS
 10
212.142717
 20
116.517037
 11
212.401536
 21
115.551111
  0
LINE
  8
2
 62
134
  6
CONTINUOUS
 10
212.142717
 20
116.517037
 11
211.883897
 21
115.551111
  0
LINE
  8
2
 62
134
  6
CONTINUOUS
 10
212.401536
 20
115.551111
 11
211.883897
 21
115.551111
  0
TEXT
  8
2
 62
134
  6
CONTINUOUS
 10
211.642717
 20
112.500000
 40
4.000000
 41
0.500000
  1
7
  7
KANJI
 50
90.000000
 51
30.000000
  0
ENDBLK
  0
BLOCK
  8
1
 62
7
  6
CONTINUOUS
  2
*D2
 70
    65
 10
0.0
 20
0.0
  0
LINE
  8
1
 62
7
  6
CONTINUOUS
 10
860.000000
 20
158.138566
 11
890.000000
 21
158.138566
  0
LINE
  8
1
 62
7
  6
CONTINUOUS
 10
860.000000
 20
160.138566
 11
860.000000
 21
138.800000
  0
LINE
  8
1
 62
7
  6
CONTINUOUS
 10
890.000000
 20
160.138566
 11
890.000000
 21
132.526944
  0
LINE
  8
1
 62
7
  6
CONTINUOUS
 10
860.000000
 20
158.138566
 11
861.931852
 21
158.656204
  0
LINE
  8
1
 62
7
  6
CONTINUOUS
 10
860.000000
 20
158.138566
 11
861.931852
 21
157.620928
  0
LINE
  8
1
 62
7
  6
CONTINUOUS
 10
861.931852
 20
158.656204
 11
861.931852
 21
157.620928
  0
LINE
  8
1
 62
7
  6
CONTINUOUS
 10
860.482963
 20
158.138566
 11
861.448889
 21
158.397385
  0
LINE
  8
1
 62
7
  6
CONTINUOUS
 10
860.482963
 20
158.138566
 11
861.448889
 21
157.879747
  0
LINE
  8
1
 62
7
  6
CONTINUOUS
 10
861.448889
 20
158.397385
 11
861.448889
 21
157.879747
  0
LINE
  8
1
 62
7
  6
CONTINUOUS
 10
890.000000
 20
158.138566
 11
888.068148
 21
157.620928
  0
LINE
  8
1
 62
7
  6
CONTINUOUS
 10
890.000000
 20
158.138566
 11
888.068148
 21
158.656204
  0
LINE
  8
1
 62
7
  6
CONTINUOUS
 10
888.068148
 20
157.620928
 11
888.068148
 21
158.656204
  0
LINE
  8
1
 62
7
  6
CONTINUOUS
 10
889.517037
 20
158.138566
 11
888.551111
 21
157.879747
  0
LINE
  8
1
 62
7
  6
CONTINUOUS
 10
889.517037
 20
158.138566
 11
888.551111
 21
158.397385
  0
LINE
  8
1
 62
7
  6
CONTINUOUS
 10
888.551111
 20
157.879747
 11
888.551111
 21
158.397385
  0
TEXT
  8
1
 62
7
  6
CONTINUOUS
 10
870.000000
 20
158.638566
 40
4.000000
 41
0.500000
  1
30
  7
KANJI
 50
0.000000
 51
30.000000
  0
ENDBLK
  0
BLOCK
  8
1
 62
7
  6
CONTINUOUS
  2
*D3
 70
    65
 10
0.0
 20
0.0
  0
LINE
  8
1
 62
7
  6
CONTINUOUS
 10
890.000000
 20
166.297597
 11
720.000000
 21
166.297597
  0
LINE
  8
1
 62
7
  6
CONTINUOUS
 10
890.000000
 20
168.297597
 11
890.000000
 21
132.526944
  0
LINE
  8
1
 62
7
  6
CONTINUOUS
 10
720.000000
 20
168.297597
 11
720.000000
 21
145.000000
  0
LINE
  8
1
 62
7
  6
CONTINUOUS
 10
890.000000
 20
166.297597
 11
888.068148
 21
165.779959
  0
LINE
  8
1
 62
7
  6
CONTINUOUS
 10
890.000000
 20
166.297597
 11
888.068148
 21
166.815236
  0
LINE
  8
1
 62
7
  6
CONTINUOUS
 10
888.068148
 20
165.779959
 11
888.068148
 21
166.815236
  0
LINE
  8
1
 62
7
  6
CONTINUOUS
 10
889.517037
 20
166.297597
 11
888.551111
 21
166.038778
  0
LINE
  8
1
 62
7
  6
CONTINUOUS
 10
889.517037
 20
166.297597
 11
888.551111
 21
166.556417
  0
LINE
  8
1
 62
7
  6
CONTINUOUS
 10
888.551111
 20
166.038778
 11
888.551111
 21
166.556417
  0
LINE
  8
1
 62
7
  6
CONTINUOUS
 10
720.000000
 20
166.297597
 11
721.931852
 21
166.815236
  0
LINE
  8
1
 62
7
  6
CONTINUOUS
 10
720.000000
 20
166.297597
 11
721.931852
 21
165.779959
  0
LINE
  8
1
 62
7
  6
CONTINUOUS
 10
721.931852
 20
166.815236
 11
721.931852
 21
165.779959
  0
LINE
  8
1
 62
7
  6
CONTINUOUS
 10
720.482963
 20
166.297597
 11
721.448889
 21
166.556417
  0
LINE
  8
1
 62
7
  6
CONTINUOUS
 10
720.482963
 20
166.297597
 11
721.448889
 21
166.038778
  0
LINE
  8
1
 62
7
  6
CONTINUOUS
 10
721.448889
 20
166.556417
 11
721.448889
 21
166.038778
  0
TEXT
  8
1
 62
7
  6
CONTINUOUS
 10
799.000000
 20
166.797597
 40
4.000000
 41
0.500000
  1
170
  7
KANJI
 50
0.000000
 51
30.000000
  0
ENDBLK
  0
BLOCK
  8
1
 62
7
  6
CONTINUOUS
  2
*D4
 70
    65
 10
0.0
 20
0.0
  0
LINE
  8
1
 62
7
  6
CONTINUOUS
 10
850.000000
 20
158.138566
 11
860.000000
 21
158.138566
  0
LINE
  8
1
 62
7
  6
CONTINUOUS
 10
850.000000
 20
160.138566
 11
850.000000
 21
148.000000
  0
LINE
  8
1
 62
7
  6
CONTINUOUS
 10
860.000000
 20
160.138566
 11
860.000000
 21
137.111965
  0
LINE
  8
1
 62
7
  6
CONTINUOUS
 10
850.000000
 20
158.138566
 11
851.931852
 21
158.656204
  0
LINE
  8
1
 62
7
  6
CONTINUOUS
 10
850.000000
 20
158.138566
 11
851.931852
 21
157.620928
  0
LINE
  8
1
 62
7
  6
CONTINUOUS
 10
851.931852
 20
158.656204
 11
851.931852
 21
157.620928
  0
LINE
  8
1
 62
7
  6
CONTINUOUS
 10
850.482963
 20
158.138566
 11
851.448889
 21
158.397385
  0
LINE
  8
1
 62
7
  6
CONTINUOUS
 10
850.482963
 20
158.138566
 11
851.448889
 21
157.879747
  0
LINE
  8
1
 62
7
  6
CONTINUOUS
 10
851.448889
 20
158.397385
 11
851.448889
 21
157.879747
  0
LINE
  8
1
 62
7
  6
CONTINUOUS
 10
860.000000
 20
158.138566
 11
858.068148
 21
157.620928
  0
LINE
  8
1
 62
7
  6
CONTINUOUS
 10
860.000000
 20
158.138566
 11
858.068148
 21
158.656204
  0
LINE
  8
1
 62
7
  6
CONTINUOUS
 10
858.068148
 20
157.620928
 11
858.068148
 21
158.656204
  0
LINE
  8
1
 62
7
  6
CONTINUOUS
 10
859.517037
 20
158.138566
 11
858.551111
 21
157.879747
  0
LINE
  8
1
 62
7
  6
CONTINUOUS
 10
859.517037
 20
158.138566
 11
858.551111
 21
158.397385
  0
LINE
  8
1
 62
7
  6
CONTINUOUS
 10
858.551111
 20
157.879747
 11
858.551111
 21
158.397385
  0
TEXT
  8
1
 62
7
  6
CONTINUOUS
 10
853.000000
 20
158.638566
 40
4.000000
 41
0.500000
  1
10
  7
KANJI
 50
0.000000
 51
30.000000
  0
ENDBLK
  0
BLOCK
  8
1
 62
7
  6
CONTINUOUS
  2
*D5
 70
    65
 10
0.0
 20
0.0
  0
LINE
  8
1
 62
7
  6
CONTINUOUS
 10
720.000000
 20
158.138566
 11
850.000000
 21
158.138566
  0
LINE
  8
1
 62
7
  6
CONTINUOUS
 10
720.000000
 20
160.138566
 11
720.000000
 21
145.000000
  0
LINE
  8
1
 62
7
  6
CONTINUOUS
 10
850.000000
 20
160.138566
 11
850.000000
 21
145.000000
  0
LINE
  8
1
 62
7
  6
CONTINUOUS
 10
720.000000
 20
158.138566
 11
721.931852
 21
158.656204
  0
LINE
  8
1
 62
7
  6
CONTINUOUS
 10
720.000000
 20
158.138566
 11
721.931852
 21
157.620928
  0
LINE
  8
1
 62
7
  6
CONTINUOUS
 10
721.931852
 20
158.656204
 11
721.931852
 21
157.620928
  0
LINE
  8
1
 62
7
  6
CONTINUOUS
 10
720.482963
 20
158.138566
 11
721.448889
 21
158.397385
  0
LINE
  8
1
 62
7
  6
CONTINUOUS
 10
720.482963
 20
158.138566
 11
721.448889
 21
157.879747
  0
LINE
  8
1
 62
7
  6
CONTINUOUS
 10
721.448889
 20
158.397385
 11
721.448889
 21
157.879747
  0
LINE
  8
1
 62
7
  6
CONTINUOUS
 10
850.000000
 20
158.138566
 11
848.068148
 21
157.620928
  0
LINE
  8
1
 62
7
  6
CONTINUOUS
 10
850.000000
 20
158.138566
 11
848.068148
 21
158.656204
  0
LINE
  8
1
 62
7
  6
CONTINUOUS
 10
848.068148
 20
157.620928
 11
848.068148
 21
158.656204
  0
LINE
  8
1
 62
7
  6
CONTINUOUS
 10
849.517037
 20
158.138566
 11
848.551111
 21
157.879747
  0
LINE
  8
1
 62
7
  6
CONTINUOUS
 10
849.517037
 20
158.138566
 11
848.551111
 21
158.397385
  0
LINE
  8
1
 62
7
  6
CONTINUOUS
 10
848.551111
 20
157.879747
 11
848.551111
 21
158.397385
  0
TEXT
  8
1
 62
7
  6
CONTINUOUS
 10
782.000000
 20
158.638566
 40
4.000000
 41
0.500000
  1
130
  7
KANJI
 50
0.000000
 51
30.000000
  0
ENDBLK
  0
BLOCK
  8
1
 62
7
  6
CONTINUOUS
  2
*D6
 70
    65
 10
0.0
 20
0.0
  0
LINE
  8
1
 62
7
  6
CONTINUOUS
 10
652.000000
 20
155.233003
 11
670.000000
 21
155.233003
  0
LINE
  8
1
 62
7
  6
CONTINUOUS
 10
652.000000
 20
157.233003
 11
652.000000
 21
147.000000
  0
LINE
  8
1
 62
7
  6
CONTINUOUS
 10
670.000000
 20
157.233003
 11
670.000000
 21
148.000000
  0
LINE
  8
1
 62
7
  6
CONTINUOUS
 10
652.000000
 20
155.233003
 11
653.931852
 21
155.750642
  0
LINE
  8
1
 62
7
  6
CONTINUOUS
 10
652.000000
 20
155.233003
 11
653.931852
 21
154.715365
  0
LINE
  8
1
 62
7
  6
CONTINUOUS
 10
653.931852
 20
155.750642
 11
653.931852
 21
154.715365
  0
LINE
  8
1
 62
7
  6
CONTINUOUS
 10
652.482963
 20
155.233003
 11
653.448889
 21
155.491823
  0
LINE
  8
1
 62
7
  6
CONTINUOUS
 10
652.482963
 20
155.233003
 11
653.448889
 21
154.974184
  0
LINE
  8
1
 62
7
  6
CONTINUOUS
 10
653.448889
 20
155.491823
 11
653.448889
 21
154.974184
  0
LINE
  8
1
 62
7
  6
CONTINUOUS
 10
670.000000
 20
155.233003
 11
668.068148
 21
154.715365
  0
LINE
  8
1
 62
7
  6
CONTINUOUS
 10
670.000000
 20
155.233003
 11
668.068148
 21
155.750642
  0
LINE
  8
1
 62
7
  6
CONTINUOUS
 10
668.068148
 20
154.715365
 11
668.068148
 21
155.750642
  0
LINE
  8
1
 62
7
  6
CONTINUOUS
 10
669.517037
 20
155.233003
 11
668.551111
 21
154.974184
  0
LINE
  8
1
 62
7
  6
CONTINUOUS
 10
669.517037
 20
155.233003
 11
668.551111
 21
155.491823
  0
LINE
  8
1
 62
7
  6
CONTINUOUS
 10
668.551111
 20
154.974184
 11
668.551111
 21
155.491823
  0
TEXT
  8
1
 62
7
  6
CONTINUOUS
 10
659.000000
 20
155.733003
 40
4.000000
 41
0.500000
  1
18
  7
KANJI
 50
0.000000
 51
30.000000
  0
ENDBLK
  0
BLOCK
  8
1
 62
7
  6
CONTINUOUS
  2
*D7
 70
    65
 10
0.0
 20
0.0
  0
LINE
  8
1
 62
7
  6
CONTINUOUS
 10
670.000000
 20
155.233003
 11
688.000000
 21
155.233003
  0
LINE
  8
1
 62
7
  6
CONTINUOUS
 10
688.000000
 20
157.233003
 11
688.000000
 21
145.000000
  0
LINE
  8
1
 62
7
  6
CONTINUOUS
 10
670.000000
 20
155.233003
 11
671.931852
 21
155.750642
  0
LINE
  8
1
 62
7
  6
CONTINUOUS
 10
670.000000
 20
155.233003
 11
671.931852
 21
154.715365
  0
LINE
  8
1
 62
7
  6
CONTINUOUS
 10
671.931852
 20
155.750642
 11
671.931852
 21
154.715365
  0
LINE
  8
1
 62
7
  6
CONTINUOUS
 10
670.482963
 20
155.233003
 11
671.448889
 21
155.491823
  0
LINE
  8
1
 62
7
  6
CONTINUOUS
 10
670.482963
 20
155.233003
 11
671.448889
 21
154.974184
  0
LINE
  8
1
 62
7
  6
CONTINUOUS
 10
671.448889
 20
155.491823
 11
671.448889
 21
154.974184
  0
LINE
  8
1
 62
7
  6
CONTINUOUS
 10
688.000000
 20
155.233003
 11
686.068148
 21
154.715365
  0
LINE
  8
1
 62
7
  6
CONTINUOUS
 10
688.000000
 20
155.233003
 11
686.068148
 21
155.750642
  0
LINE
  8
1
 62
7
  6
CONTINUOUS
 10
686.068148
 20
154.715365
 11
686.068148
 21
155.750642
  0
LINE
  8
1
 62
7
  6
CONTINUOUS
 10
687.517037
 20
155.233003
 11
686.551111
 21
154.974184
  0
LINE
  8
1
 62
7
  6
CONTINUOUS
 10
687.517037
 20
155.233003
 11
686.551111
 21
155.491823
  0
LINE
  8
1
 62
7
  6
CONTINUOUS
 10
686.551111
 20
154.974184
 11
686.551111
 21
155.491823
  0
TEXT
  8
1
 62
7
  6
CONTINUOUS
 10
677.000000
 20
155.733003
 40
4.000000
 41
0.500000
  1
18
  7
KANJI
 50
0.000000
 51
30.000000
  0
ENDBLK
  0
BLOCK
  8
1
 62
7
  6
CONTINUOUS
  2
*D8
 70
    65
 10
0.0
 20
0.0
  0
LINE
  8
1
 62
7
  6
CONTINUOUS
 10
706.675684
 20
100.000000
 11
706.675684
 21
146.000000
  0
LINE
  8
1
 62
7
  6
CONTINUOUS
 10
708.675684
 20
100.000000
 11
689.000000
 21
100.000000
  0
LINE
  8
1
 62
7
  6
CONTINUOUS
 10
708.675684
 20
146.000000
 11
689.000000
 21
146.000000
  0
LINE
  8
1
 62
7
  6
CONTINUOUS
 10
706.675684
 20
100.000000
 11
706.158046
 21
101.931852
  0
LINE
  8
1
 62
7
  6
CONTINUOUS
 10
706.675684
 20
100.000000
 11
707.193322
 21
101.931852
  0
LINE
  8
1
 62
7
  6
CONTINUOUS
 10
706.158046
 20
101.931852
 11
707.193322
 21
101.931852
  0
LINE
  8
1
 62
7
  6
CONTINUOUS
 10
706.675684
 20
100.482963
 11
706.416865
 21
101.448889
  0
LINE
  8
1
 62
7
  6
CONTINUOUS
 10
706.675684
 20
100.482963
 11
706.934503
 21
101.448889
  0
LINE
  8
1
 62
7
  6
CONTINUOUS
 10
706.416865
 20
101.448889
 11
706.934503
 21
101.448889
  0
LINE
  8
1
 62
7
  6
CONTINUOUS
 10
706.675684
 20
146.000000
 11
707.193322
 21
144.068148
  0
LINE
  8
1
 62
7
  6
CONTINUOUS
 10
706.675684
 20
146.000000
 11
706.158046
 21
144.068148
  0
LINE
  8
1
 62
7
  6
CONTINUOUS
 10
707.193322
 20
144.068148
 11
706.158046
 21
144.068148
  0
LINE
  8
1
 62
7
  6
CONTINUOUS
 10
706.675684
 20
145.517037
 11
706.934503
 21
144.551111
  0
LINE
  8
1
 62
7
  6
CONTINUOUS
 10
706.675684
 20
145.517037
 11
706.416865
 21
144.551111
  0
LINE
  8
1
 62
7
  6
CONTINUOUS
 10
706.934503
 20
144.551111
 11
706.416865
 21
144.551111
  0
TEXT
  8
1
 62
7
  6
CONTINUOUS
 10
706.175684
 20
121.000000
 40
4.000000
 41
0.500000
  1
46
  7
KANJI
 50
90.000000
 51
30.000000
  0
ENDBLK
  0
BLOCK
  8
1
 62
7
  6
CONTINUOUS
  2
*D9
 70
    65
 10
0.0
 20
0.0
  0
LINE
  8
1
 62
7
  6
CONTINUOUS
 10
699.375866
 20
125.046752
 11
699.375866
 21
100.046752
  0
LINE
  8
1
 62
7
  6
CONTINUOUS
 10
701.375866
 20
125.046752
 11
696.162894
 21
125.046752
  0
LINE
  8
1
 62
7
  6
CONTINUOUS
 10
701.375866
 20
100.046752
 11
696.162894
 21
100.046752
  0
LINE
  8
1
 62
7
  6
CONTINUOUS
 10
699.375866
 20
125.046752
 11
699.893504
 21
123.114900
  0
LINE
  8
1
 62
7
  6
CONTINUOUS
 10
699.375866
 20
125.046752
 11
698.858228
 21
123.114900
  0
LINE
  8
1
 62
7
  6
CONTINUOUS
 10
699.893504
 20
123.114900
 11
698.858228
 21
123.114900
  0
LINE
  8
1
 62
7
  6
CONTINUOUS
 10
699.375866
 20
124.563789
 11
699.634685
 21
123.597863
  0
LINE
  8
1
 62
7
  6
CONTINUOUS
 10
699.375866
 20
124.563789
 11
699.117047
 21
123.597863
  0
LINE
  8
1
 62
7
  6
CONTINUOUS
 10
699.634685
 20
123.597863
 11
699.117047
 21
123.597863
  0
LINE
  8
1
 62
7
  6
CONTINUOUS
 10
699.375866
 20
100.046752
 11
698.858228
 21
101.978604
  0
LINE
  8
1
 62
7
  6
CONTINUOUS
 10
699.375866
 20
100.046752
 11
699.893504
 21
101.978604
  0
LINE
  8
1
 62
7
  6
CONTINUOUS
 10
698.858228
 20
101.978604
 11
699.893504
 21
101.978604
  0
LINE
  8
1
 62
7
  6
CONTINUOUS
 10
699.375866
 20
100.529715
 11
699.117047
 21
101.495641
  0
LINE
  8
1
 62
7
  6
CONTINUOUS
 10
699.375866
 20
100.529715
 11
699.634685
 21
101.495641
  0
LINE
  8
1
 62
7
  6
CONTINUOUS
 10
699.117047
 20
101.495641
 11
699.634685
 21
101.495641
  0
TEXT
  8
1
 62
7
  6
CONTINUOUS
 10
698.875866
 20
110.546752
 40
4.000000
 41
0.500000
  1
25
  7
KANJI
 50
90.000000
 51
30.000000
  0
ENDBLK
  0
BLOCK
  8
1
 62
7
  6
CONTINUOUS
  2
*D10
 70
    65
 10
0.0
 20
0.0
  0
LINE
  8
1
 62
7
  6
CONTINUOUS
 10
784.000000
 20
92.957923
 11
824.000000
 21
92.957923
  0
LINE
  8
1
 62
7
  6
CONTINUOUS
 10
784.000000
 20
90.957923
 11
784.000000
 21
99.069882
  0
LINE
  8
1
 62
7
  6
CONTINUOUS
 10
824.000000
 20
90.957923
 11
824.000000
 21
99.069882
  0
LINE
  8
1
 62
7
  6
CONTINUOUS
 10
784.000000
 20
92.957923
 11
785.931852
 21
93.475561
  0
LINE
  8
1
 62
7
  6
CONTINUOUS
 10
784.000000
 20
92.957923
 11
785.931852
 21
92.440285
  0
LINE
  8
1
 62
7
  6
CONTINUOUS
 10
785.931852
 20
93.475561
 11
785.931852
 21
92.440285
  0
LINE
  8
1
 62
7
  6
CONTINUOUS
 10
784.482963
 20
92.957923
 11
785.448889
 21
93.216742
  0
LINE
  8
1
 62
7
  6
CONTINUOUS
 10
784.482963
 20
92.957923
 11
785.448889
 21
92.699104
  0
LINE
  8
1
 62
7
  6
CONTINUOUS
 10
785.448889
 20
93.216742
 11
785.448889
 21
92.699104
  0
LINE
  8
1
 62
7
  6
CONTINUOUS
 10
824.000000
 20
92.957923
 11
822.068148
 21
92.440285
  0
LINE
  8
1
 62
7
  6
CONTINUOUS
 10
824.000000
 20
92.957923
 11
822.068148
 21
93.475561
  0
LINE
  8
1
 62
7
  6
CONTINUOUS
 10
822.068148
 20
92.440285
 11
822.068148
 21
93.475561
  0
LINE
  8
1
 62
7
  6
CONTINUOUS
 10
823.517037
 20
92.957923
 11
822.551111
 21
92.699104
  0
LINE
  8
1
 62
7
  6
CONTINUOUS
 10
823.517037
 20
92.957923
 11
822.551111
 21
93.216742
  0
LINE
  8
1
 62
7
  6
CONTINUOUS
 10
822.551111
 20
92.699104
 11
822.551111
 21
93.216742
  0
TEXT
  8
1
 62
7
  6
CONTINUOUS
 10
787.086458
 20
93.457923
 40
4.000000
 41
0.500000
  1
40
  7
KANJI
 50
0.000000
 51
30.000000
  0
ENDBLK
  0
BLOCK
  8
1
 62
7
  6
CONTINUOUS
  2
*D11
 70
    65
 10
0.0
 20
0.0
  0
LINE
  8
1
 62
7
  6
CONTINUOUS
 10
724.000000
 20
92.957923
 11
744.000000
 21
92.957923
  0
LINE
  8
1
 62
7
  6
CONTINUOUS
 10
724.000000
 20
90.957923
 11
724.000000
 21
99.000000
  0
LINE
  8
1
 62
7
  6
CONTINUOUS
 10
744.000000
 20
90.957923
 11
744.000000
 21
99.000000
  0
LINE
  8
1
 62
7
  6
CONTINUOUS
 10
724.000000
 20
92.957923
 11
725.931852
 21
93.475561
  0
LINE
  8
1
 62
7
  6
CONTINUOUS
 10
724.000000
 20
92.957923
 11
725.931852
 21
92.440285
  0
LINE
  8
1
 62
7
  6
CONTINUOUS
 10
725.931852
 20
93.475561
 11
725.931852
 21
92.440285
  0
LINE
  8
1
 62
7
  6
CONTINUOUS
 10
724.482963
 20
92.957923
 11
725.448889
 21
93.216742
  0
LINE
  8
1
 62
7
  6
CONTINUOUS
 10
724.482963
 20
92.957923
 11
725.448889
 21
92.699104
  0
LINE
  8
1
 62
7
  6
CONTINUOUS
 10
725.448889
 20
93.216742
 11
725.448889
 21
92.699104
  0
LINE
  8
1
 62
7
  6
CONTINUOUS
 10
744.000000
 20
92.957923
 11
742.068148
 21
92.440285
  0
LINE
  8
1
 62
7
  6
CONTINUOUS
 10
744.000000
 20
92.957923
 11
742.068148
 21
93.475561
  0
LINE
  8
1
 62
7
  6
CONTINUOUS
 10
742.068148
 20
92.440285
 11
742.068148
 21
93.475561
  0
LINE
  8
1
 62
7
  6
CONTINUOUS
 10
743.517037
 20
92.957923
 11
742.551111
 21
92.699104
  0
LINE
  8
1
 62
7
  6
CONTINUOUS
 10
743.517037
 20
92.957923
 11
742.551111
 21
93.216742
  0
LINE
  8
1
 62
7
  6
CONTINUOUS
 10
742.551111
 20
92.699104
 11
742.551111
 21
93.216742
  0
TEXT
  8
1
 62
7
  6
CONTINUOUS
 10
732.000000
 20
93.457923
 40
4.000000
 41
0.500000
  1
20
  7
KANJI
 50
0.000000
 51
30.000000
  0
ENDBLK
  0
BLOCK
  8
1
 62
7
  6
CONTINUOUS
  2
*D12
 70
    65
 10
0.0
 20
0.0
  0
LINE
  8
1
 62
7
  6
CONTINUOUS
 10
744.000000
 20
92.957923
 11
764.000000
 21
92.957923
  0
LINE
  8
1
 62
7
  6
CONTINUOUS
 10
764.000000
 20
90.957923
 11
764.000000
 21
99.069882
  0
LINE
  8
1
 62
7
  6
CONTINUOUS
 10
744.000000
 20
92.957923
 11
745.931852
 21
93.475561
  0
LINE
  8
1
 62
7
  6
CONTINUOUS
 10
744.000000
 20
92.957923
 11
745.931852
 21
92.440285
  0
LINE
  8
1
 62
7
  6
CONTINUOUS
 10
745.931852
 20
93.475561
 11
745.931852
 21
92.440285
  0
LINE
  8
1
 62
7
  6
CONTINUOUS
 10
744.482963
 20
92.957923
 11
745.448889
 21
93.216742
  0
LINE
  8
1
 62
7
  6
CONTINUOUS
 10
744.482963
 20
92.957923
 11
745.448889
 21
92.699104
  0
LINE
  8
1
 62
7
  6
CONTINUOUS
 10
745.448889
 20
93.216742
 11
745.448889
 21
92.699104
  0
LINE
  8
1
 62
7
  6
CONTINUOUS
 10
764.000000
 20
92.957923
 11
762.068148
 21
92.440285
  0
LINE
  8
1
 62
7
  6
CONTINUOUS
 10
764.000000
 20
92.957923
 11
762.068148
 21
93.475561
  0
LINE
  8
1
 62
7
  6
CONTINUOUS
 10
762.068148
 20
92.440285
 11
762.068148
 21
93.475561
  0
LINE
  8
1
 62
7
  6
CONTINUOUS
 10
763.517037
 20
92.957923
 11
762.551111
 21
92.699104
  0
LINE
  8
1
 62
7
  6
CONTINUOUS
 10
763.517037
 20
92.957923
 11
762.551111
 21
93.216742
  0
LINE
  8
1
 62
7
  6
CONTINUOUS
 10
762.551111
 20
92.699104
 11
762.551111
 21
93.216742
  0
TEXT
  8
1
 62
7
  6
CONTINUOUS
 10
752.000000
 20
93.457923
 40
4.000000
 41
0.500000
  1
20
  7
KANJI
 50
0.000000
 51
30.000000
  0
ENDBLK
  0
BLOCK
  8
1
 62
7
  6
CONTINUOUS
  2
*D13
 70
    65
 10
0.0
 20
0.0
  0
LINE
  8
1
 62
7
  6
CONTINUOUS
 10
764.000000
 20
92.957923
 11
784.000000
 21
92.957923
  0
LINE
  8
1
 62
7
  6
CONTINUOUS
 10
784.000000
 20
90.957923
 11
784.000000
 21
99.069882
  0
LINE
  8
1
 62
7
  6
CONTINUOUS
 10
764.000000
 20
92.957923
 11
765.931852
 21
93.475561
  0
LINE
  8
1
 62
7
  6
CONTINUOUS
 10
764.000000
 20
92.957923
 11
765.931852
 21
92.440285
  0
LINE
  8
1
 62
7
  6
CONTINUOUS
 10
765.931852
 20
93.475561
 11
765.931852
 21
92.440285
  0
LINE
  8
1
 62
7
  6
CONTINUOUS
 10
764.482963
 20
92.957923
 11
765.448889
 21
93.216742
  0
LINE
  8
1
 62
7
  6
CONTINUOUS
 10
764.482963
 20
92.957923
 11
765.448889
 21
92.699104
  0
LINE
  8
1
 62
7
  6
CONTINUOUS
 10
765.448889
 20
93.216742
 11
765.448889
 21
92.699104
  0
LINE
  8
1
 62
7
  6
CONTINUOUS
 10
784.000000
 20
92.957923
 11
782.068148
 21
92.440285
  0
LINE
  8
1
 62
7
  6
CONTINUOUS
 10
784.000000
 20
92.957923
 11
782.068148
 21
93.475561
  0
LINE
  8
1
 62
7
  6
CONTINUOUS
 10
782.068148
 20
92.440285
 11
782.068148
 21
93.475561
  0
LINE
  8
1
 62
7
  6
CONTINUOUS
 10
783.517037
 20
92.957923
 11
782.551111
 21
92.699104
  0
LINE
  8
1
 62
7
  6
CONTINUOUS
 10
783.517037
 20
92.957923
 11
782.551111
 21
93.216742
  0
LINE
  8
1
 62
7
  6
CONTINUOUS
 10
782.551111
 20
92.699104
 11
782.551111
 21
93.216742
  0
TEXT
  8
1
 62
7
  6
CONTINUOUS
 10
772.000000
 20
93.457923
 40
4.000000
 41
0.500000
  1
20
  7
KANJI
 50
0.000000
 51
30.000000
  0
ENDBLK
  0
BLOCK
  8
1
 62
7
  6
CONTINUOUS
  2
*D14
 70
    65
 10
0.0
 20
0.0
  0
LINE
  8
1
 62
7
  6
CONTINUOUS
 10
715.601747
 20
92.957923
 11
732.000000
 21
92.957923
  0
LINE
  8
1
 62
7
  6
CONTINUOUS
 10
720.000000
 20
92.957923
 11
718.068148
 21
92.440285
  0
LINE
  8
1
 62
7
  6
CONTINUOUS
 10
720.000000
 20
92.957923
 11
718.068148
 21
93.475561
  0
LINE
  8
1
 62
7
  6
CONTINUOUS
 10
718.068148
 20
92.440285
 11
718.068148
 21
93.475561
  0
LINE
  8
1
 62
7
  6
CONTINUOUS
 10
719.517037
 20
92.957923
 11
718.551111
 21
92.699104
  0
LINE
  8
1
 62
7
  6
CONTINUOUS
 10
719.517037
 20
92.957923
 11
718.551111
 21
93.216742
  0
LINE
  8
1
 62
7
  6
CONTINUOUS
 10
718.551111
 20
92.699104
 11
718.551111
 21
93.216742
  0
LINE
  8
1
 62
7
  6
CONTINUOUS
 10
724.000000
 20
92.957923
 11
725.931852
 21
93.475561
  0
LINE
  8
1
 62
7
  6
CONTINUOUS
 10
724.000000
 20
92.957923
 11
725.931852
 21
92.440285
  0
LINE
  8
1
 62
7
  6
CONTINUOUS
 10
725.931852
 20
93.475561
 11
725.931852
 21
92.440285
  0
LINE
  8
1
 62
7
  6
CONTINUOUS
 10
724.482963
 20
92.957923
 11
725.448889
 21
93.216742
  0
LINE
  8
1
 62
7
  6
CONTINUOUS
 10
724.482963
 20
92.957923
 11
725.448889
 21
92.699104
  0
LINE
  8
1
 62
7
  6
CONTINUOUS
 10
725.448889
 20
93.216742
 11
725.448889
 21
92.699104
  0
TEXT
  8
1
 62
7
  6
CONTINUOUS
 10
716.601747
 20
93.457923
 40
4.000000
 41
0.500000
  1
4
  7
KANJI
 50
0.000000
 51
30.000000
  0
ENDBLK
  0
BLOCK
  8
1
 62
7
  6
CONTINUOUS
  2
*D15
 70
    65
 10
0.0
 20
0.0
  0
LINE
  8
1
 62
7
  6
CONTINUOUS
 10
720.000000
 20
63.140994
 11
805.000000
 21
63.140994
  0
LINE
  8
1
 62
7
  6
CONTINUOUS
 10
720.000000
 20
63.140994
 11
721.931852
 21
63.658632
  0
LINE
  8
1
 62
7
  6
CONTINUOUS
 10
720.000000
 20
63.140994
 11
721.931852
 21
62.623356
  0
LINE
  8
1
 62
7
  6
CONTINUOUS
 10
721.931852
 20
63.658632
 11
721.931852
 21
62.623356
  0
LINE
  8
1
 62
7
  6
CONTINUOUS
 10
720.482963
 20
63.140994
 11
721.448889
 21
63.399813
  0
LINE
  8
1
 62
7
  6
CONTINUOUS
 10
720.482963
 20
63.140994
 11
721.448889
 21
62.882175
  0
LINE
  8
1
 62
7
  6
CONTINUOUS
 10
721.448889
 20
63.399813
 11
721.448889
 21
62.882175
  0
LINE
  8
1
 62
7
  6
CONTINUOUS
 10
805.000000
 20
63.140994
 11
803.068148
 21
62.623356
  0
LINE
  8
1
 62
7
  6
CONTINUOUS
 10
805.000000
 20
63.140994
 11
803.068148
 21
63.658632
  0
LINE
  8
1
 62
7
  6
CONTINUOUS
 10
803.068148
 20
62.623356
 11
803.068148
 21
63.658632
  0
LINE
  8
1
 62
7
  6
CONTINUOUS
 10
804.517037
 20
63.140994
 11
803.551111
 21
62.882175
  0
LINE
  8
1
 62
7
  6
CONTINUOUS
 10
804.517037
 20
63.140994
 11
803.551111
 21
63.399813
  0
LINE
  8
1
 62
7
  6
CONTINUOUS
 10
803.551111
 20
62.882175
 11
803.551111
 21
63.399813
  0
TEXT
  8
1
 62
7
  6
CONTINUOUS
 10
760.500000
 20
63.640994
 40
4.000000
 41
0.500000
  1
85
  7
KANJI
 50
0.000000
 51
30.000000
  0
ENDBLK
  0
BLOCK
  8
1
 62
7
  6
CONTINUOUS
  2
*D16
 70
    65
 10
0.0
 20
0.0
  0
LINE
  8
1
 62
7
  6
CONTINUOUS
 10
832.142717
 20
100.000000
 11
832.142717
 21
55.555335
  0
LINE
  8
1
 62
7
  6
CONTINUOUS
 10
832.142717
 20
100.000000
 11
832.660355
 21
98.068148
  0
LINE
  8
1
 62
7
  6
CONTINUOUS
 10
832.142717
 20
100.000000
 11
831.625078
 21
98.068148
  0
LINE
  8
1
 62
7
  6
CONTINUOUS
 10
832.660355
 20
98.068148
 11
831.625078
 21
98.068148
  0
LINE
  8
1
 62
7
  6
CONTINUOUS
 10
832.142717
 20
99.517037
 11
832.401536
 21
98.551111
  0
LINE
  8
1
 62
7
  6
CONTINUOUS
 10
832.142717
 20
99.517037
 11
831.883897
 21
98.551111
  0
LINE
  8
1
 62
7
  6
CONTINUOUS
 10
832.401536
 20
98.551111
 11
831.883897
 21
98.551111
  0
LINE
  8
1
 62
7
  6
CONTINUOUS
 10
832.142717
 20
55.555335
 11
831.625078
 21
57.487187
  0
LINE
  8
1
 62
7
  6
CONTINUOUS
 10
832.142717
 20
55.555335
 11
832.660355
 21
57.487187
  0
LINE
  8
1
 62
7
  6
CONTINUOUS
 10
831.625078
 20
57.487187
 11
832.660355
 21
57.487187
  0
LINE
  8
1
 62
7
  6
CONTINUOUS
 10
832.142717
 20
56.038298
 11
831.883897
 21
57.004224
  0
LINE
  8
1
 62
7
  6
CONTINUOUS
 10
832.142717
 20
56.038298
 11
832.401536
 21
57.004224
  0
LINE
  8
1
 62
7
  6
CONTINUOUS
 10
831.883897
 20
57.004224
 11
832.401536
 21
57.004224
  0
TEXT
  8
1
 62
7
  6
CONTINUOUS
 10
831.642717
 20
74.777668
 40
4.000000
 41
0.500000
  1
46
  7
KANJI
 50
90.000000
 51
30.000000
  0
ENDBLK
  0
BLOCK
  8
1
 62
7
  6
CONTINUOUS
  2
*D17
 70
    65
 10
0.0
 20
0.0
  0
LINE
  8
1
 62
7
  6
CONTINUOUS
 10
818.000000
 20
87.266609
 11
788.086458
 21
87.266609
  0
LINE
  8
1
 62
7
  6
CONTINUOUS
 10
810.000000
 20
87.266609
 11
811.931852
 21
87.784247
  0
LINE
  8
1
 62
7
  6
CONTINUOUS
 10
810.000000
 20
87.266609
 11
811.931852
 21
86.748971
  0
LINE
  8
1
 62
7
  6
CONTINUOUS
 10
811.931852
 20
87.784247
 11
811.931852
 21
86.748971
  0
LINE
  8
1
 62
7
  6
CONTINUOUS
 10
810.482963
 20
87.266609
 11
811.448889
 21
87.525428
  0
LINE
  8
1
 62
7
  6
CONTINUOUS
 10
810.482963
 20
87.266609
 11
811.448889
 21
87.007790
  0
LINE
  8
1
 62
7
  6
CONTINUOUS
 10
811.448889
 20
87.525428
 11
811.448889
 21
87.007790
  0
LINE
  8
1
 62
7
  6
CONTINUOUS
 10
800.000000
 20
87.266609
 11
798.068148
 21
86.748971
  0
LINE
  8
1
 62
7
  6
CONTINUOUS
 10
800.000000
 20
87.266609
 11
798.068148
 21
87.784247
  0
LINE
  8
1
 62
7
  6
CONTINUOUS
 10
798.068148
 20
86.748971
 11
798.068148
 21
87.784247
  0
LINE
  8
1
 62
7
  6
CONTINUOUS
 10
799.517037
 20
87.266609
 11
798.551111
 21
87.007790
  0
LINE
  8
1
 62
7
  6
CONTINUOUS
 10
799.517037
 20
87.266609
 11
798.551111
 21
87.525428
  0
LINE
  8
1
 62
7
  6
CONTINUOUS
 10
798.551111
 20
87.007790
 11
798.551111
 21
87.525428
  0
TEXT
  8
1
 62
7
  6
CONTINUOUS
 10
789.086458
 20
87.766609
 40
4.000000
 41
0.666667
  1
φ10
  7
KANJI
 50
0.000000
 51
30.000000
  0
ENDBLK
  0
BLOCK
  8
1
 62
7
  6
CONTINUOUS
  2
*D18
 70
    65
 10
0.0
 20
0.0
  0
LINE
  8
1
 62
7
  6
CONTINUOUS
 10
815.418876
 20
46.555335
 11
794.000000
 21
46.555335
  0
LINE
  8
1
 62
7
  6
CONTINUOUS
 10
808.000000
 20
46.555335
 11
809.931852
 21
47.072973
  0
LINE
  8
1
 62
7
  6
CONTINUOUS
 10
808.000000
 20
46.555335
 11
809.931852
 21
46.037697
  0
LINE
  8
1
 62
7
  6
CONTINUOUS
 10
809.931852
 20
47.072973
 11
809.931852
 21
46.037697
  0
LINE
  8
1
 62
7
  6
CONTINUOUS
 10
808.482963
 20
46.555335
 11
809.448889
 21
46.814154
  0
LINE
  8
1
 62
7
  6
CONTINUOUS
 10
808.482963
 20
46.555335
 11
809.448889
 21
46.296516
  0
LINE
  8
1
 62
7
  6
CONTINUOUS
 10
809.448889
 20
46.814154
 11
809.448889
 21
46.296516
  0
LINE
  8
1
 62
7
  6
CONTINUOUS
 10
802.000000
 20
46.555335
 11
800.068148
 21
46.037697
  0
LINE
  8
1
 62
7
  6
CONTINUOUS
 10
802.000000
 20
46.555335
 11
800.068148
 21
47.072973
  0
LINE
  8
1
 62
7
  6
CONTINUOUS
 10
800.068148
 20
46.037697
 11
800.068148
 21
47.072973
  0
LINE
  8
1
 62
7
  6
CONTINUOUS
 10
801.517037
 20
46.555335
 11
800.551111
 21
46.296516
  0
LINE
  8
1
 62
7
  6
CONTINUOUS
 10
801.517037
 20
46.555335
 11
800.551111
 21
46.814154
  0
LINE
  8
1
 62
7
  6
CONTINUOUS
 10
800.551111
 20
46.296516
 11
800.551111
 21
46.814154
  0
TEXT
  8
1
 62
7
  6
CONTINUOUS
 10
808.418876
 20
47.055335
 40
4.000000
 41
0.750000
  1
φ6
  7
KANJI
 50
0.000000
 51
30.000000
  0
ENDBLK
  0
BLOCK
  8
1
 62
7
  6
CONTINUOUS
  2
*D19
 70
    65
 10
0.0
 20
0.0
  0
LINE
  8
1
 62
7
  6
CONTINUOUS
 10
652.024114
 20
92.300197
 11
688.024114
 21
92.300197
  0
LINE
  8
1
 62
7
  6
CONTINUOUS
 10
652.024114
 20
92.300197
 11
653.955966
 21
92.817835
  0
LINE
  8
1
 62
7
  6
CONTINUOUS
 10
652.024114
 20
92.300197
 11
653.955966
 21
91.782559
  0
LINE
  8
1
 62
7
  6
CONTINUOUS
 10
653.955966
 20
92.817835
 11
653.955966
 21
91.782559
  0
LINE
  8
1
 62
7
  6
CONTINUOUS
 10
652.507077
 20
92.300197
 11
653.473003
 21
92.559016
  0
LINE
  8
1
 62
7
  6
CONTINUOUS
 10
652.507077
 20
92.300197
 11
653.473003
 21
92.041378
  0
LINE
  8
1
 62
7
  6
CONTINUOUS
 10
653.473003
 20
92.559016
 11
653.473003
 21
92.041378
  0
LINE
  8
1
 62
7
  6
CONTINUOUS
 10
688.024114
 20
92.300197
 11
686.092263
 21
91.782559
  0
LINE
  8
1
 62
7
  6
CONTINUOUS
 10
688.024114
 20
92.300197
 11
686.092263
 21
92.817835
  0
LINE
  8
1
 62
7
  6
CONTINUOUS
 10
686.092263
 20
91.782559
 11
686.092263
 21
92.817835
  0
LINE
  8
1
 62
7
  6
CONTINUOUS
 10
687.541151
 20
92.300197
 11
686.575225
 21
92.041378
  0
LINE
  8
1
 62
7
  6
CONTINUOUS
 10
687.541151
 20
92.300197
 11
686.575225
 21
92.559016
  0
LINE
  8
1
 62
7
  6
CONTINUOUS
 10
686.575225
 20
92.041378
 11
686.575225
 21
92.559016
  0
TEXT
  8
1
 62
7
  6
CONTINUOUS
 10
668.024114
 20
92.800197
 40
4.000000
 41
0.500000
  1
36
  7
KANJI
 50
0.000000
 51
30.000000
  0
ENDBLK
  0
BLOCK
  8
1
 62
7
  6
CONTINUOUS
  2
*D20
 70
    65
 10
0.0
 20
0.0
  0
LINE
  8
1
 62
7
  6
CONTINUOUS
 10
699.375866
 20
150.102362
 11
699.375866
 21
135.000000
  0
LINE
  8
1
 62
7
  6
CONTINUOUS
 10
701.375866
 20
146.000000
 11
696.162894
 21
146.000000
  0
LINE
  8
1
 62
7
  6
CONTINUOUS
 10
701.375866
 20
143.000000
 11
696.162894
 21
143.000000
  0
LINE
  8
1
 62
7
  6
CONTINUOUS
 10
699.375866
 20
146.000000
 11
698.858228
 21
147.931852
  0
LINE
  8
1
 62
7
  6
CONTINUOUS
 10
699.375866
 20
146.000000
 11
699.893504
 21
147.931852
  0
LINE
  8
1
 62
7
  6
CONTINUOUS
 10
698.858228
 20
147.931852
 11
699.893504
 21
147.931852
  0
LINE
  8
1
 62
7
  6
CONTINUOUS
 10
699.375866
 20
146.482963
 11
699.117047
 21
147.448889
  0
LINE
  8
1
 62
7
  6
CONTINUOUS
 10
699.375866
 20
146.482963
 11
699.634685
 21
147.448889
  0
LINE
  8
1
 62
7
  6
CONTINUOUS
 10
699.117047
 20
147.448889
 11
699.634685
 21
147.448889
  0
LINE
  8
1
 62
7
  6
CONTINUOUS
 10
699.375866
 20
143.000000
 11
699.893504
 21
141.068148
  0
LINE
  8
1
 62
7
  6
CONTINUOUS
 10
699.375866
 20
143.000000
 11
698.858228
 21
141.068148
  0
LINE
  8
1
 62
7
  6
CONTINUOUS
 10
699.893504
 20
141.068148
 11
698.858228
 21
141.068148
  0
LINE
  8
1
 62
7
  6
CONTINUOUS
 10
699.375866
 20
142.517037
 11
699.634685
 21
141.551111
  0
LINE
  8
1
 62
7
  6
CONTINUOUS
 10
699.375866
 20
142.517037
 11
699.117047
 21
141.551111
  0
LINE
  8
1
 62
7
  6
CONTINUOUS
 10
699.634685
 20
141.551111
 11
699.117047
 21
141.551111
  0
TEXT
  8
1
 62
7
  6
CONTINUOUS
 10
698.875866
 20
147.102362
 40
4.000000
 41
0.500000
  1
3
  7
KANJI
 50
90.000000
 51
30.000000
  0
ENDBLK
  0
BLOCK
  8
1
 62
7
  6
CONTINUOUS
  2
*D21
 70
    65
 10
0.0
 20
0.0
  0
LINE
  8
1
 62
7
  6
CONTINUOUS
 10
832.142717
 20
100.000000
 11
832.142717
 21
107.000000
  0
LINE
  8
1
 62
7
  6
CONTINUOUS
 10
834.142717
 20
100.000000
 11
829.005096
 21
100.000000
  0
LINE
  8
1
 62
7
  6
CONTINUOUS
 10
834.142717
 20
107.000000
 11
829.910572
 21
107.000000
  0
LINE
  8
1
 62
7
  6
CONTINUOUS
 10
832.142717
 20
100.000000
 11
831.625078
 21
101.931852
  0
LINE
  8
1
 62
7
  6
CONTINUOUS
 10
832.142717
 20
100.000000
 11
832.660355
 21
101.931852
  0
LINE
  8
1
 62
7
  6
CONTINUOUS
 10
831.625078
 20
101.931852
 11
832.660355
 21
101.931852
  0
LINE
  8
1
 62
7
  6
CONTINUOUS
 10
832.142717
 20
100.482963
 11
831.883897
 21
101.448889
  0
LINE
  8
1
 62
7
  6
CONTINUOUS
 10
832.142717
 20
100.482963
 11
832.401536
 21
101.448889
  0
LINE
  8
1
 62
7
  6
CONTINUOUS
 10
831.883897
 20
101.448889
 11
832.401536
 21
101.448889
  0
LINE
  8
1
 62
7
  6
CONTINUOUS
 10
832.142717
 20
107.000000
 11
832.660355
 21
105.068148
  0
LINE
  8
1
 62
7
  6
CONTINUOUS
 10
832.142717
 20
107.000000
 11
831.625078
 21
105.068148
  0
LINE
  8
1
 62
7
  6
CONTINUOUS
 10
832.660355
 20
105.068148
 11
831.625078
 21
105.068148
  0
LINE
  8
1
 62
7
  6
CONTINUOUS
 10
832.142717
 20
106.517037
 11
832.401536
 21
105.551111
  0
LINE
  8
1
 62
7
  6
CONTINUOUS
 10
832.142717
 20
106.517037
 11
831.883897
 21
105.551111
  0
LINE
  8
1
 62
7
  6
CONTINUOUS
 10
832.401536
 20
105.551111
 11
831.883897
 21
105.551111
  0
TEXT
  8
1
 62
7
  6
CONTINUOUS
 10
831.642717
 20
102.500000
 40
4.000000
 41
0.500000
  1
7
  7
KANJI
 50
90.000000
 51
30.000000
  0
ENDBLK
  0
BLOCK
  8
2
 62
134
  6
CONTINUOUS
  2
*D22
 70
    65
 10
0.0
 20
0.0
  0
LINE
  8
2
 62
134
  6
CONTINUOUS
 10
195.418876
 20
79.000000
 11
174.000000
 21
79.000000
  0
LINE
  8
2
 62
134
  6
CONTINUOUS
 10
188.000000
 20
79.000000
 11
189.931852
 21
79.517638
  0
LINE
  8
2
 62
134
  6
CONTINUOUS
 10
188.000000
 20
79.000000
 11
189.931852
 21
78.482362
  0
LINE
  8
2
 62
134
  6
CONTINUOUS
 10
189.931852
 20
79.517638
 11
189.931852
 21
78.482362
  0
LINE
  8
2
 62
134
  6
CONTINUOUS
 10
188.482963
 20
79.000000
 11
189.448889
 21
79.258819
  0
LINE
  8
2
 62
134
  6
CONTINUOUS
 10
188.482963
 20
79.000000
 11
189.448889
 21
78.741181
  0
LINE
  8
2
 62
134
  6
CONTINUOUS
 10
189.448889
 20
79.258819
 11
189.448889
 21
78.741181
  0
LINE
  8
2
 62
134
  6
CONTINUOUS
 10
182.000000
 20
79.000000
 11
180.068148
 21
78.482362
  0
LINE
  8
2
 62
134
  6
CONTINUOUS
 10
182.000000
 20
79.000000
 11
180.068148
 21
79.517638
  0
LINE
  8
2
 62
134
  6
CONTINUOUS
 10
180.068148
 20
78.482362
 11
180.068148
 21
79.517638
  0
LINE
  8
2
 62
134
  6
CONTINUOUS
 10
181.517037
 20
79.000000
 11
180.551111
 21
78.741181
  0
LINE
  8
2
 62
134
  6
CONTINUOUS
 10
181.517037
 20
79.000000
 11
180.551111
 21
79.258819
  0
LINE
  8
2
 62
134
  6
CONTINUOUS
 10
180.551111
 20
78.741181
 11
180.551111
 21
79.258819
  0
TEXT
  8
2
 62
134
  6
CONTINUOUS
 10
188.418876
 20
79.500000
 40
4.000000
 41
0.750000
  1
φ6
  7
KANJI
 50
0.000000
 51
30.000000
  0
ENDBLK
  0
BLOCK
  8
2
 62
134
  6
CONTINUOUS
  2
*D23
 70
    65
 10
0.0
 20
0.0
  0
LINE
  8
2
 62
134
  6
CONTINUOUS
 10
199.577356
 20
88.000000
 11
199.577356
 21
110.000000
  0
LINE
  8
2
 62
134
  6
CONTINUOUS
 10
201.577356
 20
88.000000
 11
192.000000
 21
88.000000
  0
LINE
  8
2
 62
134
  6
CONTINUOUS
 10
201.577356
 20
110.000000
 11
196.582422
 21
110.000000
  0
LINE
  8
2
 62
134
  6
CONTINUOUS
 10
199.577356
 20
88.000000
 11
199.059718
 21
89.931852
  0
LINE
  8
2
 62
134
  6
CONTINUOUS
 10
199.577356
 20
88.000000
 11
200.094994
 21
89.931852
  0
LINE
  8
2
 62
134
  6
CONTINUOUS
 10
199.059718
 20
89.931852
 11
200.094994
 21
89.931852
  0
LINE
  8
2
 62
134
  6
CONTINUOUS
 10
199.577356
 20
88.482963
 11
199.318537
 21
89.448889
  0
LINE
  8
2
 62
134
  6
CONTINUOUS
 10
199.577356
 20
88.482963
 11
199.836175
 21
89.448889
  0
LINE
  8
2
 62
134
  6
CONTINUOUS
 10
199.318537
 20
89.448889
 11
199.836175
 21
89.448889
  0
LINE
  8
2
 62
134
  6
CONTINUOUS
 10
199.577356
 20
110.000000
 11
200.094994
 21
108.068148
  0
LINE
  8
2
 62
134
  6
CONTINUOUS
 10
199.577356
 20
110.000000
 11
199.059718
 21
108.068148
  0
LINE
  8
2
 62
134
  6
CONTINUOUS
 10
200.094994
 20
108.068148
 11
199.059718
 21
108.068148
  0
LINE
  8
2
 62
134
  6
CONTINUOUS
 10
199.577356
 20
109.517037
 11
199.836175
 21
108.551111
  0
LINE
  8
2
 62
134
  6
CONTINUOUS
 10
199.577356
 20
109.517037
 11
199.318537
 21
108.551111
  0
LINE
  8
2
 62
134
  6
CONTINUOUS
 10
199.836175
 20
108.551111
 11
199.318537
 21
108.551111
  0
TEXT
  8
2
 62
134
  6
CONTINUOUS
 10
199.577356
 20
96.500000
 40
4.000000
 41
0.500000
  1
22
  7
KANJI
 50
90.000000
 51
30.000000
  0
ENDBLK
  0
BLOCK
  8
2
 62
134
  6
CONTINUOUS
  2
*D24
 70
    65
 10
0.0
 20
0.0
  0
LINE
  8
2
 62
134
  6
CONTINUOUS
 10
168.978317
 20
94.407924
 11
198.000000
 21
94.407924
  0
LINE
  8
2
 62
134
  6
CONTINUOUS
 10
180.000000
 20
96.407924
 11
180.000000
 21
94.118579
  0
LINE
  8
2
 62
134
  6
CONTINUOUS
 10
190.000000
 20
96.407924
 11
190.000000
 21
94.118579
  0
LINE
  8
2
 62
134
  6
CONTINUOUS
 10
180.000000
 20
94.407924
 11
178.068148
 21
93.890286
  0
LINE
  8
2
 62
134
  6
CONTINUOUS
 10
180.000000
 20
94.407924
 11
178.068148
 21
94.925562
  0
LINE
  8
2
 62
134
  6
CONTINUOUS
 10
178.068148
 20
93.890286
 11
178.068148
 21
94.925562
  0
LINE
  8
2
 62
134
  6
CONTINUOUS
 10
179.517037
 20
94.407924
 11
178.551111
 21
94.149105
  0
LINE
  8
2
 62
134
  6
CONTINUOUS
 10
179.517037
 20
94.407924
 11
178.551111
 21
94.666743
  0
LINE
  8
2
 62
134
  6
CONTINUOUS
 10
178.551111
 20
94.149105
 11
178.551111
 21
94.666743
  0
LINE
  8
2
 62
134
  6
CONTINUOUS
 10
190.000000
 20
94.407924
 11
191.931852
 21
94.925562
  0
LINE
  8
2
 62
134
  6
CONTINUOUS
 10
190.000000
 20
94.407924
 11
191.931852
 21
93.890286
  0
LINE
  8
2
 62
134
  6
CONTINUOUS
 10
191.931852
 20
94.925562
 11
191.931852
 21
93.890286
  0
LINE
  8
2
 62
134
  6
CONTINUOUS
 10
190.482963
 20
94.407924
 11
191.448889
 21
94.666743
  0
LINE
  8
2
 62
134
  6
CONTINUOUS
 10
190.482963
 20
94.407924
 11
191.448889
 21
94.149105
  0
LINE
  8
2
 62
134
  6
CONTINUOUS
 10
191.448889
 20
94.666743
 11
191.448889
 21
94.149105
  0
TEXT
  8
2
 62
134
  6
CONTINUOUS
 10
169.978317
 20
94.407924
 40
4.000000
 41
0.666667
  1
φ10
  7
KANJI
 50
0.000000
 51
30.000000
  0
ENDBLK
  0
BLOCK
  8
2
 62
134
  6
CONTINUOUS
  2
*D25
 70
    65
 10
0.0
 20
0.0
  0
LINE
  8
2
 62
134
  6
CONTINUOUS
 10
92.000000
 20
102.957923
 11
112.000000
 21
102.957923
  0
LINE
  8
2
 62
134
  6
CONTINUOUS
 10
100.000000
 20
100.957923
 11
100.000000
 21
108.000000
  0
LINE
  8
2
 62
134
  6
CONTINUOUS
 10
104.000000
 20
100.957923
 11
104.000000
 21
113.250000
  0
LINE
  8
2
 62
134
  6
CONTINUOUS
 10
100.000000
 20
102.957923
 11
98.068148
 21
102.440285
  0
LINE
  8
2
 62
134
  6
CONTINUOUS
 10
100.000000
 20
102.957923
 11
98.068148
 21
103.475561
  0
LINE
  8
2
 62
134
  6
CONTINUOUS
 10
98.068148
 20
102.440285
 11
98.068148
 21
103.475561
  0
LINE
  8
2
 62
134
  6
CONTINUOUS
 10
99.517037
 20
102.957923
 11
98.551111
 21
102.699104
  0
LINE
  8
2
 62
134
  6
CONTINUOUS
 10
99.517037
 20
102.957923
 11
98.551111
 21
103.216742
  0
LINE
  8
2
 62
134
  6
CONTINUOUS
 10
98.551111
 20
102.699104
 11
98.551111
 21
103.216742
  0
LINE
  8
2
 62
134
  6
CONTINUOUS
 10
104.000000
 20
102.957923
 11
105.931852
 21
103.475561
  0
LINE
  8
2
 62
134
  6
CONTINUOUS
 10
104.000000
 20
102.957923
 11
105.931852
 21
102.440285
  0
LINE
  8
2
 62
134
  6
CONTINUOUS
 10
105.931852
 20
103.475561
 11
105.931852
 21
102.440285
  0
LINE
  8
2
 62
134
  6
CONTINUOUS
 10
104.482963
 20
102.957923
 11
105.448889
 21
103.216742
  0
LINE
  8
2
 62
134
  6
CONTINUOUS
 10
104.482963
 20
102.957923
 11
105.448889
 21
102.699104
  0
LINE
  8
2
 62
134
  6
CONTINUOUS
 10
105.448889
 20
103.216742
 11
105.448889
 21
102.699104
  0
TEXT
  8
2
 62
134
  6
CONTINUOUS
 10
100.931852
 20
102.957923
 40
4.000000
 41
0.500000
  1
4
  7
KANJI
 50
0.000000
 51
30.000000
  0
ENDBLK
  0
BLOCK
  8
2
 62
134
  6
CONTINUOUS
  2
*D26
 70
    65
 10
0.0
 20
0.0
  0
LINE
  8
2
 62
134
  6
CONTINUOUS
 10
104.000000
 20
102.957923
 11
124.000000
 21
102.957923
  0
LINE
  8
2
 62
134
  6
CONTINUOUS
 10
104.000000
 20
100.957923
 11
104.000000
 21
113.250000
  0
LINE
  8
2
 62
134
  6
CONTINUOUS
 10
124.000000
 20
100.957923
 11
124.000000
 21
113.250000
  0
LINE
  8
2
 62
134
  6
CONTINUOUS
 10
104.000000
 20
102.957923
 11
105.931852
 21
103.475561
  0
LINE
  8
2
 62
134
  6
CONTINUOUS
 10
104.000000
 20
102.957923
 11
105.931852
 21
102.440285
  0
LINE
  8
2
 62
134
  6
CONTINUOUS
 10
105.931852
 20
103.475561
 11
105.931852
 21
102.440285
  0
LINE
  8
2
 62
134
  6
CONTINUOUS
 10
104.482963
 20
102.957923
 11
105.448889
 21
103.216742
  0
LINE
  8
2
 62
134
  6
CONTINUOUS
 10
104.482963
 20
102.957923
 11
105.448889
 21
102.699104
  0
LINE
  8
2
 62
134
  6
CONTINUOUS
 10
105.448889
 20
103.216742
 11
105.448889
 21
102.699104
  0
LINE
  8
2
 62
134
  6
CONTINUOUS
 10
124.000000
 20
102.957923
 11
122.068148
 21
102.440285
  0
LINE
  8
2
 62
134
  6
CONTINUOUS
 10
124.000000
 20
102.957923
 11
122.068148
 21
103.475561
  0
LINE
  8
2
 62
134
  6
CONTINUOUS
 10
122.068148
 20
102.440285
 11
122.068148
 21
103.475561
  0
LINE
  8
2
 62
134
  6
CONTINUOUS
 10
123.517037
 20
102.957923
 11
122.551111
 21
102.699104
  0
LINE
  8
2
 62
134
  6
CONTINUOUS
 10
123.517037
 20
102.957923
 11
122.551111
 21
103.216742
  0
LINE
  8
2
 62
134
  6
CONTINUOUS
 10
122.551111
 20
102.699104
 11
122.551111
 21
103.216742
  0
TEXT
  8
2
 62
134
  6
CONTINUOUS
 10
112.000000
 20
102.957923
 40
4.000000
 41
0.500000
  1
20
  7
KANJI
 50
0.000000
 51
30.000000
  0
ENDBLK
  0
BLOCK
  8
2
 62
134
  6
CONTINUOUS
  2
*D27
 70
    65
 10
0.0
 20
0.0
  0
LINE
  8
2
 62
134
  6
CONTINUOUS
 10
124.000000
 20
102.957923
 11
144.000000
 21
102.957923
  0
LINE
  8
2
 62
134
  6
CONTINUOUS
 10
144.000000
 20
100.957923
 11
144.000000
 21
113.250000
  0
LINE
  8
2
 62
134
  6
CONTINUOUS
 10
124.000000
 20
102.957923
 11
125.931852
 21
103.475561
  0
LINE
  8
2
 62
134
  6
CONTINUOUS
 10
124.000000
 20
102.957923
 11
125.931852
 21
102.440285
  0
LINE
  8
2
 62
134
  6
CONTINUOUS
 10
125.931852
 20
103.475561
 11
125.931852
 21
102.440285
  0
LINE
  8
2
 62
134
  6
CONTINUOUS
 10
124.482963
 20
102.957923
 11
125.448889
 21
103.216742
  0
LINE
  8
2
 62
134
  6
CONTINUOUS
 10
124.482963
 20
102.957923
 11
125.448889
 21
102.699104
  0
LINE
  8
2
 62
134
  6
CONTINUOUS
 10
125.448889
 20
103.216742
 11
125.448889
 21
102.699104
  0
LINE
  8
2
 62
134
  6
CONTINUOUS
 10
144.000000
 20
102.957923
 11
142.068148
 21
102.440285
  0
LINE
  8
2
 62
134
  6
CONTINUOUS
 10
144.000000
 20
102.957923
 11
142.068148
 21
103.475561
  0
LINE
  8
2
 62
134
  6
CONTINUOUS
 10
142.068148
 20
102.440285
 11
142.068148
 21
103.475561
  0
LINE
  8
2
 62
134
  6
CONTINUOUS
 10
143.517037
 20
102.957923
 11
142.551111
 21
102.699104
  0
LINE
  8
2
 62
134
  6
CONTINUOUS
 10
143.517037
 20
102.957923
 11
142.551111
 21
103.216742
  0
LINE
  8
2
 62
134
  6
CONTINUOUS
 10
142.551111
 20
102.699104
 11
142.551111
 21
103.216742
  0
TEXT
  8
2
 62
134
  6
CONTINUOUS
 10
132.000000
 20
102.957923
 40
4.000000
 41
0.500000
  1
20
  7
KANJI
 50
0.000000
 51
30.000000
  0
ENDBLK
  0
BLOCK
  8
2
 62
134
  6
CONTINUOUS
  2
*D28
 70
    65
 10
0.0
 20
0.0
  0
LINE
  8
2
 62
134
  6
CONTINUOUS
 10
144.000000
 20
102.957923
 11
164.000000
 21
102.957923
  0
LINE
  8
2
 62
134
  6
CONTINUOUS
 10
164.000000
 20
100.957923
 11
164.000000
 21
113.250000
  0
LINE
  8
2
 62
134
  6
CONTINUOUS
 10
144.000000
 20
102.957923
 11
145.931852
 21
103.475561
  0
LINE
  8
2
 62
134
  6
CONTINUOUS
 10
144.000000
 20
102.957923
 11
145.931852
 21
102.440285
  0
LINE
  8
2
 62
134
  6
CONTINUOUS
 10
145.931852
 20
103.475561
 11
145.931852
 21
102.440285
  0
LINE
  8
2
 62
134
  6
CONTINUOUS
 10
144.482963
 20
102.957923
 11
145.448889
 21
103.216742
  0
LINE
  8
2
 62
134
  6
CONTINUOUS
 10
144.482963
 20
102.957923
 11
145.448889
 21
102.699104
  0
LINE
  8
2
 62
134
  6
CONTINUOUS
 10
145.448889
 20
103.216742
 11
145.448889
 21
102.699104
  0
LINE
  8
2
 62
134
  6
CONTINUOUS
 10
164.000000
 20
102.957923
 11
162.068148
 21
102.440285
  0
LINE
  8
2
 62
134
  6
CONTINUOUS
 10
164.000000
 20
102.957923
 11
162.068148
 21
103.475561
  0
LINE
  8
2
 62
134
  6
CONTINUOUS
 10
162.068148
 20
102.440285
 11
162.068148
 21
103.475561
  0
LINE
  8
2
 62
134
  6
CONTINUOUS
 10
163.517037
 20
102.957923
 11
162.551111
 21
102.699104
  0
LINE
  8
2
 62
134
  6
CONTINUOUS
 10
163.517037
 20
102.957923
 11
162.551111
 21
103.216742
  0
LINE
  8
2
 62
134
  6
CONTINUOUS
 10
162.551111
 20
102.699104
 11
162.551111
 21
103.216742
  0
TEXT
  8
2
 62
134
  6
CONTINUOUS
 10
152.000000
 20
102.957923
 40
4.000000
 41
0.500000
  1
20
  7
KANJI
 50
0.000000
 51
30.000000
  0
ENDBLK
  0
BLOCK
  8
2
 62
134
  6
CONTINUOUS
  2
*D29
 70
    65
 10
0.0
 20
0.0
  0
LINE
  8
2
 62
134
  6
CONTINUOUS
 10
164.000000
 20
102.957923
 11
204.000000
 21
102.957923
  0
LINE
  8
2
 62
134
  6
CONTINUOUS
 10
164.000000
 20
100.957923
 11
164.000000
 21
113.250000
  0
LINE
  8
2
 62
134
  6
CONTINUOUS
 10
204.000000
 20
100.957923
 11
204.000000
 21
113.250000
  0
LINE
  8
2
 62
134
  6
CONTINUOUS
 10
164.000000
 20
102.957923
 11
165.931852
 21
103.475561
  0
LINE
  8
2
 62
134
  6
CONTINUOUS
 10
164.000000
 20
102.957923
 11
165.931852
 21
102.440285
  0
LINE
  8
2
 62
134
  6
CONTINUOUS
 10
165.931852
 20
103.475561
 11
165.931852
 21
102.440285
  0
LINE
  8
2
 62
134
  6
CONTINUOUS
 10
164.482963
 20
102.957923
 11
165.448889
 21
103.216742
  0
LINE
  8
2
 62
134
  6
CONTINUOUS
 10
164.482963
 20
102.957923
 11
165.448889
 21
102.699104
  0
LINE
  8
2
 62
134
  6
CONTINUOUS
 10
165.448889
 20
103.216742
 11
165.448889
 21
102.699104
  0
LINE
  8
2
 62
134
  6
CONTINUOUS
 10
204.000000
 20
102.957923
 11
202.068148
 21
102.440285
  0
LINE
  8
2
 62
134
  6
CONTINUOUS
 10
204.000000
 20
102.957923
 11
202.068148
 21
103.475561
  0
LINE
  8
2
 62
134
  6
CONTINUOUS
 10
202.068148
 20
102.440285
 11
202.068148
 21
103.475561
  0
LINE
  8
2
 62
134
  6
CONTINUOUS
 10
203.517037
 20
102.957923
 11
202.551111
 21
102.699104
  0
LINE
  8
2
 62
134
  6
CONTINUOUS
 10
203.517037
 20
102.957923
 11
202.551111
 21
103.216742
  0
LINE
  8
2
 62
134
  6
CONTINUOUS
 10
202.551111
 20
102.699104
 11
202.551111
 21
103.216742
  0
TEXT
  8
2
 62
134
  6
CONTINUOUS
 10
171.547929
 20
102.957923
 40
4.000000
 41
0.500000
  1
40
  7
KANJI
 50
0.000000
 51
30.000000
  0
ENDBLK
  0
BLOCK
  8
2
 62
134
  6
CONTINUOUS
  2
*D30
 70
    65
 10
0.0
 20
0.0
  0
LINE
  8
2
 62
134
  6
CONTINUOUS
 10
100.000000
 20
84.083333
 11
185.000000
 21
84.083333
  0
LINE
  8
2
 62
134
  6
CONTINUOUS
 10
100.000000
 20
82.083333
 11
100.000000
 21
115.000000
  0
LINE
  8
2
 62
134
  6
CONTINUOUS
 10
185.000000
 20
82.083333
 11
185.000000
 21
100.957923
  0
LINE
  8
2
 62
134
  6
CONTINUOUS
 10
100.000000
 20
84.083333
 11
101.931852
 21
84.600971
  0
LINE
  8
2
 62
134
  6
CONTINUOUS
 10
100.000000
 20
84.083333
 11
101.931852
 21
83.565695
  0
LINE
  8
2
 62
134
  6
CONTINUOUS
 10
101.931852
 20
84.600971
 11
101.931852
 21
83.565695
  0
LINE
  8
2
 62
134
  6
CONTINUOUS
 10
100.482963
 20
84.083333
 11
101.448889
 21
84.342152
  0
LINE
  8
2
 62
134
  6
CONTINUOUS
 10
100.482963
 20
84.083333
 11
101.448889
 21
83.824514
  0
LINE
  8
2
 62
134
  6
CONTINUOUS
 10
101.448889
 20
84.342152
 11
101.448889
 21
83.824514
  0
LINE
  8
2
 62
134
  6
CONTINUOUS
 10
185.000000
 20
84.083333
 11
183.068148
 21
83.565695
  0
LINE
  8
2
 62
134
  6
CONTINUOUS
 10
185.000000
 20
84.083333
 11
183.068148
 21
84.600971
  0
LINE
  8
2
 62
134
  6
CONTINUOUS
 10
183.068148
 20
83.565695
 11
183.068148
 21
84.600971
  0
LINE
  8
2
 62
134
  6
CONTINUOUS
 10
184.517037
 20
84.083333
 11
183.551111
 21
83.824514
  0
LINE
  8
2
 62
134
  6
CONTINUOUS
 10
184.517037
 20
84.083333
 11
183.551111
 21
84.342152
  0
LINE
  8
2
 62
134
  6
CONTINUOUS
 10
183.551111
 20
83.824514
 11
183.551111
 21
84.342152
  0
TEXT
  8
2
 62
134
  6
CONTINUOUS
 10
139.076499
 20
84.083333
 40
4.000000
 41
0.500000
  1
85
  7
KANJI
 50
0.000000
 51
30.000000
  0
ENDBLK
  0
BLOCK
  8
2
 62
134
  6
CONTINUOUS
  2
*D31
 70
    65
 10
0.0
 20
0.0
  0
LINE
  8
2
 62
134
  6
CONTINUOUS
 10
76.635173
 20
110.000000
 11
76.635173
 21
135.000000
  0
LINE
  8
2
 62
134
  6
CONTINUOUS
 10
78.635173
 20
110.000000
 11
69.000000
 21
110.000000
  0
LINE
  8
2
 62
134
  6
CONTINUOUS
 10
78.635173
 20
135.000000
 11
70.000000
 21
135.000000
  0
LINE
  8
2
 62
134
  6
CONTINUOUS
 10
76.635173
 20
110.000000
 11
76.117535
 21
111.931852
  0
LINE
  8
2
 62
134
  6
CONTINUOUS
 10
76.635173
 20
110.000000
 11
77.152811
 21
111.931852
  0
LINE
  8
2
 62
134
  6
CONTINUOUS
 10
76.117535
 20
111.931852
 11
77.152811
 21
111.931852
  0
LINE
  8
2
 62
134
  6
CONTINUOUS
 10
76.635173
 20
110.482963
 11
76.376354
 21
111.448889
  0
LINE
  8
2
 62
134
  6
CONTINUOUS
 10
76.635173
 20
110.482963
 11
76.893992
 21
111.448889
  0
LINE
  8
2
 62
134
  6
CONTINUOUS
 10
76.376354
 20
111.448889
 11
76.893992
 21
111.448889
  0
LINE
  8
2
 62
134
  6
CONTINUOUS
 10
76.635173
 20
135.000000
 11
77.152811
 21
133.068148
  0
LINE
  8
2
 62
134
  6
CONTINUOUS
 10
76.635173
 20
135.000000
 11
76.117535
 21
133.068148
  0
LINE
  8
2
 62
134
  6
CONTINUOUS
 10
77.152811
 20
133.068148
 11
76.117535
 21
133.068148
  0
LINE
  8
2
 62
134
  6
CONTINUOUS
 10
76.635173
 20
134.517037
 11
76.893992
 21
133.551111
  0
LINE
  8
2
 62
134
  6
CONTINUOUS
 10
76.635173
 20
134.517037
 11
76.376354
 21
133.551111
  0
LINE
  8
2
 62
134
  6
CONTINUOUS
 10
76.893992
 20
133.551111
 11
76.376354
 21
133.551111
  0
TEXT
  8
2
 62
134
  6
CONTINUOUS
 10
76.635173
 20
120.500000
 40
4.000000
 41
0.500000
  1
25
  7
KANJI
 50
90.000000
 51
30.000000
  0
ENDBLK
  0
BLOCK
  8
2
 62
134
  6
CONTINUOUS
  2
*D32
 70
    65
 10
0.0
 20
0.0
  0
LINE
  8
2
 62
134
  6
CONTINUOUS
 10
76.635173
 20
135.000000
 11
76.635173
 21
153.000000
  0
LINE
  8
2
 62
134
  6
CONTINUOUS
 10
78.635173
 20
153.000000
 11
70.000000
 21
153.000000
  0
LINE
  8
2
 62
134
  6
CONTINUOUS
 10
76.635173
 20
135.000000
 11
76.117535
 21
136.931852
  0
LINE
  8
2
 62
134
  6
CONTINUOUS
 10
76.635173
 20
135.000000
 11
77.152811
 21
136.931852
  0
LINE
  8
2
 62
134
  6
CONTINUOUS
 10
76.117535
 20
136.931852
 11
77.152811
 21
136.931852
  0
LINE
  8
2
 62
134
  6
CONTINUOUS
 10
76.635173
 20
135.482963
 11
76.376354
 21
136.448889
  0
LINE
  8
2
 62
134
  6
CONTINUOUS
 10
76.635173
 20
135.482963
 11
76.893992
 21
136.448889
  0
LINE
  8
2
 62
134
  6
CONTINUOUS
 10
76.376354
 20
136.448889
 11
76.893992
 21
136.448889
  0
LINE
  8
2
 62
134
  6
CONTINUOUS
 10
76.635173
 20
153.000000
 11
77.152811
 21
151.068148
  0
LINE
  8
2
 62
134
  6
CONTINUOUS
 10
76.635173
 20
153.000000
 11
76.117535
 21
151.068148
  0
LINE
  8
2
 62
134
  6
CONTINUOUS
 10
77.152811
 20
151.068148
 11
76.117535
 21
151.068148
  0
LINE
  8
2
 62
134
  6
CONTINUOUS
 10
76.635173
 20
152.517037
 11
76.893992
 21
151.551111
  0
LINE
  8
2
 62
134
  6
CONTINUOUS
 10
76.635173
 20
152.517037
 11
76.376354
 21
151.551111
  0
LINE
  8
2
 62
134
  6
CONTINUOUS
 10
76.893992
 20
151.551111
 11
76.376354
 21
151.551111
  0
TEXT
  8
2
 62
134
  6
CONTINUOUS
 10
76.635173
 20
142.000000
 40
4.000000
 41
0.500000
  1
18
  7
KANJI
 50
90.000000
 51
30.000000
  0
ENDBLK
  0
BLOCK
  8
2
 62
134
  6
CONTINUOUS
  2
*D33
 70
    65
 10
0.0
 20
0.0
  0
LINE
  8
2
 62
134
  6
CONTINUOUS
 10
76.635173
 20
145.000000
 11
76.635173
 21
159.918775
  0
LINE
  8
2
 62
134
  6
CONTINUOUS
 10
78.635173
 20
153.000000
 11
70.000000
 21
153.000000
  0
LINE
  8
2
 62
134
  6
CONTINUOUS
 10
78.635173
 20
156.000000
 11
69.000000
 21
156.000000
  0
LINE
  8
2
 62
134
  6
CONTINUOUS
 10
76.635173
 20
153.000000
 11
77.152811
 21
151.068148
  0
LINE
  8
2
 62
134
  6
CONTINUOUS
 10
76.635173
 20
153.000000
 11
76.117535
 21
151.068148
  0
LINE
  8
2
 62
134
  6
CONTINUOUS
 10
77.152811
 20
151.068148
 11
76.117535
 21
151.068148
  0
LINE
  8
2
 62
134
  6
CONTINUOUS
 10
76.635173
 20
152.517037
 11
76.893992
 21
151.551111
  0
LINE
  8
2
 62
134
  6
CONTINUOUS
 10
76.635173
 20
152.517037
 11
76.376354
 21
151.551111
  0
LINE
  8
2
 62
134
  6
CONTINUOUS
 10
76.893992
 20
151.551111
 11
76.376354
 21
151.551111
  0
LINE
  8
2
 62
134
  6
CONTINUOUS
 10
76.635173
 20
156.000000
 11
76.117535
 21
157.931852
  0
LINE
  8
2
 62
134
  6
CONTINUOUS
 10
76.635173
 20
156.000000
 11
77.152811
 21
157.931852
  0
LINE
  8
2
 62
134
  6
CONTINUOUS
 10
76.117535
 20
157.931852
 11
77.152811
 21
157.931852
  0
LINE
  8
2
 62
134
  6
CONTINUOUS
 10
76.635173
 20
156.482963
 11
76.376354
 21
157.448889
  0
LINE
  8
2
 62
134
  6
CONTINUOUS
 10
76.635173
 20
156.482963
 11
76.893992
 21
157.448889
  0
LINE
  8
2
 62
134
  6
CONTINUOUS
 10
76.376354
 20
157.448889
 11
76.893992
 21
157.448889
  0
TEXT
  8
2
 62
134
  6
CONTINUOUS
 10
76.635173
 20
156.918775
 40
4.000000
 41
0.500000
  1
3
  7
KANJI
 50
90.000000
 51
30.000000
  0
ENDBLK
  0
BLOCK
  8
2
 62
134
  6
CONTINUOUS
  2
*D34
 70
    65
 10
0.0
 20
0.0
  0
LINE
  8
2
 62
134
  6
CONTINUOUS
 10
84.285690
 20
110.000000
 11
84.285690
 21
156.000000
  0
LINE
  8
2
 62
134
  6
CONTINUOUS
 10
86.285690
 20
110.000000
 11
69.000000
 21
110.000000
  0
LINE
  8
2
 62
134
  6
CONTINUOUS
 10
86.285690
 20
156.000000
 11
67.646247
 21
156.000000
  0
LINE
  8
2
 62
134
  6
CONTINUOUS
 10
84.285690
 20
110.000000
 11
83.768052
 21
111.931852
  0
LINE
  8
2
 62
134
  6
CONTINUOUS
 10
84.285690
 20
110.000000
 11
84.803328
 21
111.931852
  0
LINE
  8
2
 62
134
  6
CONTINUOUS
 10
83.768052
 20
111.931852
 11
84.803328
 21
111.931852
  0
LINE
  8
2
 62
134
  6
CONTINUOUS
 10
84.285690
 20
110.482963
 11
84.026871
 21
111.448889
  0
LINE
  8
2
 62
134
  6
CONTINUOUS
 10
84.285690
 20
110.482963
 11
84.544509
 21
111.448889
  0
LINE
  8
2
 62
134
  6
CONTINUOUS
 10
84.026871
 20
111.448889
 11
84.544509
 21
111.448889
  0
LINE
  8
2
 62
134
  6
CONTINUOUS
 10
84.285690
 20
156.000000
 11
84.803328
 21
154.068148
  0
LINE
  8
2
 62
134
  6
CONTINUOUS
 10
84.285690
 20
156.000000
 11
83.768052
 21
154.068148
  0
LINE
  8
2
 62
134
  6
CONTINUOUS
 10
84.803328
 20
154.068148
 11
83.768052
 21
154.068148
  0
LINE
  8
2
 62
134
  6
CONTINUOUS
 10
84.285690
 20
155.517037
 11
84.544509
 21
154.551111
  0
LINE
  8
2
 62
134
  6
CONTINUOUS
 10
84.285690
 20
155.517037
 11
84.026871
 21
154.551111
  0
LINE
  8
2
 62
134
  6
CONTINUOUS
 10
84.544509
 20
154.551111
 11
84.026871
 21
154.551111
  0
TEXT
  8
2
 62
134
  6
CONTINUOUS
 10
84.285690
 20
133.000000
 40
4.000000
 41
0.500000
  1
46
  7
KANJI
 50
90.000000
 51
30.000000
  0
ENDBLK
  0
BLOCK
  8
2
 62
134
  6
CONTINUOUS
  2
*D35
 70
    65
 10
0.0
 20
0.0
  0
LINE
  8
2
 62
134
  6
CONTINUOUS
 10
100.000000
 20
92.706511
 11
110.000000
 21
92.706511
  0
LINE
  8
2
 62
134
  6
CONTINUOUS
 10
100.000000
 20
90.706511
 11
100.000000
 21
108.000000
  0
LINE
  8
2
 62
134
  6
CONTINUOUS
 10
110.000000
 20
90.706511
 11
110.000000
 21
109.000000
  0
LINE
  8
2
 62
134
  6
CONTINUOUS
 10
100.000000
 20
92.706511
 11
101.931852
 21
93.224149
  0
LINE
  8
2
 62
134
  6
CONTINUOUS
 10
100.000000
 20
92.706511
 11
101.931852
 21
92.188873
  0
LINE
  8
2
 62
134
  6
CONTINUOUS
 10
101.931852
 20
93.224149
 11
101.931852
 21
92.188873
  0
LINE
  8
2
 62
134
  6
CONTINUOUS
 10
100.482963
 20
92.706511
 11
101.448889
 21
92.965330
  0
LINE
  8
2
 62
134
  6
CONTINUOUS
 10
100.482963
 20
92.706511
 11
101.448889
 21
92.447692
  0
LINE
  8
2
 62
134
  6
CONTINUOUS
 10
101.448889
 20
92.965330
 11
101.448889
 21
92.447692
  0
LINE
  8
2
 62
134
  6
CONTINUOUS
 10
110.000000
 20
92.706511
 11
108.068148
 21
92.188873
  0
LINE
  8
2
 62
134
  6
CONTINUOUS
 10
110.000000
 20
92.706511
 11
108.068148
 21
93.224149
  0
LINE
  8
2
 62
134
  6
CONTINUOUS
 10
108.068148
 20
92.188873
 11
108.068148
 21
93.224149
  0
LINE
  8
2
 62
134
  6
CONTINUOUS
 10
109.517037
 20
92.706511
 11
108.551111
 21
92.447692
  0
LINE
  8
2
 62
134
  6
CONTINUOUS
 10
109.517037
 20
92.706511
 11
108.551111
 21
92.965330
  0
LINE
  8
2
 62
134
  6
CONTINUOUS
 10
108.551111
 20
92.447692
 11
108.551111
 21
92.965330
  0
TEXT
  8
2
 62
134
  6
CONTINUOUS
 10
102.140350
 20
92.706511
 40
4.000000
 41
0.500000
  1
10
  7
KANJI
 50
0.000000
 51
30.000000
  0
ENDBLK
  0
BLOCK
  8
2
 62
134
  6
CONTINUOUS
  2
*D36
 70
    65
 10
0.0
 20
0.0
  0
LINE
  8
2
 62
134
  6
CONTINUOUS
 10
100.000000
 20
163.302907
 11
230.000000
 21
163.302907
  0
LINE
  8
2
 62
134
  6
CONTINUOUS
 10
100.000000
 20
165.302907
 11
100.000000
 21
155.000000
  0
LINE
  8
2
 62
134
  6
CONTINUOUS
 10
230.000000
 20
165.302907
 11
230.000000
 21
155.000000
  0
LINE
  8
2
 62
134
  6
CONTINUOUS
 10
100.000000
 20
163.302907
 11
101.931852
 21
163.820545
  0
LINE
  8
2
 62
134
  6
CONTINUOUS
 10
100.000000
 20
163.302907
 11
101.931852
 21
162.785269
  0
LINE
  8
2
 62
134
  6
CONTINUOUS
 10
101.931852
 20
163.820545
 11
101.931852
 21
162.785269
  0
LINE
  8
2
 62
134
  6
CONTINUOUS
 10
100.482963
 20
163.302907
 11
101.448889
 21
163.561726
  0
LINE
  8
2
 62
134
  6
CONTINUOUS
 10
100.482963
 20
163.302907
 11
101.448889
 21
163.044088
  0
LINE
  8
2
 62
134
  6
CONTINUOUS
 10
101.448889
 20
163.561726
 11
101.448889
 21
163.044088
  0
LINE
  8
2
 62
134
  6
CONTINUOUS
 10
230.000000
 20
163.302907
 11
228.068148
 21
162.785269
  0
LINE
  8
2
 62
134
  6
CONTINUOUS
 10
230.000000
 20
163.302907
 11
228.068148
 21
163.820545
  0
LINE
  8
2
 62
134
  6
CONTINUOUS
 10
228.068148
 20
162.785269
 11
228.068148
 21
163.820545
  0
LINE
  8
2
 62
134
  6
CONTINUOUS
 10
229.517037
 20
163.302907
 11
228.551111
 21
163.044088
  0
LINE
  8
2
 62
134
  6
CONTINUOUS
 10
229.517037
 20
163.302907
 11
228.551111
 21
163.561726
  0
LINE
  8
2
 62
134
  6
CONTINUOUS
 10
228.551111
 20
163.044088
 11
228.551111
 21
163.561726
  0
TEXT
  8
2
 62
134
  6
CONTINUOUS
 10
162.000000
 20
163.802907
 40
4.000000
 41
0.500000
  1
130
  7
KANJI
 50
0.000000
 51
30.000000
  0
ENDBLK
  0
BLOCK
  8
2
 62
134
  6
CONTINUOUS
  2
*D37
 70
    65
 10
0.0
 20
0.0
  0
LINE
  8
2
 62
134
  6
CONTINUOUS
 10
230.000000
 20
163.302907
 11
240.000000
 21
163.302907
  0
LINE
  8
2
 62
134
  6
CONTINUOUS
 10
230.000000
 20
165.302907
 11
230.000000
 21
158.000000
  0
LINE
  8
2
 62
134
  6
CONTINUOUS
 10
240.000000
 20
165.302907
 11
240.000000
 21
147.111965
  0
LINE
  8
2
 62
134
  6
CONTINUOUS
 10
230.000000
 20
163.302907
 11
231.931852
 21
163.820545
  0
LINE
  8
2
 62
134
  6
CONTINUOUS
 10
230.000000
 20
163.302907
 11
231.931852
 21
162.785269
  0
LINE
  8
2
 62
134
  6
CONTINUOUS
 10
231.931852
 20
163.820545
 11
231.931852
 21
162.785269
  0
LINE
  8
2
 62
134
  6
CONTINUOUS
 10
230.482963
 20
163.302907
 11
231.448889
 21
163.561726
  0
LINE
  8
2
 62
134
  6
CONTINUOUS
 10
230.482963
 20
163.302907
 11
231.448889
 21
163.044088
  0
LINE
  8
2
 62
134
  6
CONTINUOUS
 10
231.448889
 20
163.561726
 11
231.448889
 21
163.044088
  0
LINE
  8
2
 62
134
  6
CONTINUOUS
 10
240.000000
 20
163.302907
 11
238.068148
 21
162.785269
  0
LINE
  8
2
 62
134
  6
CONTINUOUS
 10
240.000000
 20
163.302907
 11
238.068148
 21
163.820545
  0
LINE
  8
2
 62
134
  6
CONTINUOUS
 10
238.068148
 20
162.785269
 11
238.068148
 21
163.820545
  0
LINE
  8
2
 62
134
  6
CONTINUOUS
 10
239.517037
 20
163.302907
 11
238.551111
 21
163.044088
  0
LINE
  8
2
 62
134
  6
CONTINUOUS
 10
239.517037
 20
163.302907
 11
238.551111
 21
163.561726
  0
LINE
  8
2
 62
134
  6
CONTINUOUS
 10
238.551111
 20
163.044088
 11
238.551111
 21
163.561726
  0
TEXT
  8
2
 62
134
  6
CONTINUOUS
 10
233.000000
 20
163.802907
 40
4.000000
 41
0.500000
  1
10
  7
KANJI
 50
0.000000
 51
30.000000
  0
ENDBLK
  0
BLOCK
  8
2
 62
134
  6
CONTINUOUS
  2
*D38
 70
    65
 10
0.0
 20
0.0
  0
LINE
  8
2
 62
134
  6
CONTINUOUS
 10
270.000000
 20
171.461938
 11
100.000000
 21
171.461938
  0
LINE
  8
2
 62
134
  6
CONTINUOUS
 10
270.000000
 20
173.461938
 11
270.000000
 21
142.526944
  0
LINE
  8
2
 62
134
  6
CONTINUOUS
 10
100.000000
 20
173.461938
 11
100.000000
 21
155.000000
  0
LINE
  8
2
 62
134
  6
CONTINUOUS
 10
270.000000
 20
171.461938
 11
268.068148
 21
170.944300
  0
LINE
  8
2
 62
134
  6
CONTINUOUS
 10
270.000000
 20
171.461938
 11
268.068148
 21
171.979577
  0
LINE
  8
2
 62
134
  6
CONTINUOUS
 10
268.068148
 20
170.944300
 11
268.068148
 21
171.979577
  0
LINE
  8
2
 62
134
  6
CONTINUOUS
 10
269.517037
 20
171.461938
 11
268.551111
 21
171.203119
  0
LINE
  8
2
 62
134
  6
CONTINUOUS
 10
269.517037
 20
171.461938
 11
268.551111
 21
171.720758
  0
LINE
  8
2
 62
134
  6
CONTINUOUS
 10
268.551111
 20
171.203119
 11
268.551111
 21
171.720758
  0
LINE
  8
2
 62
134
  6
CONTINUOUS
 10
100.000000
 20
171.461938
 11
101.931852
 21
171.979577
  0
LINE
  8
2
 62
134
  6
CONTINUOUS
 10
100.000000
 20
171.461938
 11
101.931852
 21
170.944300
  0
LINE
  8
2
 62
134
  6
CONTINUOUS
 10
101.931852
 20
171.979577
 11
101.931852
 21
170.944300
  0
LINE
  8
2
 62
134
  6
CONTINUOUS
 10
100.482963
 20
171.461938
 11
101.448889
 21
171.720758
  0
LINE
  8
2
 62
134
  6
CONTINUOUS
 10
100.482963
 20
171.461938
 11
101.448889
 21
171.203119
  0
LINE
  8
2
 62
134
  6
CONTINUOUS
 10
101.448889
 20
171.720758
 11
101.448889
 21
171.203119
  0
TEXT
  8
2
 62
134
  6
CONTINUOUS
 10
179.000000
 20
171.961938
 40
4.000000
 41
0.500000
  1
170
  7
KANJI
 50
0.000000
 51
30.000000
  0
ENDBLK
  0
BLOCK
  8
2
 62
134
  6
CONTINUOUS
  2
*D39
 70
    65
 10
0.0
 20
0.0
  0
LINE
  8
2
 62
134
  6
CONTINUOUS
 10
240.000000
 20
163.302907
 11
270.000000
 21
163.302907
  0
LINE
  8
2
 62
134
  6
CONTINUOUS
 10
240.000000
 20
165.302907
 11
240.000000
 21
148.800000
  0
LINE
  8
2
 62
134
  6
CONTINUOUS
 10
270.000000
 20
165.302907
 11
270.000000
 21
142.526944
  0
LINE
  8
2
 62
134
  6
CONTINUOUS
 10
240.000000
 20
163.302907
 11
241.931852
 21
163.820545
  0
LINE
  8
2
 62
134
  6
CONTINUOUS
 10
240.000000
 20
163.302907
 11
241.931852
 21
162.785269
  0
LINE
  8
2
 62
134
  6
CONTINUOUS
 10
241.931852
 20
163.820545
 11
241.931852
 21
162.785269
  0
LINE
  8
2
 62
134
  6
CONTINUOUS
 10
240.482963
 20
163.302907
 11
241.448889
 21
163.561726
  0
LINE
  8
2
 62
134
  6
CONTINUOUS
 10
240.482963
 20
163.302907
 11
241.448889
 21
163.044088
  0
LINE
  8
2
 62
134
  6
CONTINUOUS
 10
241.448889
 20
163.561726
 11
241.448889
 21
163.044088
  0
LINE
  8
2
 62
134
  6
CONTINUOUS
 10
270.000000
 20
163.302907
 11
268.068148
 21
162.785269
  0
LINE
  8
2
 62
134
  6
CONTINUOUS
 10
270.000000
 20
163.302907
 11
268.068148
 21
163.820545
  0
LINE
  8
2
 62
134
  6
CONTINUOUS
 10
268.068148
 20
162.785269
 11
268.068148
 21
163.820545
  0
LINE
  8
2
 62
134
  6
CONTINUOUS
 10
269.517037
 20
163.302907
 11
268.551111
 21
163.044088
  0
LINE
  8
2
 62
134
  6
CONTINUOUS
 10
269.517037
 20
163.302907
 11
268.551111
 21
163.561726
  0
LINE
  8
2
 62
134
  6
CONTINUOUS
 10
268.551111
 20
163.044088
 11
268.551111
 21
163.561726
  0
TEXT
  8
2
 62
134
  6
CONTINUOUS
 10
250.000000
 20
163.802907
 40
4.000000
 41
0.500000
  1
30
  7
KANJI
 50
0.000000
 51
30.000000
  0
ENDBLK
  0
BLOCK
  8
2
 62
134
  6
CONTINUOUS
  2
*D40
 70
    65
 10
0.0
 20
0.0
  0
LINE
  8
2
 62
134
  6
CONTINUOUS
 10
32.000000
 20
163.302907
 11
50.000000
 21
163.302907
  0
LINE
  8
2
 62
134
  6
CONTINUOUS
 10
32.000000
 20
165.302907
 11
32.000000
 21
157.000000
  0
LINE
  8
2
 62
134
  6
CONTINUOUS
 10
50.000000
 20
165.302907
 11
50.000000
 21
158.000000
  0
LINE
  8
2
 62
134
  6
CONTINUOUS
 10
32.000000
 20
163.302907
 11
33.931852
 21
163.820545
  0
LINE
  8
2
 62
134
  6
CONTINUOUS
 10
32.000000
 20
163.302907
 11
33.931852
 21
162.785269
  0
LINE
  8
2
 62
134
  6
CONTINUOUS
 10
33.931852
 20
163.820545
 11
33.931852
 21
162.785269
  0
LINE
  8
2
 62
134
  6
CONTINUOUS
 10
32.482963
 20
163.302907
 11
33.448889
 21
163.561726
  0
LINE
  8
2
 62
134
  6
CONTINUOUS
 10
32.482963
 20
163.302907
 11
33.448889
 21
163.044088
  0
LINE
  8
2
 62
134
  6
CONTINUOUS
 10
33.448889
 20
163.561726
 11
33.448889
 21
163.044088
  0
LINE
  8
2
 62
134
  6
CONTINUOUS
 10
50.000000
 20
163.302907
 11
48.068148
 21
162.785269
  0
LINE
  8
2
 62
134
  6
CONTINUOUS
 10
50.000000
 20
163.302907
 11
48.068148
 21
163.820545
  0
LINE
  8
2
 62
134
  6
CONTINUOUS
 10
48.068148
 20
162.785269
 11
48.068148
 21
163.820545
  0
LINE
  8
2
 62
134
  6
CONTINUOUS
 10
49.517037
 20
163.302907
 11
48.551111
 21
163.044088
  0
LINE
  8
2
 62
134
  6
CONTINUOUS
 10
49.517037
 20
163.302907
 11
48.551111
 21
163.561726
  0
LINE
  8
2
 62
134
  6
CONTINUOUS
 10
48.551111
 20
163.044088
 11
48.551111
 21
163.561726
  0
TEXT
  8
2
 62
134
  6
CONTINUOUS
 10
39.000000
 20
163.302907
 40
4.000000
 41
0.500000
  1
18
  7
KANJI
 50
0.000000
 51
30.000000
  0
ENDBLK
  0
BLOCK
  8
2
 62
134
  6
CONTINUOUS
  2
*D41
 70
    65
 10
0.0
 20
0.0
  0
LINE
  8
2
 62
134
  6
CONTINUOUS
 10
50.000000
 20
163.302907
 11
68.000000
 21
163.302907
  0
LINE
  8
2
 62
134
  6
CONTINUOUS
 10
68.000000
 20
165.302907
 11
68.000000
 21
155.000000
  0
LINE
  8
2
 62
134
  6
CONTINUOUS
 10
50.000000
 20
163.302907
 11
51.931852
 21
163.820545
  0
LINE
  8
2
 62
134
  6
CONTINUOUS
 10
50.000000
 20
163.302907
 11
51.931852
 21
162.785269
  0
LINE
  8
2
 62
134
  6
CONTINUOUS
 10
51.931852
 20
163.820545
 11
51.931852
 21
162.785269
  0
LINE
  8
2
 62
134
  6
CONTINUOUS
 10
50.482963
 20
163.302907
 11
51.448889
 21
163.561726
  0
LINE
  8
2
 62
134
  6
CONTINUOUS
 10
50.482963
 20
163.302907
 11
51.448889
 21
163.044088
  0
LINE
  8
2
 62
134
  6
CONTINUOUS
 10
51.448889
 20
163.561726
 11
51.448889
 21
163.044088
  0
LINE
  8
2
 62
134
  6
CONTINUOUS
 10
68.000000
 20
163.302907
 11
66.068148
 21
162.785269
  0
LINE
  8
2
 62
134
  6
CONTINUOUS
 10
68.000000
 20
163.302907
 11
66.068148
 21
163.820545
  0
LINE
  8
2
 62
134
  6
CONTINUOUS
 10
66.068148
 20
162.785269
 11
66.068148
 21
163.820545
  0
LINE
  8
2
 62
134
  6
CONTINUOUS
 10
67.517037
 20
163.302907
 11
66.551111
 21
163.044088
  0
LINE
  8
2
 62
134
  6
CONTINUOUS
 10
67.517037
 20
163.302907
 11
66.551111
 21
163.561726
  0
LINE
  8
2
 62
134
  6
CONTINUOUS
 10
66.551111
 20
163.044088
 11
66.551111
 21
163.561726
  0
TEXT
  8
2
 62
134
  6
CONTINUOUS
 10
57.000000
 20
163.302907
 40
4.000000
 41
0.500000
  1
18
  7
KANJI
 50
0.000000
 51
30.000000
  0
ENDBLK
  0
BLOCK
  8
2
 62
134
  6
CONTINUOUS
  2
*D42
 70
    65
 10
0.0
 20
0.0
  0
LINE
  8
2
 62
134
  6
CONTINUOUS
 10
32.000000
 20
171.461938
 11
68.000000
 21
171.461938
  0
LINE
  8
2
 62
134
  6
CONTINUOUS
 10
32.000000
 20
173.461938
 11
32.000000
 21
157.000000
  0
LINE
  8
2
 62
134
  6
CONTINUOUS
 10
68.000000
 20
173.461938
 11
68.000000
 21
157.000000
  0
LINE
  8
2
 62
134
  6
CONTINUOUS
 10
32.000000
 20
171.461938
 11
33.931852
 21
171.979577
  0
LINE
  8
2
 62
134
  6
CONTINUOUS
 10
32.000000
 20
171.461938
 11
33.931852
 21
170.944300
  0
LINE
  8
2
 62
134
  6
CONTINUOUS
 10
33.931852
 20
171.979577
 11
33.931852
 21
170.944300
  0
LINE
  8
2
 62
134
  6
CONTINUOUS
 10
32.482963
 20
171.461938
 11
33.448889
 21
171.720758
  0
LINE
  8
2
 62
134
  6
CONTINUOUS
 10
32.482963
 20
171.461938
 11
33.448889
 21
171.203119
  0
LINE
  8
2
 62
134
  6
CONTINUOUS
 10
33.448889
 20
171.720758
 11
33.448889
 21
171.203119
  0
LINE
  8
2
 62
134
  6
CONTINUOUS
 10
68.000000
 20
171.461938
 11
66.068148
 21
170.944300
  0
LINE
  8
2
 62
134
  6
CONTINUOUS
 10
68.000000
 20
171.461938
 11
66.068148
 21
171.979577
  0
LINE
  8
2
 62
134
  6
CONTINUOUS
 10
66.068148
 20
170.944300
 11
66.068148
 21
171.979577
  0
LINE
  8
2
 62
134
  6
CONTINUOUS
 10
67.517037
 20
171.461938
 11
66.551111
 21
171.203119
  0
LINE
  8
2
 62
134
  6
CONTINUOUS
 10
67.517037
 20
171.461938
 11
66.551111
 21
171.720758
  0
LINE
  8
2
 62
134
  6
CONTINUOUS
 10
66.551111
 20
171.203119
 11
66.551111
 21
171.720758
  0
TEXT
  8
2
 62
134
  6
CONTINUOUS
 10
46.491141
 20
171.461938
 40
4.000000
 41
0.500000
  1
36
  7
KANJI
 50
0.000000
 51
30.000000
  0
ENDBLK
  0
ENDSEC
  0
SECTION
  2
ENTITIES
  0
LINE
  8
2
 62
134
  6
CONTINUOUS
 10
104.000000
 20
108.512057
 11
104.000000
 21
100.473179
  0
LINE
  8
1
 62
7
  6
CONTINUOUS
 10
145.000000
 20
153.000000
 11
145.000000
 21
155.000000
  0
LINE
  8
1
 62
7
  6
CONTINUOUS
 10
145.000000
 20
155.000000
 11
146.000000
 21
156.000000
  0
LINE
  8
2
 62
134
  6
CONTINUOUS
 10
68.000000
 20
110.046752
 11
68.000000
 21
110.000000
  0
LINE
  8
1
 62
7
  6
CONTINUOUS
 10
32.000000
 20
155.000000
 11
68.000000
 21
155.000000
  0
LINE
  8
1
 62
7
  6
CONTINUOUS
 10
33.000000
 20
156.000000
 11
32.000000
 21
155.000000
  0
LINE
  8
1
 62
7
  6
CONTINUOUS
 10
32.000000
 20
155.000000
 11
32.000000
 21
111.000000
  0
LINE
  8
1
 62
7
  6
CONTINUOUS
 10
32.000000
 20
111.000000
 11
33.000000
 21
110.000000
  0
LINE
  8
1
 62
7
  6
CONTINUOUS
 10
33.000000
 20
110.000000
 11
67.000000
 21
110.000000
  0
LINE
  8
1
 62
7
  6
CONTINUOUS
 10
67.000000
 20
110.000000
 11
68.000000
 21
111.000000
  0
LINE
  8
1
 62
7
  6
CONTINUOUS
 10
68.000000
 20
111.000000
 11
68.000000
 21
155.000000
  0
LINE
  8
1
 62
7
  6
CONTINUOUS
 10
33.000000
 20
156.000000
 11
67.000000
 21
156.000000
  0
LINE
  8
1
 62
7
  6
CONTINUOUS
 10
68.000000
 20
155.000000
 11
67.000000
 21
156.000000
  0
LINE
  8
1
 62
7
  6
DOT
 10
178.712791
 20
141.300000
 11
150.004663
 21
141.300000
  0
LINE
  8
1
 62
7
  6
DOT
 10
191.071677
 20
128.700000
 11
150.004663
 21
128.700000
  0
LINE
  8
1
 62
7
  6
DOT
 10
100.004663
 20
122.000000
 11
146.009326
 21
122.000000
  0
LINE
  8
1
 62
7
  6
DOT
 10
100.004663
 20
122.500000
 11
150.009326
 21
122.500000
  0
LINE
  8
1
 62
7
  6
DOT
 10
146.009326
 20
122.000000
 11
147.103076
 21
122.502741
  0
LINE
  8
1
 62
7
  6
DOT
 10
100.005238
 20
147.500000
 11
150.009901
 21
147.500000
  0
LINE
  8
1
 62
7
  6
DOT
 10
100.005238
 20
148.000000
 11
146.009901
 21
148.000000
  0
LINE
  8
1
 62
7
  6
DOT
 10
146.009901
 20
148.000000
 11
147.109901
 21
147.500000
  0
LINE
  8
1
 62
7
  6
DOT
 10
150.009901
 20
147.500000
 11
150.009326
 21
122.511876
  0
LINE
  8
1
 62
7
  6
DOT
 10
146.009901
 20
148.000000
 11
146.009326
 21
122.000000
  0
LINE
  8
1
 62
7
  6
DOT
 10
147.097686
 20
147.500000
 11
147.097112
 21
122.500000
  0
ARC
  8
1
 62
7
  6
DOT
 10
150.004663
 20
135.000000
 40
30.004663
 50
155.379763
 51
-155.379763
  0
ARC
  8
1
 62
7
  6
DOT
 10
53.000000
 20
135.000000
 40
73.000000
 50
-9.859509
 51
9.859509
  0
LINE
  8
1
 62
7
  6
CONTINUOUS
 10
32.000000
 20
153.000000
 11
68.000000
 21
153.000000
  0
LINE
  8
1
 62
7
  6
DASHDOT
 10
26.993602
 20
135.000000
 11
70.764272
 21
135.000000
  0
CIRCLE
  8
1
 62
7
  6
CONTINUOUS
 10
50.000000
 20
135.000000
 40
12.500000
  0
CIRCLE
  8
1
 62
7
  6
CONTINUOUS
 10
50.000000
 20
135.000000
 40
13.000000
  0
CIRCLE
  8
1
 62
7
  6
CONTINUOUS
 10
50.000000
 20
135.000000
 40
11.500000
  0
LINE
  8
1
 62
7
  6
DOT
 10
192.566314
 20
127.500000
 11
177.566314
 21
142.500000
  0
CIRCLE
  8
1
 62
7
  6
CONTINUOUS
 10
104.000000
 20
117.000000
 40
1.750000
  0
CIRCLE
  8
1
 62
7
  6
CONTINUOUS
 10
124.000000
 20
117.000000
 40
1.750000
  0
CIRCLE
  8
1
 62
7
  6
CONTINUOUS
 10
144.000000
 20
117.000000
 40
1.750000
  0
LINE
  8
1
 62
7
  6
DASHDOT
 10
117.611713
 20
117.000000
 11
129.889272
 21
117.000000
  0
CIRCLE
  8
1
 62
7
  6
CONTINUOUS
 10
164.000000
 20
117.000000
 40
1.750000
  0
CIRCLE
  8
1
 62
7
  6
CONTINUOUS
 10
204.000000
 20
117.000000
 40
1.750000
  0
LINE
  8
1
 62
7
  6
DASHDOT
 10
137.611713
 20
117.000000
 11
149.889272
 21
117.000000
  0
LINE
  8
1
 62
7
  6
DASHDOT
 10
157.611713
 20
117.000000
 11
169.889272
 21
117.000000
  0
LINE
  8
1
 62
7
  6
DASHDOT
 10
197.611713
 20
117.000000
 11
209.889272
 21
117.000000
  0
LINE
  8
1
 62
7
  6
DASHDOT
 10
100.000000
 20
117.000000
 11
108.842028
 21
117.000000
  0
LINE
  8
1
 62
7
  6
DASHDOT
 10
30.281833
 20
117.000000
 11
69.700123
 21
117.000000
  0
LINE
  8
1
 62
7
  6
DOT
 10
113.500000
 20
120.000000
 11
113.500000
 21
110.000000
  0
LINE
  8
1
 62
7
  6
DOT
 10
106.500000
 20
120.000000
 11
106.500000
 21
110.000000
  0
LINE
  8
1
 62
7
  6
DOT
 10
107.000000
 20
122.000000
 11
107.000000
 21
110.000000
  0
LINE
  8
1
 62
7
  6
DOT
 10
113.000000
 20
122.000000
 11
113.000000
 21
110.000000
  0
LINE
  8
5
 62
94
  6
CONTINUOUS
 10
10.000000
 20
10.000000
 11
285.000000
 21
10.000000
  0
LINE
  8
5
 62
94
  6
CONTINUOUS
 10
285.000000
 20
10.000000
 11
285.000000
 21
195.000000
  0
LINE
  8
5
 62
94
  6
CONTINUOUS
 10
285.000000
 20
195.000000
 11
10.000000
 21
195.000000
  0
LINE
  8
5
 62
94
  6
CONTINUOUS
 10
10.000000
 20
195.000000
 11
10.000000
 21
10.000000
  0
TEXT
  8
5
 62
94
  6
CONTINUOUS
 10
210.962748
 20
25.651490
 40
1.750000
 41
4.000000
  1
製図
  7
KANJI
 50
-90.000000
 51
0.000000
  0
TEXT
  8
5
 62
94
  6
CONTINUOUS
 10
230.795530
 20
25.487583
 40
1.750000
 41
4.000000
  1
図番
  7
KANJI
 50
-90.000000
 51
0.000000
  0
TEXT
  8
5
 62
94
  6
CONTINUOUS
 10
230.795530
 20
38.764073
 40
1.750000
 41
4.000000
  1
図　名
  7
KANJI
 50
-90.000000
 51
0.000000
  0
TEXT
  8
5
 62
94
  6
CONTINUOUS
 10
165.888245
 20
33.355132
 40
1.750000
 41
4.000000
  1
日付
  7
KANJI
 50
-90.000000
 51
0.000000
  0
TEXT
  8
5
 62
94
  6
CONTINUOUS
 10
200.964404
 20
33.519040
 40
1.750000
 41
4.000000
  1
図法
  7
KANJI
 50
-90.000000
 51
0.000000
  0
TEXT
  8
5
 62
94
  6
CONTINUOUS
 10
200.800497
 20
41.550497
 40
1.750000
 41
4.000000
  1
尺度
  7
KANJI
 50
-90.000000
 51
0.000000
  0
TEXT
  8
5
 62
94
  6
CONTINUOUS
 10
165.888245
 20
41.386589
 40
1.750000
 41
4.000000
  1
公差
  7
KANJI
 50
-90.000000
 51
0.000000
  0
TEXT
  8
5
 62
94
  6
CONTINUOUS
 10
165.888245
 20
25.487583
 40
1.750000
 41
4.000000
  1
承認
  7
KANJI
 50
-90.000000
 51
0.000000
  0
TEXT
  8
5
 62
94
  6
CONTINUOUS
 10
190.966060
 20
25.487583
 40
1.750000
 41
4.000000
  1
設計
  7
KANJI
 50
-90.000000
 51
0.000000
  0
TEXT
  8
5
 62
94
  6
CONTINUOUS
 10
184.409768
 20
11.555464
 40
4.500000
 41
1.888889
  1
ジャパンセンサー株式会社
  7
KANJI
 50
0.000000
 51
0.000000
  0
LINE
  8
5
 62
94
  6
CONTINUOUS
 10
165.000000
 20
42.000000
 11
285.000000
 21
42.000000
  0
LINE
  8
5
 62
94
  6
CONTINUOUS
 10
165.000000
 20
10.000000
 11
165.000000
 21
42.000000
  0
LINE
  8
5
 62
94
  6
CONTINUOUS
 10
285.000000
 20
18.000000
 11
165.000000
 21
18.000000
  0
LINE
  8
5
 62
94
  6
CONTINUOUS
 10
230.000000
 20
42.000000
 11
230.000000
 21
18.000000
  0
LINE
  8
5
 62
94
  6
CONTINUOUS
 10
285.000000
 20
26.000000
 11
165.000000
 21
26.000000
  0
LINE
  8
5
 62
94
  6
CONTINUOUS
 10
235.000000
 20
18.000000
 11
235.000000
 21
42.000000
  0
LINE
  8
5
 62
94
  6
CONTINUOUS
 10
205.000000
 20
42.000000
 11
205.000000
 21
26.000000
  0
LINE
  8
5
 62
94
  6
CONTINUOUS
 10
170.000000
 20
18.000000
 11
170.000000
 21
42.000000
  0
LINE
  8
5
 62
94
  6
CONTINUOUS
 10
165.000000
 20
34.000000
 11
230.000000
 21
34.000000
  0
LINE
  8
5
 62
94
  6
CONTINUOUS
 10
200.000000
 20
42.000000
 11
200.000000
 21
26.000000
  0
LINE
  8
5
 62
94
  6
CONTINUOUS
 10
190.000000
 20
18.000000
 11
190.000000
 21
26.000000
  0
LINE
  8
5
 62
94
  6
CONTINUOUS
 10
210.000000
 20
18.000000
 11
210.000000
 21
26.000000
  0
LINE
  8
5
 62
94
  6
CONTINUOUS
 10
195.000000
 20
26.000000
 11
195.000000
 21
18.000000
  0
LINE
  8
5
 62
94
  6
CONTINUOUS
 10
215.000000
 20
26.000000
 11
215.000000
 21
18.000000
  0
TEXT
  8
5
 62
94
  6
CONTINUOUS
 10
209.979305
 20
35.649834
 40
4.000000
 41
1.000000
  1
１／１
  7
KANJI
 50
0.000000
 51
0.000000
  0
TEXT
  8
5
 62
94
  6
CONTINUOUS
 10
208.995861
 20
27.290563
 40
4.000000
 41
1.000000
  1
三角法
  7
KANJI
 50
0.000000
 51
0.000000
  0
LINE
  8
5
 62
94
  6
CONTINUOUS
 10
237.702141
 20
34.274852
 11
282.427534
 21
34.274852
  0
TEXT
  8
5
 62
94
  6
CONTINUOUS
 10
198.238558
 20
19.951033
 40
4.000000
 41
1.000000
  1
須藤
  7
KANJI
 50
0.000000
 51
0.000000
  0
DIMENSION
  8
2
 62
134
  6
CONTINUOUS
  2
*D1
 10
212.142717
 20
110.000000
 11
211.642717
 21
113.500000
 70
     0
  1
7
 13
209.005096
 23
110.000000
 14
209.910572
 24
117.000000
 50
90.000000
  0
LINE
  8
2
 62
134
  6
CONTINUOUS
 10
102.818019
 20
115.709488
 11
90.000000
 21
100.000000
  0
LINE
  8
2
 62
134
  6
CONTINUOUS
 10
90.000000
 20
100.000000
 11
75.165984
 21
100.000000
  0
TEXT
  8
2
 62
134
  6
CONTINUOUS
 10
75.165984
 20
100.249820
 40
4.000000
 41
0.583333
  1
5-φ3.5
  7
KANJI
 50
0.000000
 51
30.000000
  0
LINE
  8
2
 62
134
  6
CONTINUOUS
 10
102.818019
 20
115.709488
 11
101.997777
 21
113.885426
  0
LINE
  8
2
 62
134
  6
CONTINUOUS
 10
102.818019
 20
115.709488
 11
101.195638
 21
114.539925
  0
LINE
  8
2
 62
134
  6
CONTINUOUS
 10
101.997777
 20
113.885426
 11
101.195638
 21
114.539925
  0
LINE
  8
2
 62
134
  6
CONTINUOUS
 10
102.512691
 20
115.335285
 11
102.102570
 21
114.423254
  0
LINE
  8
2
 62
134
  6
CONTINUOUS
 10
102.512691
 20
115.335285
 11
101.701500
 21
114.750503
  0
LINE
  8
2
 62
134
  6
CONTINUOUS
 10
102.102570
 20
114.423254
 11
101.701500
 21
114.750503
  0
LINE
  8
1
 62
7
  6
DOT
 10
32.000000
 20
118.750000
 11
68.000000
 21
118.750000
  0
LINE
  8
1
 62
7
  6
DOT
 10
32.000000
 20
115.250000
 11
68.000000
 21
115.250000
  0
CIRCLE
  8
1
 62
7
  6
CONTINUOUS
 10
235.100394
 20
144.000000
 40
1.750000
  0
LINE
  8
1
 62
7
  6
DASHDOT
 10
235.100394
 20
148.846580
 11
235.100394
 21
139.492249
  0
LINE
  8
1
 62
7
  6
CONTINUOUS
 10
274.506152
 20
138.580955
 11
274.511634
 21
138.569866
  0
LINE
  8
1
 62
7
  6
CONTINUOUS
 10
274.511634
 20
138.569866
 11
274.527940
 21
138.536902
  0
LINE
  8
1
 62
7
  6
CONTINUOUS
 10
274.527940
 20
138.536902
 11
274.554708
 21
138.482952
  0
LINE
  8
1
 62
7
  6
CONTINUOUS
 10
274.554708
 20
138.482952
 11
274.591505
 21
138.409457
  0
LINE
  8
1
 62
7
  6
CONTINUOUS
 10
274.591505
 20
138.409457
 11
274.638016
 21
138.318347
  0
LINE
  8
1
 62
7
  6
CONTINUOUS
 10
274.638016
 20
138.318347
 11
274.694199
 21
138.211976
  0
LINE
  8
1
 62
7
  6
CONTINUOUS
 10
274.694199
 20
138.211976
 11
274.760332
 21
138.093052
  0
LINE
  8
1
 62
7
  6
CONTINUOUS
 10
274.760332
 20
138.093052
 11
274.836891
 21
137.964574
  0
LINE
  8
1
 62
7
  6
CONTINUOUS
 10
274.836891
 20
137.964574
 11
274.924279
 21
137.829780
  0
LINE
  8
1
 62
7
  6
CONTINUOUS
 10
274.924279
 20
137.829780
 11
275.022419
 21
137.692100
  0
LINE
  8
1
 62
7
  6
CONTINUOUS
 10
275.022419
 20
137.692100
 11
275.130312
 21
137.555110
  0
LINE
  8
1
 62
7
  6
CONTINUOUS
 10
275.130312
 20
137.555110
 11
275.245660
 21
137.422476
  0
LINE
  8
1
 62
7
  6
CONTINUOUS
 10
275.245660
 20
137.422476
 11
275.364660
 21
137.297887
  0
LINE
  8
1
 62
7
  6
CONTINUOUS
 10
275.364660
 20
137.297887
 11
275.482062
 21
137.184957
  0
LINE
  8
1
 62
7
  6
CONTINUOUS
 10
275.482062
 20
137.184957
 11
275.591507
 21
137.087105
  0
LINE
  8
1
 62
7
  6
CONTINUOUS
 10
275.591507
 20
137.087105
 11
275.686136
 21
137.007413
  0
LINE
  8
1
 62
7
  6
CONTINUOUS
 10
275.686136
 20
137.007413
 11
275.759365
 21
136.948485
  0
LINE
  8
1
 62
7
  6
CONTINUOUS
 10
275.759365
 20
136.948485
 11
275.805728
 21
136.912301
  0
LINE
  8
1
 62
7
  6
CONTINUOUS
 10
275.805728
 20
136.912301
 11
275.821604
 21
136.900098
  0
LINE
  8
1
 62
7
  6
CONTINUOUS
 10
275.821604
 20
136.900098
 11
275.837623
 21
136.887881
  0
LINE
  8
1
 62
7
  6
CONTINUOUS
 10
275.837623
 20
136.887881
 11
275.886076
 21
136.851472
  0
LINE
  8
1
 62
7
  6
CONTINUOUS
 10
275.886076
 20
136.851472
 11
275.967996
 21
136.791614
  0
LINE
  8
1
 62
7
  6
CONTINUOUS
 10
275.967996
 20
136.791614
 11
276.084620
 21
136.709565
  0
LINE
  8
1
 62
7
  6
CONTINUOUS
 10
276.084620
 20
136.709565
 11
276.236766
 21
136.607137
  0
LINE
  8
1
 62
7
  6
CONTINUOUS
 10
276.236766
 20
136.607137
 11
276.424159
 21
136.486708
  0
LINE
  8
1
 62
7
  6
CONTINUOUS
 10
276.424159
 20
136.486708
 11
276.644844
 21
136.351225
  0
LINE
  8
1
 62
7
  6
CONTINUOUS
 10
276.644844
 20
136.351225
 11
276.894807
 21
136.204168
  0
LINE
  8
1
 62
7
  6
CONTINUOUS
 10
276.894807
 20
136.204168
 11
277.167883
 21
136.049479
  0
LINE
  8
1
 62
7
  6
CONTINUOUS
 10
277.167883
 20
136.049479
 11
277.455981
 21
135.891447
  0
LINE
  8
1
 62
7
  6
CONTINUOUS
 10
277.455981
 20
135.891447
 11
277.749562
 21
135.734561
  0
LINE
  8
1
 62
7
  6
CONTINUOUS
 10
277.749562
 20
135.734561
 11
278.038313
 21
135.583348
  0
LINE
  8
1
 62
7
  6
CONTINUOUS
 10
278.038313
 20
135.583348
 11
278.311866
 21
135.442200
  0
LINE
  8
1
 62
7
  6
CONTINUOUS
 10
278.311866
 20
135.442200
 11
278.560477
 21
135.315212
  0
LINE
  8
1
 62
7
  6
CONTINUOUS
 10
278.560477
 20
135.315212
 11
278.775558
 21
135.206041
  0
LINE
  8
1
 62
7
  6
CONTINUOUS
 10
278.775558
 20
135.206041
 11
278.950013
 21
135.117797
  0
LINE
  8
1
 62
7
  6
CONTINUOUS
 10
278.950013
 20
135.117797
 11
279.078395
 21
135.052960
  0
LINE
  8
1
 62
7
  6
CONTINUOUS
 10
279.078395
 20
135.052960
 11
279.156904
 21
135.013331
  0
LINE
  8
1
 62
7
  6
CONTINUOUS
 10
279.156904
 20
135.013331
 11
279.183317
 21
135.000000
  0
LINE
  8
1
 62
7
  6
CONTINUOUS
 10
279.183317
 20
135.000000
 11
279.168117
 21
134.993646
  0
LINE
  8
1
 62
7
  6
CONTINUOUS
 10
279.168117
 20
134.993646
 11
279.122931
 21
134.974751
  0
LINE
  8
1
 62
7
  6
CONTINUOUS
 10
279.122931
 20
134.974751
 11
279.048985
 21
134.943780
  0
LINE
  8
1
 62
7
  6
CONTINUOUS
 10
279.048985
 20
134.943780
 11
278.948275
 21
134.901399
  0
LINE
  8
1
 62
7
  6
CONTINUOUS
 10
278.948275
 20
134.901399
 11
278.823500
 21
134.848344
  0
LINE
  8
1
 62
7
  6
CONTINUOUS
 10
278.823500
 20
134.848344
 11
278.677975
 21
134.785318
  0
LINE
  8
1
 62
7
  6
CONTINUOUS
 10
278.677975
 20
134.785318
 11
278.515540
 21
134.712941
  0
LINE
  8
1
 62
7
  6
CONTINUOUS
 10
278.515540
 20
134.712941
 11
278.340463
 21
134.631803
  0
LINE
  8
1
 62
7
  6
CONTINUOUS
 10
278.340463
 20
134.631803
 11
278.157342
 21
134.542605
  0
LINE
  8
1
 62
7
  6
CONTINUOUS
 10
278.157342
 20
134.542605
 11
277.971008
 21
134.446379
  0
LINE
  8
1
 62
7
  6
CONTINUOUS
 10
277.971008
 20
134.446379
 11
277.786423
 21
134.344732
  0
LINE
  8
1
 62
7
  6
CONTINUOUS
 10
277.786423
 20
134.344732
 11
277.608575
 21
134.240044
  0
LINE
  8
1
 62
7
  6
CONTINUOUS
 10
277.608575
 20
134.240044
 11
277.442364
 21
134.135569
  0
LINE
  8
1
 62
7
  6
CONTINUOUS
 10
277.442364
 20
134.135569
 11
277.292466
 21
134.035375
  0
LINE
  8
1
 62
7
  6
CONTINUOUS
 10
277.292466
 20
134.035375
 11
277.163195
 21
133.944109
  0
LINE
  8
1
 62
7
  6
CONTINUOUS
 10
277.163195
 20
133.944109
 11
277.058355
 21
133.866616
  0
LINE
  8
1
 62
7
  6
CONTINUOUS
 10
277.058355
 20
133.866616
 11
276.981091
 21
133.807437
  0
LINE
  8
1
 62
7
  6
CONTINUOUS
 10
276.981091
 20
133.807437
 11
276.933757
 21
133.770293
  0
LINE
  8
1
 62
7
  6
CONTINUOUS
 10
276.933757
 20
133.770293
 11
276.917815
 21
133.757628
  0
LINE
  8
1
 62
7
  6
CONTINUOUS
 10
276.917815
 20
133.757628
 11
276.901862
 21
133.744876
  0
LINE
  8
1
 62
7
  6
CONTINUOUS
 10
276.901862
 20
133.744876
 11
276.854380
 21
133.706464
  0
LINE
  8
1
 62
7
  6
CONTINUOUS
 10
276.854380
 20
133.706464
 11
276.776495
 21
133.642008
  0
LINE
  8
1
 62
7
  6
CONTINUOUS
 10
276.776495
 20
133.642008
 11
276.670083
 21
133.551160
  0
LINE
  8
1
 62
7
  6
CONTINUOUS
 10
276.670083
 20
133.551160
 11
276.537762
 21
133.433970
  0
LINE
  8
1
 62
7
  6
CONTINUOUS
 10
276.537762
 20
133.433970
 11
276.382865
 21
133.291281
  0
LINE
  8
1
 62
7
  6
CONTINUOUS
 10
276.382865
 20
133.291281
 11
276.209391
 21
133.125069
  0
LINE
  8
1
 62
7
  6
CONTINUOUS
 10
276.209391
 20
133.125069
 11
276.021928
 21
132.938650
  0
LINE
  8
1
 62
7
  6
CONTINUOUS
 10
276.021928
 20
132.938650
 11
275.825544
 21
132.736712
  0
LINE
  8
1
 62
7
  6
CONTINUOUS
 10
275.825544
 20
132.736712
 11
275.625641
 21
132.525156
  0
LINE
  8
1
 62
7
  6
CONTINUOUS
 10
275.625641
 20
132.525156
 11
275.427792
 21
132.310769
  0
LINE
  8
1
 62
7
  6
CONTINUOUS
 10
275.427792
 20
132.310769
 11
275.237559
 21
132.100800
  0
LINE
  8
1
 62
7
  6
CONTINUOUS
 10
275.237559
 20
132.100800
 11
275.060308
 21
131.902490
  0
LINE
  8
1
 62
7
  6
CONTINUOUS
 10
275.060308
 20
131.902490
 11
274.901038
 21
131.722632
  0
LINE
  8
1
 62
7
  6
CONTINUOUS
 10
274.901038
 20
131.722632
 11
274.764222
 21
131.567232
  0
LINE
  8
1
 62
7
  6
CONTINUOUS
 10
274.764222
 20
131.567232
 11
274.653680
 21
131.441272
  0
LINE
  8
1
 62
7
  6
CONTINUOUS
 10
274.653680
 20
131.441272
 11
274.572476
 21
131.348607
  0
LINE
  8
1
 62
7
  6
CONTINUOUS
 10
274.572476
 20
131.348607
 11
274.522847
 21
131.291946
  0
LINE
  8
1
 62
7
  6
CONTINUOUS
 10
274.522847
 20
131.291946
 11
274.506152
 21
131.272884
  0
LINE
  8
1
 62
7
  6
CONTINUOUS
 10
276.917815
 20
136.242372
 11
276.908097
 21
136.233549
  0
LINE
  8
1
 62
7
  6
CONTINUOUS
 10
276.908097
 20
136.233549
 11
276.879217
 21
136.207320
  0
LINE
  8
1
 62
7
  6
CONTINUOUS
 10
276.879217
 20
136.207320
 11
276.832040
 21
136.164404
  0
LINE
  8
1
 62
7
  6
CONTINUOUS
 10
276.832040
 20
136.164404
 11
276.768126
 21
136.105981
  0
LINE
  8
1
 62
7
  6
CONTINUOUS
 10
276.768126
 20
136.105981
 11
276.689862
 21
136.033668
  0
LINE
  8
1
 62
7
  6
CONTINUOUS
 10
276.689862
 20
136.033668
 11
276.600520
 21
135.949479
  0
LINE
  8
1
 62
7
  6
CONTINUOUS
 10
276.600520
 20
135.949479
 11
276.504218
 21
135.855770
  0
LINE
  8
1
 62
7
  6
CONTINUOUS
 10
276.504218
 20
135.855770
 11
276.405701
 21
135.755175
  0
LINE
  8
1
 62
7
  6
CONTINUOUS
 10
276.405701
 20
135.755175
 11
276.309968
 21
135.650521
  0
LINE
  8
1
 62
7
  6
CONTINUOUS
 10
276.309968
 20
135.650521
 11
276.221774
 21
135.544741
  0
LINE
  8
1
 62
7
  6
CONTINUOUS
 10
276.221774
 20
135.544741
 11
276.145081
 21
135.440775
  0
LINE
  8
1
 62
7
  6
CONTINUOUS
 10
276.145081
 20
135.440775
 11
276.082581
 21
135.341481
  0
LINE
  8
1
 62
7
  6
CONTINUOUS
 10
276.082581
 20
135.341481
 11
276.035370
 21
135.249546
  0
LINE
  8
1
 62
7
  6
CONTINUOUS
 10
276.035370
 20
135.249546
 11
276.002874
 21
135.167411
  0
LINE
  8
1
 62
7
  6
CONTINUOUS
 10
276.002874
 20
135.167411
 11
275.983049
 21
135.097209
  0
LINE
  8
1
 62
7
  6
CONTINUOUS
 10
275.983049
 20
135.097209
 11
275.972837
 21
135.040727
  0
LINE
  8
1
 62
7
  6
CONTINUOUS
 10
275.972837
 20
135.040727
 11
275.968802
 21
134.999369
  0
LINE
  8
1
 62
7
  6
CONTINUOUS
 10
275.968802
 20
134.999369
 11
275.967832
 21
134.974149
  0
LINE
  8
1
 62
7
  6
CONTINUOUS
 10
275.967832
 20
134.974149
 11
275.967766
 21
134.965674
  0
LINE
  8
1
 62
7
  6
CONTINUOUS
 10
275.967766
 20
134.965674
 11
275.967832
 21
134.957204
  0
LINE
  8
1
 62
7
  6
CONTINUOUS
 10
275.967832
 20
134.957204
 11
275.968802
 21
134.932054
  0
LINE
  8
1
 62
7
  6
CONTINUOUS
 10
275.968802
 20
134.932054
 11
275.972837
 21
134.890988
  0
LINE
  8
1
 62
7
  6
CONTINUOUS
 10
275.972837
 20
134.890988
 11
275.983049
 21
134.835243
  0
LINE
  8
1
 62
7
  6
CONTINUOUS
 10
275.983049
 20
134.835243
 11
276.002874
 21
134.766475
  0
LINE
  8
1
 62
7
  6
CONTINUOUS
 10
276.002874
 20
134.766475
 11
276.035370
 21
134.686687
  0
LINE
  8
1
 62
7
  6
CONTINUOUS
 10
276.035370
 20
134.686687
 11
276.082581
 21
134.598164
  0
LINE
  8
1
 62
7
  6
CONTINUOUS
 10
276.082581
 20
134.598164
 11
276.145081
 21
134.503387
  0
LINE
  8
1
 62
7
  6
CONTINUOUS
 10
276.145081
 20
134.503387
 11
276.221774
 21
134.404963
  0
LINE
  8
1
 62
7
  6
CONTINUOUS
 10
276.221774
 20
134.404963
 11
276.309968
 21
134.305555
  0
LINE
  8
1
 62
7
  6
CONTINUOUS
 10
276.309968
 20
134.305555
 11
276.405701
 21
134.207819
  0
LINE
  8
1
 62
7
  6
CONTINUOUS
 10
276.405701
 20
134.207819
 11
276.504218
 21
134.114343
  0
LINE
  8
1
 62
7
  6
CONTINUOUS
 10
276.504218
 20
134.114343
 11
276.600520
 21
134.027593
  0
LINE
  8
1
 62
7
  6
CONTINUOUS
 10
276.600520
 20
134.027593
 11
276.689862
 21
133.949860
  0
LINE
  8
1
 62
7
  6
CONTINUOUS
 10
276.689862
 20
133.949860
 11
276.768126
 21
133.883203
  0
LINE
  8
1
 62
7
  6
CONTINUOUS
 10
276.768126
 20
133.883203
 11
276.832040
 21
133.829398
  0
LINE
  8
1
 62
7
  6
CONTINUOUS
 10
276.832040
 20
133.829398
 11
276.879217
 21
133.789891
  0
LINE
  8
1
 62
7
  6
CONTINUOUS
 10
276.879217
 20
133.789891
 11
276.908097
 21
133.765749
  0
LINE
  8
1
 62
7
  6
CONTINUOUS
 10
276.908097
 20
133.765749
 11
276.917815
 21
133.757628
  0
LINE
  8
1
 62
7
  6
CONTINUOUS
 10
100.000000
 20
111.000000
 11
230.000000
 21
111.000000
  0
LINE
  8
1
 62
7
  6
DASHDOT
 10
95.395177
 20
135.000000
 11
234.462106
 21
135.000000
  0
LINE
  8
1
 62
7
  6
CONTINUOUS
 10
230.000000
 20
156.000000
 11
230.000000
 21
153.000000
  0
LINE
  8
1
 62
7
  6
CONTINUOUS
 10
100.000000
 20
153.000000
 11
100.000000
 21
110.000000
  0
LINE
  8
1
 62
7
  6
CONTINUOUS
 10
100.000000
 20
110.000000
 11
230.000000
 21
110.000000
  0
LINE
  8
1
 62
7
  6
CONTINUOUS
 10
230.000000
 20
110.000000
 11
230.000000
 21
153.000000
  0
LINE
  8
1
 62
7
  6
CONTINUOUS
 10
230.000000
 20
153.000000
 11
100.000000
 21
153.000000
  0
LINE
  8
1
 62
7
  6
CONTINUOUS
 10
230.000000
 20
156.000000
 11
146.000000
 21
156.000000
  0
LINE
  8
1
 62
7
  6
CONTINUOUS
 10
145.000000
 20
155.000000
 11
230.000000
 21
155.000000
  0
LINE
  8
1
 62
7
  6
CONTINUOUS
 10
230.100394
 20
147.300000
 11
239.500000
 21
147.300000
  0
LINE
  8
1
 62
7
  6
CONTINUOUS
 10
239.500000
 20
147.300000
 11
240.000000
 21
146.800000
  0
LINE
  8
1
 62
7
  6
CONTINUOUS
 10
240.000000
 20
146.800000
 11
240.000000
 21
120.800000
  0
LINE
  8
1
 62
7
  6
CONTINUOUS
 10
230.100394
 20
120.300000
 11
239.500000
 21
120.300000
  0
LINE
  8
1
 62
7
  6
CONTINUOUS
 10
240.000000
 20
120.800000
 11
239.500000
 21
120.300000
  0
LINE
  8
1
 62
7
  6
CONTINUOUS
 10
230.100394
 20
146.800000
 11
239.500000
 21
146.800000
  0
LINE
  8
1
 62
7
  6
CONTINUOUS
 10
239.500000
 20
146.800000
 11
239.500000
 21
120.800000
  0
LINE
  8
1
 62
7
  6
CONTINUOUS
 10
239.500000
 20
120.800000
 11
230.100394
 21
120.800000
  0
LINE
  8
1
 62
7
  6
DASHDOT
 10
231.315453
 20
144.000000
 11
238.815453
 21
144.000000
  0
LINE
  8
1
 62
7
  6
CONTINUOUS
 10
269.500000
 20
141.026944
 11
270.000000
 21
140.526944
  0
LINE
  8
1
 62
7
  6
CONTINUOUS
 10
270.000000
 20
140.526944
 11
270.000000
 21
129.500000
  0
LINE
  8
1
 62
7
  6
CONTINUOUS
 10
270.000000
 20
129.500000
 11
269.500000
 21
129.000000
  0
LINE
  8
1
 62
7
  6
CONTINUOUS
 10
269.500000
 20
141.024699
 11
269.500000
 21
129.000000
  0
LINE
  8
1
 62
7
  6
DASHDOT
 10
132.296752
 20
135.000000
 11
272.117126
 21
135.000000
  0
LINE
  8
1
 62
7
  6
CONTINUOUS
 10
240.000000
 20
141.026944
 11
269.500000
 21
141.026944
  0
LINE
  8
1
 62
7
  6
CONTINUOUS
 10
240.057825
 20
129.000000
 11
269.500000
 21
129.000000
  0
LINE
  8
1
 62
7
  6
DOT
 10
208.000000
 20
129.000000
 11
240.000000
 21
129.000000
  0
LINE
  8
1
 62
7
  6
DOT
 10
208.000000
 20
141.026944
 11
208.000000
 21
129.000000
  0
LINE
  8
1
 62
7
  6
DOT
 10
240.000000
 20
141.026944
 11
208.000000
 21
141.026944
  0
LINE
  8
1
 62
7
  6
CONTINUOUS
 10
812.509487
 20
100.000000
 11
812.509487
 21
98.000000
  0
LINE
  8
1
 62
7
  6
CONTINUOUS
 10
812.509487
 20
98.000000
 11
797.509487
 21
98.000000
  0
LINE
  8
1
 62
7
  6
CONTINUOUS
 10
797.509487
 20
98.000000
 11
797.509487
 21
100.000000
  0
LINE
  8
1
 62
7
  6
CONTINUOUS
 10
809.521531
 20
92.033805
 11
809.521531
 21
82.055335
  0
LINE
  8
1
 62
7
  6
CONTINUOUS
 10
809.017224
 20
92.055335
 11
809.017224
 21
82.055335
  0
LINE
  8
1
 62
7
  6
CONTINUOUS
 10
808.505659
 20
92.055335
 11
808.505659
 21
82.055335
  0
LINE
  8
1
 62
7
  6
CONTINUOUS
 10
807.994094
 20
92.055335
 11
807.994094
 21
82.055335
  0
LINE
  8
1
 62
7
  6
CONTINUOUS
 10
807.482530
 20
92.055335
 11
807.482530
 21
82.055335
  0
LINE
  8
1
 62
7
  6
CONTINUOUS
 10
806.897884
 20
92.055335
 11
806.897884
 21
82.055335
  0
LINE
  8
1
 62
7
  6
CONTINUOUS
 10
806.313238
 20
92.055335
 11
806.313238
 21
82.055335
  0
LINE
  8
1
 62
7
  6
CONTINUOUS
 10
805.728593
 20
92.055335
 11
805.728593
 21
82.055335
  0
LINE
  8
1
 62
7
  6
CONTINUOUS
 10
805.143947
 20
92.055335
 11
805.143947
 21
82.055335
  0
LINE
  8
1
 62
7
  6
CONTINUOUS
 10
802.732283
 20
92.055335
 11
802.732283
 21
82.055335
  0
LINE
  8
1
 62
7
  6
CONTINUOUS
 10
802.147638
 20
92.055335
 11
802.147638
 21
82.055335
  0
LINE
  8
1
 62
7
  6
CONTINUOUS
 10
801.562992
 20
92.055335
 11
801.562992
 21
82.055335
  0
LINE
  8
1
 62
7
  6
CONTINUOUS
 10
800.978346
 20
92.055335
 11
800.978346
 21
82.055335
  0
LINE
  8
1
 62
7
  6
CONTINUOUS
 10
804.486220
 20
92.055335
 11
804.486220
 21
82.055335
  0
LINE
  8
1
 62
7
  6
CONTINUOUS
 10
803.901575
 20
92.055335
 11
803.901575
 21
82.055335
  0
LINE
  8
1
 62
7
  6
CONTINUOUS
 10
803.316929
 20
92.055335
 11
803.316929
 21
82.055335
  0
LINE
  8
1
 62
7
  6
CONTINUOUS
 10
800.439715
 20
91.995050
 11
800.439715
 21
82.131861
  0
LINE
  8
1
 62
7
  6
CONTINUOUS
 10
800.500000
 20
78.055335
 11
800.500000
 21
55.555335
  0
LINE
  8
1
 62
7
  6
CONTINUOUS
 10
800.500000
 20
55.555335
 11
809.500000
 21
55.555335
  0
LINE
  8
1
 62
7
  6
CONTINUOUS
 10
809.500000
 20
55.555335
 11
809.500000
 21
78.055335
  0
LINE
  8
1
 62
7
  6
CONTINUOUS
 10
808.000000
 20
54.555335
 11
808.000000
 21
53.555335
  0
LINE
  8
1
 62
7
  6
CONTINUOUS
 10
808.000000
 20
52.555335
 11
808.000000
 21
51.555335
  0
LINE
  8
1
 62
7
  6
CONTINUOUS
 10
808.000000
 20
50.555335
 11
808.000000
 21
49.555335
  0
LINE
  8
1
 62
7
  6
CONTINUOUS
 10
808.000000
 20
48.555335
 11
808.000000
 21
47.555335
  0
LINE
  8
1
 62
7
  6
CONTINUOUS
 10
808.000000
 20
46.555335
 11
808.000000
 21
45.555335
  0
LINE
  8
1
 62
7
  6
CONTINUOUS
 10
808.000000
 20
44.555335
 11
808.000000
 21
43.555335
  0
LINE
  8
1
 62
7
  6
CONTINUOUS
 10
808.000000
 20
42.555335
 11
808.000000
 21
41.555335
  0
LINE
  8
1
 62
7
  6
CONTINUOUS
 10
808.000000
 20
40.555335
 11
808.000000
 21
39.555335
  0
LINE
  8
1
 62
7
  6
CONTINUOUS
 10
808.000000
 20
38.555335
 11
808.000000
 21
37.555335
  0
LINE
  8
1
 62
7
  6
CONTINUOUS
 10
807.500000
 20
36.555335
 11
808.000000
 21
36.555335
  0
LINE
  8
1
 62
7
  6
CONTINUOUS
 10
802.000000
 20
53.555335
 11
802.000000
 21
52.555335
  0
LINE
  8
1
 62
7
  6
CONTINUOUS
 10
802.000000
 20
51.555335
 11
802.000000
 21
50.555335
  0
LINE
  8
1
 62
7
  6
CONTINUOUS
 10
802.000000
 20
49.555335
 11
802.000000
 21
48.555335
  0
LINE
  8
1
 62
7
  6
CONTINUOUS
 10
802.000000
 20
47.555335
 11
802.000000
 21
46.555335
  0
LINE
  8
1
 62
7
  6
CONTINUOUS
 10
802.000000
 20
45.555335
 11
802.000000
 21
44.555335
  0
LINE
  8
1
 62
7
  6
CONTINUOUS
 10
802.000000
 20
43.555335
 11
802.000000
 21
42.555335
  0
LINE
  8
1
 62
7
  6
CONTINUOUS
 10
802.000000
 20
41.555335
 11
802.000000
 21
40.555335
  0
LINE
  8
1
 62
7
  6
CONTINUOUS
 10
802.000000
 20
39.555335
 11
802.000000
 21
38.555335
  0
LINE
  8
1
 62
7
  6
CONTINUOUS
 10
802.000000
 20
37.555335
 11
802.000000
 21
36.555335
  0
LINE
  8
1
 62
7
  6
CONTINUOUS
 10
808.000000
 20
54.555335
 11
802.000000
 21
53.555335
  0
LINE
  8
1
 62
7
  6
CONTINUOUS
 10
808.000000
 20
53.555335
 11
802.000000
 21
52.555335
  0
LINE
  8
1
 62
7
  6
CONTINUOUS
 10
808.000000
 20
52.555335
 11
802.000000
 21
51.555335
  0
LINE
  8
1
 62
7
  6
CONTINUOUS
 10
808.000000
 20
51.555335
 11
802.000000
 21
50.555335
  0
LINE
  8
1
 62
7
  6
CONTINUOUS
 10
808.000000
 20
50.555335
 11
802.000000
 21
49.555335
  0
LINE
  8
1
 62
7
  6
CONTINUOUS
 10
808.000000
 20
49.555335
 11
802.000000
 21
48.555335
  0
LINE
  8
1
 62
7
  6
CONTINUOUS
 10
808.000000
 20
48.555335
 11
802.000000
 21
47.555335
  0
LINE
  8
1
 62
7
  6
CONTINUOUS
 10
808.000000
 20
47.555335
 11
802.000000
 21
46.555335
  0
LINE
  8
1
 62
7
  6
CONTINUOUS
 10
808.000000
 20
46.555335
 11
802.000000
 21
45.555335
  0
LINE
  8
1
 62
7
  6
CONTINUOUS
 10
808.000000
 20
45.555335
 11
802.000000
 21
44.555335
  0
LINE
  8
1
 62
7
  6
CONTINUOUS
 10
808.000000
 20
44.555335
 11
802.000000
 21
43.555335
  0
LINE
  8
1
 62
7
  6
CONTINUOUS
 10
808.000000
 20
43.555335
 11
802.000000
 21
42.555335
  0
LINE
  8
1
 62
7
  6
CONTINUOUS
 10
808.000000
 20
42.555335
 11
802.000000
 21
41.555335
  0
LINE
  8
1
 62
7
  6
CONTINUOUS
 10
808.000000
 20
41.555335
 11
802.000000
 21
40.555335
  0
LINE
  8
1
 62
7
  6
CONTINUOUS
 10
808.000000
 20
40.555335
 11
802.000000
 21
39.555335
  0
LINE
  8
1
 62
7
  6
CONTINUOUS
 10
808.000000
 20
39.555335
 11
802.000000
 21
38.555335
  0
LINE
  8
1
 62
7
  6
CONTINUOUS
 10
808.000000
 20
38.555335
 11
802.000000
 21
37.555335
  0
LINE
  8
1
 62
7
  6
CONTINUOUS
 10
808.000000
 20
37.555335
 11
802.000000
 21
36.555335
  0
LINE
  8
1
 62
7
  6
CONTINUOUS
 10
807.500000
 20
36.555335
 11
802.000000
 21
36.555335
  0
LINE
  8
1
 62
7
  6
CONTINUOUS
 10
807.500000
 20
55.555335
 11
807.500000
 21
54.472002
  0
LINE
  8
1
 62
7
  6
CONTINUOUS
 10
807.500000
 20
53.472002
 11
807.500000
 21
52.472002
  0
LINE
  8
1
 62
7
  6
CONTINUOUS
 10
807.500000
 20
51.472002
 11
807.500000
 21
50.472002
  0
LINE
  8
1
 62
7
  6
CONTINUOUS
 10
807.500000
 20
49.472002
 11
807.500000
 21
48.472002
  0
LINE
  8
1
 62
7
  6
CONTINUOUS
 10
807.500000
 20
47.472002
 11
807.500000
 21
46.472002
  0
LINE
  8
1
 62
7
  6
CONTINUOUS
 10
807.500000
 20
45.472002
 11
807.500000
 21
44.472002
  0
LINE
  8
1
 62
7
  6
CONTINUOUS
 10
807.500000
 20
43.472002
 11
807.500000
 21
42.472002
  0
LINE
  8
1
 62
7
  6
CONTINUOUS
 10
807.500000
 20
41.472002
 11
807.500000
 21
40.472002
  0
LINE
  8
1
 62
7
  6
CONTINUOUS
 10
807.500000
 20
39.472002
 11
807.500000
 21
38.472002
  0
LINE
  8
1
 62
7
  6
CONTINUOUS
 10
807.500000
 20
37.472002
 11
807.500000
 21
36.555335
  0
LINE
  8
1
 62
7
  6
CONTINUOUS
 10
802.500000
 20
38.638669
 11
802.500000
 21
37.638669
  0
LINE
  8
1
 62
7
  6
CONTINUOUS
 10
802.500000
 20
40.638669
 11
802.500000
 21
39.638669
  0
LINE
  8
1
 62
7
  6
CONTINUOUS
 10
802.500000
 20
42.539095
 11
802.500000
 21
41.638669
  0
LINE
  8
1
 62
7
  6
CONTINUOUS
 10
802.500000
 20
44.638669
 11
802.500000
 21
43.638669
  0
LINE
  8
1
 62
7
  6
CONTINUOUS
 10
802.500000
 20
46.638669
 11
802.500000
 21
45.638669
  0
LINE
  8
1
 62
7
  6
CONTINUOUS
 10
802.500000
 20
48.638669
 11
802.500000
 21
47.638669
  0
LINE
  8
1
 62
7
  6
CONTINUOUS
 10
802.500000
 20
50.638669
 11
802.500000
 21
49.638669
  0
LINE
  8
1
 62
7
  6
CONTINUOUS
 10
802.500000
 20
52.638669
 11
802.500000
 21
51.638669
  0
LINE
  8
1
 62
7
  6
CONTINUOUS
 10
802.500000
 20
54.539095
 11
802.500000
 21
53.638669
  0
LINE
  8
1
 62
7
  6
CONTINUOUS
 10
807.500000
 20
55.555335
 11
801.996063
 21
54.454548
  0
LINE
  8
1
 62
7
  6
CONTINUOUS
 10
802.500000
 20
55.555335
 11
802.000000
 21
55.468717
  0
LINE
  8
1
 62
7
  6
CONTINUOUS
 10
802.000000
 20
55.468717
 11
802.000000
 21
54.455335
  0
LINE
  8
1
 62
7
  6
CONTINUOUS
 10
802.500000
 20
54.564071
 11
802.500000
 21
54.555335
  0
LINE
  8
1
 62
7
  6
CONTINUOUS
 10
809.000000
 20
78.055335
 11
801.000000
 21
78.055335
  0
LINE
  8
1
 62
7
  6
CONTINUOUS
 10
809.500000
 20
78.055335
 11
800.500000
 21
78.055335
  0
LINE
  8
1
 62
7
  6
CONTINUOUS
 10
809.000000
 20
82.055335
 11
809.000000
 21
78.096059
  0
LINE
  8
1
 62
7
  6
CONTINUOUS
 10
801.000000
 20
78.096059
 11
801.000000
 21
82.055335
  0
LINE
  8
1
 62
7
  6
CONTINUOUS
 10
808.500000
 20
96.055335
 11
801.500000
 21
96.055335
  0
LINE
  8
1
 62
7
  6
CONTINUOUS
 10
809.000000
 20
96.055335
 11
801.000000
 21
96.055335
  0
LINE
  8
1
 62
7
  6
CONTINUOUS
 10
809.000000
 20
92.055335
 11
809.000000
 21
96.055335
  0
LINE
  8
1
 62
7
  6
CONTINUOUS
 10
801.000000
 20
96.055335
 11
801.000000
 21
92.055335
  0
LINE
  8
1
 62
7
  6
CONTINUOUS
 10
810.000000
 20
91.555335
 11
809.500000
 21
92.055335
  0
LINE
  8
1
 62
7
  6
CONTINUOUS
 10
800.500000
 20
92.055335
 11
800.000000
 21
91.555335
  0
LINE
  8
1
 62
7
  6
CONTINUOUS
 10
800.000000
 20
91.555335
 11
800.000000
 21
82.555335
  0
LINE
  8
1
 62
7
  6
CONTINUOUS
 10
800.000000
 20
82.555335
 11
800.500000
 21
82.055335
  0
LINE
  8
1
 62
7
  6
CONTINUOUS
 10
800.500000
 20
82.055335
 11
809.500000
 21
82.055335
  0
LINE
  8
1
 62
7
  6
CONTINUOUS
 10
810.000000
 20
91.555335
 11
810.000000
 21
82.555335
  0
LINE
  8
1
 62
7
  6
CONTINUOUS
 10
809.500000
 20
82.055335
 11
810.000000
 21
82.555335
  0
LINE
  8
1
 62
7
  6
CONTINUOUS
 10
801.000000
 20
92.055335
 11
809.000000
 21
92.055335
  0
LINE
  8
1
 62
7
  6
CONTINUOUS
 10
809.500000
 20
92.055335
 11
800.500000
 21
92.055335
  0
LINE
  8
1
 62
7
  6
CONTINUOUS
 10
808.500000
 20
98.000000
 11
808.500000
 21
96.055335
  0
LINE
  8
1
 62
7
  6
CONTINUOUS
 10
801.500000
 20
96.055335
 11
801.500000
 21
98.000000
  0
LINE
  8
1
 62
7
  6
DASHDOT
 10
805.000000
 20
125.000000
 11
805.000000
 21
41.225734
  0
LINE
  8
2
 62
134
  6
CONTINUOUS
 10
708.575295
 20
125.000000
 11
716.638287
 21
125.000000
  0
LINE
  8
1
 62
7
  6
CONTINUOUS
 10
765.000000
 20
143.000000
 11
765.000000
 21
145.000000
  0
LINE
  8
1
 62
7
  6
CONTINUOUS
 10
765.000000
 20
145.000000
 11
766.000000
 21
146.000000
  0
LINE
  8
2
 62
134
  6
CONTINUOUS
 10
688.000000
 20
100.046752
 11
688.000000
 21
100.000000
  0
LINE
  8
2
 62
134
  6
CONTINUOUS
 10
688.000000
 20
100.000000
 11
695.770669
 21
100.000000
  0
LINE
  8
2
 62
134
  6
CONTINUOUS
 10
688.000000
 20
146.000000
 11
695.770669
 21
146.000000
  0
LINE
  8
1
 62
7
  6
CONTINUOUS
 10
652.000000
 20
145.000000
 11
688.000000
 21
145.000000
  0
LINE
  8
1
 62
7
  6
CONTINUOUS
 10
653.000000
 20
146.000000
 11
652.000000
 21
145.000000
  0
LINE
  8
1
 62
7
  6
CONTINUOUS
 10
652.000000
 20
145.000000
 11
652.000000
 21
101.000000
  0
LINE
  8
1
 62
7
  6
CONTINUOUS
 10
652.000000
 20
101.000000
 11
653.000000
 21
100.000000
  0
LINE
  8
1
 62
7
  6
CONTINUOUS
 10
653.000000
 20
100.000000
 11
687.000000
 21
100.000000
  0
LINE
  8
1
 62
7
  6
CONTINUOUS
 10
687.000000
 20
100.000000
 11
688.000000
 21
101.000000
  0
LINE
  8
1
 62
7
  6
CONTINUOUS
 10
688.000000
 20
101.000000
 11
688.000000
 21
145.000000
  0
LINE
  8
1
 62
7
  6
CONTINUOUS
 10
653.000000
 20
146.000000
 11
687.000000
 21
146.000000
  0
LINE
  8
1
 62
7
  6
CONTINUOUS
 10
688.000000
 20
145.000000
 11
687.000000
 21
146.000000
  0
LINE
  8
1
 62
7
  6
DASHDOT
 10
764.000000
 20
110.000000
 11
764.000000
 21
101.069882
  0
LINE
  8
1
 62
7
  6
DASHDOT
 10
744.000000
 20
110.000000
 11
744.000000
 21
100.777559
  0
LINE
  8
1
 62
7
  6
DASHDOT
 10
724.000000
 20
110.000000
 11
724.000000
 21
100.000000
  0
LINE
  8
1
 62
7
  6
DASHDOT
 10
784.000000
 20
108.555544
 11
784.000000
 21
101.069882
  0
LINE
  8
1
 62
7
  6
DOT
 10
798.712791
 20
131.300000
 11
770.004663
 21
131.300000
  0
LINE
  8
1
 62
7
  6
DOT
 10
811.071677
 20
118.700000
 11
770.004663
 21
118.700000
  0
LINE
  8
1
 62
7
  6
DOT
 10
720.004663
 20
112.000000
 11
766.009326
 21
112.000000
  0
LINE
  8
1
 62
7
  6
DOT
 10
720.004663
 20
112.500000
 11
770.009326
 21
112.500000
  0
LINE
  8
1
 62
7
  6
DOT
 10
766.009326
 20
112.000000
 11
767.103076
 21
112.502741
  0
LINE
  8
1
 62
7
  6
DOT
 10
720.005238
 20
137.500000
 11
770.009901
 21
137.500000
  0
LINE
  8
1
 62
7
  6
DOT
 10
720.005238
 20
138.000000
 11
766.009901
 21
138.000000
  0
LINE
  8
1
 62
7
  6
DOT
 10
766.009901
 20
138.000000
 11
767.109901
 21
137.500000
  0
LINE
  8
1
 62
7
  6
DOT
 10
770.009901
 20
137.500000
 11
770.009326
 21
112.511876
  0
LINE
  8
1
 62
7
  6
DOT
 10
766.009901
 20
138.000000
 11
766.009326
 21
112.000000
  0
LINE
  8
1
 62
7
  6
DOT
 10
767.097686
 20
137.500000
 11
767.097112
 21
112.500000
  0
ARC
  8
1
 62
7
  6
DOT
 10
770.004663
 20
125.000000
 40
30.004663
 50
155.379763
 51
-155.379763
  0
ARC
  8
1
 62
7
  6
DOT
 10
673.000000
 20
125.000000
 40
73.000000
 50
-9.859509
 51
9.859509
  0
ARC
  8
1
 62
7
  6
DOT
 10
708.000000
 20
125.000000
 40
40.010634
 50
-18.208484
 51
18.208484
  0
ARC
  8
1
 62
7
  6
DOT
 10
676.700000
 20
125.000000
 40
73.300000
 50
-9.943788
 51
9.677671
  0
LINE
  8
1
 62
7
  6
CONTINUOUS
 10
652.000000
 20
143.000000
 11
688.000000
 21
143.000000
  0
LINE
  8
1
 62
7
  6
DASHDOT
 10
646.993602
 20
125.000000
 11
690.764272
 21
125.000000
  0
CIRCLE
  8
1
 62
7
  6
CONTINUOUS
 10
670.000000
 20
125.000000
 40
12.500000
  0
CIRCLE
  8
1
 62
7
  6
CONTINUOUS
 10
670.000000
 20
125.000000
 40
13.000000
  0
CIRCLE
  8
1
 62
7
  6
CONTINUOUS
 10
670.000000
 20
125.000000
 40
11.500000
  0
LINE
  8
1
 62
7
  6
DOT
 10
812.566314
 20
117.500000
 11
797.566314
 21
132.500000
  0
CIRCLE
  8
1
 62
7
  6
CONTINUOUS
 10
724.000000
 20
107.000000
 40
1.750000
  0
CIRCLE
  8
1
 62
7
  6
CONTINUOUS
 10
744.000000
 20
107.000000
 40
1.750000
  0
CIRCLE
  8
1
 62
7
  6
CONTINUOUS
 10
764.000000
 20
107.000000
 40
1.750000
  0
LINE
  8
1
 62
7
  6
DASHDOT
 10
737.611713
 20
107.000000
 11
749.889272
 21
107.000000
  0
CIRCLE
  8
1
 62
7
  6
CONTINUOUS
 10
784.000000
 20
107.000000
 40
1.750000
  0
CIRCLE
  8
1
 62
7
  6
CONTINUOUS
 10
824.000000
 20
107.000000
 40
1.750000
  0
LINE
  8
1
 62
7
  6
DASHDOT
 10
757.611713
 20
107.000000
 11
769.889272
 21
107.000000
  0
LINE
  8
1
 62
7
  6
DASHDOT
 10
777.611713
 20
107.000000
 11
789.889272
 21
107.000000
  0
LINE
  8
1
 62
7
  6
DASHDOT
 10
720.000000
 20
107.000000
 11
728.842028
 21
107.000000
  0
LINE
  8
1
 62
7
  6
DASHDOT
 10
650.281833
 20
107.000000
 11
689.700123
 21
107.000000
  0
LINE
  8
1
 62
7
  6
DOT
 10
733.500000
 20
110.000000
 11
733.500000
 21
100.000000
  0
LINE
  8
1
 62
7
  6
DOT
 10
726.500000
 20
110.000000
 11
726.500000
 21
100.000000
  0
LINE
  8
1
 62
7
  6
DOT
 10
727.000000
 20
112.000000
 11
727.000000
 21
100.000000
  0
LINE
  8
1
 62
7
  6
DOT
 10
733.000000
 20
112.000000
 11
733.000000
 21
100.000000
  0
LINE
  8
1
 62
7
  6
DOT
 10
730.000000
 20
113.997438
 11
730.000000
 21
100.000000
  0
LINE
  8
1
 62
7
  6
DOT
 10
652.000000
 20
108.750000
 11
688.000000
 21
108.750000
  0
LINE
  8
1
 62
7
  6
DOT
 10
652.000000
 20
105.250000
 11
688.000000
 21
105.250000
  0
LINE
  8
1
 62
7
  6
CONTINUOUS
 10
677.509487
 20
100.000000
 11
677.509487
 21
98.000000
  0
LINE
  8
1
 62
7
  6
CONTINUOUS
 10
677.509487
 20
98.000000
 11
662.509487
 21
98.000000
  0
LINE
  8
1
 62
7
  6
CONTINUOUS
 10
662.509487
 20
98.000000
 11
662.509487
 21
100.000000
  0
LINE
  8
1
 62
7
  6
CONTINUOUS
 10
674.521531
 20
92.033805
 11
674.521531
 21
82.055335
  0
LINE
  8
1
 62
7
  6
CONTINUOUS
 10
674.017224
 20
92.055335
 11
674.017224
 21
82.055335
  0
LINE
  8
1
 62
7
  6
CONTINUOUS
 10
673.505659
 20
92.055335
 11
673.505659
 21
82.055335
  0
LINE
  8
1
 62
7
  6
CONTINUOUS
 10
672.994094
 20
92.055335
 11
672.994094
 21
82.055335
  0
LINE
  8
1
 62
7
  6
CONTINUOUS
 10
672.482530
 20
92.055335
 11
672.482530
 21
82.055335
  0
LINE
  8
1
 62
7
  6
CONTINUOUS
 10
671.897884
 20
92.055335
 11
671.897884
 21
82.055335
  0
LINE
  8
1
 62
7
  6
CONTINUOUS
 10
671.313238
 20
92.055335
 11
671.313238
 21
82.055335
  0
LINE
  8
1
 62
7
  6
CONTINUOUS
 10
670.728593
 20
92.055335
 11
670.728593
 21
82.055335
  0
LINE
  8
1
 62
7
  6
CONTINUOUS
 10
670.143947
 20
92.055335
 11
670.143947
 21
82.055335
  0
LINE
  8
1
 62
7
  6
CONTINUOUS
 10
667.732283
 20
92.055335
 11
667.732283
 21
82.055335
  0
LINE
  8
1
 62
7
  6
CONTINUOUS
 10
667.147638
 20
92.055335
 11
667.147638
 21
82.055335
  0
LINE
  8
1
 62
7
  6
CONTINUOUS
 10
666.562992
 20
92.055335
 11
666.562992
 21
82.055335
  0
LINE
  8
1
 62
7
  6
CONTINUOUS
 10
665.978346
 20
92.055335
 11
665.978346
 21
82.055335
  0
LINE
  8
1
 62
7
  6
CONTINUOUS
 10
669.486220
 20
92.055335
 11
669.486220
 21
82.055335
  0
LINE
  8
1
 62
7
  6
CONTINUOUS
 10
668.901575
 20
92.055335
 11
668.901575
 21
82.055335
  0
LINE
  8
1
 62
7
  6
CONTINUOUS
 10
668.316929
 20
92.055335
 11
668.316929
 21
82.055335
  0
LINE
  8
1
 62
7
  6
CONTINUOUS
 10
665.439715
 20
91.995050
 11
665.439715
 21
82.131861
  0
LINE
  8
1
 62
7
  6
CONTINUOUS
 10
665.500000
 20
78.055335
 11
665.500000
 21
55.555335
  0
LINE
  8
1
 62
7
  6
CONTINUOUS
 10
665.500000
 20
55.555335
 11
674.500000
 21
55.555335
  0
LINE
  8
1
 62
7
  6
CONTINUOUS
 10
674.500000
 20
55.555335
 11
674.500000
 21
78.055335
  0
LINE
  8
1
 62
7
  6
CONTINUOUS
 10
673.000000
 20
54.555335
 11
673.000000
 21
53.555335
  0
LINE
  8
1
 62
7
  6
CONTINUOUS
 10
673.000000
 20
52.555335
 11
673.000000
 21
51.555335
  0
LINE
  8
1
 62
7
  6
CONTINUOUS
 10
673.000000
 20
50.555335
 11
673.000000
 21
49.555335
  0
LINE
  8
1
 62
7
  6
CONTINUOUS
 10
673.000000
 20
48.555335
 11
673.000000
 21
47.555335
  0
LINE
  8
1
 62
7
  6
CONTINUOUS
 10
673.000000
 20
46.555335
 11
673.000000
 21
45.555335
  0
LINE
  8
1
 62
7
  6
CONTINUOUS
 10
673.000000
 20
44.555335
 11
673.000000
 21
43.555335
  0
LINE
  8
1
 62
7
  6
CONTINUOUS
 10
673.000000
 20
42.555335
 11
673.000000
 21
41.555335
  0
LINE
  8
1
 62
7
  6
CONTINUOUS
 10
673.000000
 20
40.555335
 11
673.000000
 21
39.555335
  0
LINE
  8
1
 62
7
  6
CONTINUOUS
 10
673.000000
 20
38.555335
 11
673.000000
 21
37.555335
  0
LINE
  8
1
 62
7
  6
CONTINUOUS
 10
672.500000
 20
36.555335
 11
673.000000
 21
36.555335
  0
LINE
  8
1
 62
7
  6
CONTINUOUS
 10
667.000000
 20
53.555335
 11
667.000000
 21
52.555335
  0
LINE
  8
1
 62
7
  6
CONTINUOUS
 10
667.000000
 20
51.555335
 11
667.000000
 21
50.555335
  0
LINE
  8
1
 62
7
  6
CONTINUOUS
 10
667.000000
 20
49.555335
 11
667.000000
 21
48.555335
  0
LINE
  8
1
 62
7
  6
CONTINUOUS
 10
667.000000
 20
47.555335
 11
667.000000
 21
46.555335
  0
LINE
  8
1
 62
7
  6
CONTINUOUS
 10
667.000000
 20
45.555335
 11
667.000000
 21
44.555335
  0
LINE
  8
1
 62
7
  6
CONTINUOUS
 10
667.000000
 20
43.555335
 11
667.000000
 21
42.555335
  0
LINE
  8
1
 62
7
  6
CONTINUOUS
 10
667.000000
 20
41.555335
 11
667.000000
 21
40.555335
  0
LINE
  8
1
 62
7
  6
CONTINUOUS
 10
667.000000
 20
39.555335
 11
667.000000
 21
38.555335
  0
LINE
  8
1
 62
7
  6
CONTINUOUS
 10
667.000000
 20
37.555335
 11
667.000000
 21
36.555335
  0
LINE
  8
1
 62
7
  6
CONTINUOUS
 10
673.000000
 20
54.555335
 11
667.000000
 21
53.555335
  0
LINE
  8
1
 62
7
  6
CONTINUOUS
 10
673.000000
 20
53.555335
 11
667.000000
 21
52.555335
  0
LINE
  8
1
 62
7
  6
CONTINUOUS
 10
673.000000
 20
52.555335
 11
667.000000
 21
51.555335
  0
LINE
  8
1
 62
7
  6
CONTINUOUS
 10
673.000000
 20
51.555335
 11
667.000000
 21
50.555335
  0
LINE
  8
1
 62
7
  6
CONTINUOUS
 10
673.000000
 20
50.555335
 11
667.000000
 21
49.555335
  0
LINE
  8
1
 62
7
  6
CONTINUOUS
 10
673.000000
 20
49.555335
 11
667.000000
 21
48.555335
  0
LINE
  8
1
 62
7
  6
CONTINUOUS
 10
673.000000
 20
48.555335
 11
667.000000
 21
47.555335
  0
LINE
  8
1
 62
7
  6
CONTINUOUS
 10
673.000000
 20
47.555335
 11
667.000000
 21
46.555335
  0
LINE
  8
1
 62
7
  6
CONTINUOUS
 10
673.000000
 20
46.555335
 11
667.000000
 21
45.555335
  0
LINE
  8
1
 62
7
  6
CONTINUOUS
 10
673.000000
 20
45.555335
 11
667.000000
 21
44.555335
  0
LINE
  8
1
 62
7
  6
CONTINUOUS
 10
673.000000
 20
44.555335
 11
667.000000
 21
43.555335
  0
LINE
  8
1
 62
7
  6
CONTINUOUS
 10
673.000000
 20
43.555335
 11
667.000000
 21
42.555335
  0
LINE
  8
1
 62
7
  6
CONTINUOUS
 10
673.000000
 20
42.555335
 11
667.000000
 21
41.555335
  0
LINE
  8
1
 62
7
  6
CONTINUOUS
 10
673.000000
 20
41.555335
 11
667.000000
 21
40.555335
  0
LINE
  8
1
 62
7
  6
CONTINUOUS
 10
673.000000
 20
40.555335
 11
667.000000
 21
39.555335
  0
LINE
  8
1
 62
7
  6
CONTINUOUS
 10
673.000000
 20
39.555335
 11
667.000000
 21
38.555335
  0
LINE
  8
1
 62
7
  6
CONTINUOUS
 10
673.000000
 20
38.555335
 11
667.000000
 21
37.555335
  0
LINE
  8
1
 62
7
  6
CONTINUOUS
 10
673.000000
 20
37.555335
 11
667.000000
 21
36.555335
  0
LINE
  8
1
 62
7
  6
CONTINUOUS
 10
672.500000
 20
36.555335
 11
667.000000
 21
36.555335
  0
LINE
  8
1
 62
7
  6
CONTINUOUS
 10
672.500000
 20
55.555335
 11
672.500000
 21
54.472002
  0
LINE
  8
1
 62
7
  6
CONTINUOUS
 10
672.500000
 20
53.472002
 11
672.500000
 21
52.472002
  0
LINE
  8
1
 62
7
  6
CONTINUOUS
 10
672.500000
 20
51.472002
 11
672.500000
 21
50.472002
  0
LINE
  8
1
 62
7
  6
CONTINUOUS
 10
672.500000
 20
49.472002
 11
672.500000
 21
48.472002
  0
LINE
  8
1
 62
7
  6
CONTINUOUS
 10
672.500000
 20
47.472002
 11
672.500000
 21
46.472002
  0
LINE
  8
1
 62
7
  6
CONTINUOUS
 10
672.500000
 20
45.472002
 11
672.500000
 21
44.472002
  0
LINE
  8
1
 62
7
  6
CONTINUOUS
 10
672.500000
 20
43.472002
 11
672.500000
 21
42.472002
  0
LINE
  8
1
 62
7
  6
CONTINUOUS
 10
672.500000
 20
41.472002
 11
672.500000
 21
40.472002
  0
LINE
  8
1
 62
7
  6
CONTINUOUS
 10
672.500000
 20
39.472002
 11
672.500000
 21
38.472002
  0
LINE
  8
1
 62
7
  6
CONTINUOUS
 10
672.500000
 20
37.472002
 11
672.500000
 21
36.555335
  0
LINE
  8
1
 62
7
  6
CONTINUOUS
 10
667.500000
 20
38.638669
 11
667.500000
 21
37.638669
  0
LINE
  8
1
 62
7
  6
CONTINUOUS
 10
667.500000
 20
40.638669
 11
667.500000
 21
39.638669
  0
LINE
  8
1
 62
7
  6
CONTINUOUS
 10
667.500000
 20
42.539095
 11
667.500000
 21
41.638669
  0
LINE
  8
1
 62
7
  6
CONTINUOUS
 10
667.500000
 20
44.638669
 11
667.500000
 21
43.638669
  0
LINE
  8
1
 62
7
  6
CONTINUOUS
 10
667.500000
 20
46.638669
 11
667.500000
 21
45.638669
  0
LINE
  8
1
 62
7
  6
CONTINUOUS
 10
667.500000
 20
48.638669
 11
667.500000
 21
47.638669
  0
LINE
  8
1
 62
7
  6
CONTINUOUS
 10
667.500000
 20
50.638669
 11
667.500000
 21
49.638669
  0
LINE
  8
1
 62
7
  6
CONTINUOUS
 10
667.500000
 20
52.638669
 11
667.500000
 21
51.638669
  0
LINE
  8
1
 62
7
  6
CONTINUOUS
 10
667.500000
 20
54.539095
 11
667.500000
 21
53.638669
  0
LINE
  8
1
 62
7
  6
CONTINUOUS
 10
672.500000
 20
55.555335
 11
666.996063
 21
54.454548
  0
LINE
  8
1
 62
7
  6
CONTINUOUS
 10
667.500000
 20
55.555335
 11
667.000000
 21
55.468717
  0
LINE
  8
1
 62
7
  6
CONTINUOUS
 10
667.000000
 20
55.468717
 11
667.000000
 21
54.455335
  0
LINE
  8
1
 62
7
  6
CONTINUOUS
 10
667.500000
 20
54.564071
 11
667.500000
 21
54.555335
  0
LINE
  8
1
 62
7
  6
CONTINUOUS
 10
674.000000
 20
78.055335
 11
666.000000
 21
78.055335
  0
LINE
  8
1
 62
7
  6
CONTINUOUS
 10
674.500000
 20
78.055335
 11
665.500000
 21
78.055335
  0
LINE
  8
1
 62
7
  6
CONTINUOUS
 10
674.000000
 20
82.055335
 11
674.000000
 21
78.096059
  0
LINE
  8
1
 62
7
  6
CONTINUOUS
 10
666.000000
 20
78.096059
 11
666.000000
 21
82.055335
  0
LINE
  8
1
 62
7
  6
CONTINUOUS
 10
673.500000
 20
96.055335
 11
666.500000
 21
96.055335
  0
LINE
  8
1
 62
7
  6
CONTINUOUS
 10
674.000000
 20
96.055335
 11
666.000000
 21
96.055335
  0
LINE
  8
1
 62
7
  6
CONTINUOUS
 10
674.000000
 20
92.055335
 11
674.000000
 21
96.055335
  0
LINE
  8
1
 62
7
  6
CONTINUOUS
 10
666.000000
 20
96.055335
 11
666.000000
 21
92.055335
  0
LINE
  8
1
 62
7
  6
CONTINUOUS
 10
675.000000
 20
91.555335
 11
674.500000
 21
92.055335
  0
LINE
  8
1
 62
7
  6
CONTINUOUS
 10
665.500000
 20
92.055335
 11
665.000000
 21
91.555335
  0
LINE
  8
1
 62
7
  6
CONTINUOUS
 10
665.000000
 20
91.555335
 11
665.000000
 21
82.555335
  0
LINE
  8
1
 62
7
  6
CONTINUOUS
 10
665.000000
 20
82.555335
 11
665.500000
 21
82.055335
  0
LINE
  8
1
 62
7
  6
CONTINUOUS
 10
665.500000
 20
82.055335
 11
674.500000
 21
82.055335
  0
LINE
  8
1
 62
7
  6
CONTINUOUS
 10
675.000000
 20
91.555335
 11
675.000000
 21
82.555335
  0
LINE
  8
1
 62
7
  6
CONTINUOUS
 10
674.500000
 20
82.055335
 11
675.000000
 21
82.555335
  0
LINE
  8
1
 62
7
  6
CONTINUOUS
 10
666.000000
 20
92.055335
 11
674.000000
 21
92.055335
  0
LINE
  8
1
 62
7
  6
CONTINUOUS
 10
674.500000
 20
92.055335
 11
665.500000
 21
92.055335
  0
LINE
  8
1
 62
7
  6
CONTINUOUS
 10
673.500000
 20
98.000000
 11
673.500000
 21
96.055335
  0
LINE
  8
1
 62
7
  6
CONTINUOUS
 10
666.500000
 20
96.055335
 11
666.500000
 21
98.000000
  0
LINE
  8
1
 62
7
  6
DASHDOT
 10
670.000000
 20
150.610236
 11
670.000000
 21
30.000000
  0
CIRCLE
  8
1
 62
7
  6
CONTINUOUS
 10
855.100394
 20
134.000000
 40
1.750000
  0
LINE
  8
1
 62
7
  6
DASHDOT
 10
855.100394
 20
138.846580
 11
855.100394
 21
129.492249
  0
LINE
  8
1
 62
7
  6
CONTINUOUS
 10
894.506152
 20
128.580955
 11
894.511634
 21
128.569866
  0
LINE
  8
1
 62
7
  6
CONTINUOUS
 10
894.511634
 20
128.569866
 11
894.527940
 21
128.536902
  0
LINE
  8
1
 62
7
  6
CONTINUOUS
 10
894.527940
 20
128.536902
 11
894.554708
 21
128.482952
  0
LINE
  8
1
 62
7
  6
CONTINUOUS
 10
894.554708
 20
128.482952
 11
894.591505
 21
128.409457
  0
LINE
  8
1
 62
7
  6
CONTINUOUS
 10
894.591505
 20
128.409457
 11
894.638016
 21
128.318347
  0
LINE
  8
1
 62
7
  6
CONTINUOUS
 10
894.638016
 20
128.318347
 11
894.694199
 21
128.211976
  0
LINE
  8
1
 62
7
  6
CONTINUOUS
 10
894.694199
 20
128.211976
 11
894.760332
 21
128.093052
  0
LINE
  8
1
 62
7
  6
CONTINUOUS
 10
894.760332
 20
128.093052
 11
894.836891
 21
127.964574
  0
LINE
  8
1
 62
7
  6
CONTINUOUS
 10
894.836891
 20
127.964574
 11
894.924279
 21
127.829780
  0
LINE
  8
1
 62
7
  6
CONTINUOUS
 10
894.924279
 20
127.829780
 11
895.022419
 21
127.692100
  0
LINE
  8
1
 62
7
  6
CONTINUOUS
 10
895.022419
 20
127.692100
 11
895.130312
 21
127.555110
  0
LINE
  8
1
 62
7
  6
CONTINUOUS
 10
895.130312
 20
127.555110
 11
895.245660
 21
127.422476
  0
LINE
  8
1
 62
7
  6
CONTINUOUS
 10
895.245660
 20
127.422476
 11
895.364660
 21
127.297887
  0
LINE
  8
1
 62
7
  6
CONTINUOUS
 10
895.364660
 20
127.297887
 11
895.482062
 21
127.184957
  0
LINE
  8
1
 62
7
  6
CONTINUOUS
 10
895.482062
 20
127.184957
 11
895.591507
 21
127.087105
  0
LINE
  8
1
 62
7
  6
CONTINUOUS
 10
895.591507
 20
127.087105
 11
895.686136
 21
127.007413
  0
LINE
  8
1
 62
7
  6
CONTINUOUS
 10
895.686136
 20
127.007413
 11
895.759365
 21
126.948485
  0
LINE
  8
1
 62
7
  6
CONTINUOUS
 10
895.759365
 20
126.948485
 11
895.805728
 21
126.912301
  0
LINE
  8
1
 62
7
  6
CONTINUOUS
 10
895.805728
 20
126.912301
 11
895.821604
 21
126.900098
  0
LINE
  8
1
 62
7
  6
CONTINUOUS
 10
895.821604
 20
126.900098
 11
895.837623
 21
126.887881
  0
LINE
  8
1
 62
7
  6
CONTINUOUS
 10
895.837623
 20
126.887881
 11
895.886076
 21
126.851472
  0
LINE
  8
1
 62
7
  6
CONTINUOUS
 10
895.886076
 20
126.851472
 11
895.967996
 21
126.791614
  0
LINE
  8
1
 62
7
  6
CONTINUOUS
 10
895.967996
 20
126.791614
 11
896.084620
 21
126.709565
  0
LINE
  8
1
 62
7
  6
CONTINUOUS
 10
896.084620
 20
126.709565
 11
896.236766
 21
126.607137
  0
LINE
  8
1
 62
7
  6
CONTINUOUS
 10
896.236766
 20
126.607137
 11
896.424159
 21
126.486708
  0
LINE
  8
1
 62
7
  6
CONTINUOUS
 10
896.424159
 20
126.486708
 11
896.644844
 21
126.351225
  0
LINE
  8
1
 62
7
  6
CONTINUOUS
 10
896.644844
 20
126.351225
 11
896.894807
 21
126.204168
  0
LINE
  8
1
 62
7
  6
CONTINUOUS
 10
896.894807
 20
126.204168
 11
897.167883
 21
126.049479
  0
LINE
  8
1
 62
7
  6
CONTINUOUS
 10
897.167883
 20
126.049479
 11
897.455981
 21
125.891447
  0
LINE
  8
1
 62
7
  6
CONTINUOUS
 10
897.455981
 20
125.891447
 11
897.749562
 21
125.734561
  0
LINE
  8
1
 62
7
  6
CONTINUOUS
 10
897.749562
 20
125.734561
 11
898.038313
 21
125.583348
  0
LINE
  8
1
 62
7
  6
CONTINUOUS
 10
898.038313
 20
125.583348
 11
898.311866
 21
125.442200
  0
LINE
  8
1
 62
7
  6
CONTINUOUS
 10
898.311866
 20
125.442200
 11
898.560477
 21
125.315212
  0
LINE
  8
1
 62
7
  6
CONTINUOUS
 10
898.560477
 20
125.315212
 11
898.775558
 21
125.206041
  0
LINE
  8
1
 62
7
  6
CONTINUOUS
 10
898.775558
 20
125.206041
 11
898.950013
 21
125.117797
  0
LINE
  8
1
 62
7
  6
CONTINUOUS
 10
898.950013
 20
125.117797
 11
899.078395
 21
125.052960
  0
LINE
  8
1
 62
7
  6
CONTINUOUS
 10
899.078395
 20
125.052960
 11
899.156904
 21
125.013331
  0
LINE
  8
1
 62
7
  6
CONTINUOUS
 10
899.156904
 20
125.013331
 11
899.183317
 21
125.000000
  0
LINE
  8
1
 62
7
  6
CONTINUOUS
 10
899.183317
 20
125.000000
 11
899.168117
 21
124.993646
  0
LINE
  8
1
 62
7
  6
CONTINUOUS
 10
899.168117
 20
124.993646
 11
899.122931
 21
124.974751
  0
LINE
  8
1
 62
7
  6
CONTINUOUS
 10
899.122931
 20
124.974751
 11
899.048985
 21
124.943780
  0
LINE
  8
1
 62
7
  6
CONTINUOUS
 10
899.048985
 20
124.943780
 11
898.948275
 21
124.901399
  0
LINE
  8
1
 62
7
  6
CONTINUOUS
 10
898.948275
 20
124.901399
 11
898.823500
 21
124.848344
  0
LINE
  8
1
 62
7
  6
CONTINUOUS
 10
898.823500
 20
124.848344
 11
898.677975
 21
124.785318
  0
LINE
  8
1
 62
7
  6
CONTINUOUS
 10
898.677975
 20
124.785318
 11
898.515540
 21
124.712941
  0
LINE
  8
1
 62
7
  6
CONTINUOUS
 10
898.515540
 20
124.712941
 11
898.340463
 21
124.631803
  0
LINE
  8
1
 62
7
  6
CONTINUOUS
 10
898.340463
 20
124.631803
 11
898.157342
 21
124.542605
  0
LINE
  8
1
 62
7
  6
CONTINUOUS
 10
898.157342
 20
124.542605
 11
897.971008
 21
124.446379
  0
LINE
  8
1
 62
7
  6
CONTINUOUS
 10
897.971008
 20
124.446379
 11
897.786423
 21
124.344732
  0
LINE
  8
1
 62
7
  6
CONTINUOUS
 10
897.786423
 20
124.344732
 11
897.608575
 21
124.240044
  0
LINE
  8
1
 62
7
  6
CONTINUOUS
 10
897.608575
 20
124.240044
 11
897.442364
 21
124.135569
  0
LINE
  8
1
 62
7
  6
CONTINUOUS
 10
897.442364
 20
124.135569
 11
897.292466
 21
124.035375
  0
LINE
  8
1
 62
7
  6
CONTINUOUS
 10
897.292466
 20
124.035375
 11
897.163195
 21
123.944109
  0
LINE
  8
1
 62
7
  6
CONTINUOUS
 10
897.163195
 20
123.944109
 11
897.058355
 21
123.866616
  0
LINE
  8
1
 62
7
  6
CONTINUOUS
 10
897.058355
 20
123.866616
 11
896.981091
 21
123.807437
  0
LINE
  8
1
 62
7
  6
CONTINUOUS
 10
896.981091
 20
123.807437
 11
896.933757
 21
123.770293
  0
LINE
  8
1
 62
7
  6
CONTINUOUS
 10
896.933757
 20
123.770293
 11
896.917815
 21
123.757628
  0
LINE
  8
1
 62
7
  6
CONTINUOUS
 10
896.917815
 20
123.757628
 11
896.901862
 21
123.744876
  0
LINE
  8
1
 62
7
  6
CONTINUOUS
 10
896.901862
 20
123.744876
 11
896.854380
 21
123.706464
  0
LINE
  8
1
 62
7
  6
CONTINUOUS
 10
896.854380
 20
123.706464
 11
896.776495
 21
123.642008
  0
LINE
  8
1
 62
7
  6
CONTINUOUS
 10
896.776495
 20
123.642008
 11
896.670083
 21
123.551160
  0
LINE
  8
1
 62
7
  6
CONTINUOUS
 10
896.670083
 20
123.551160
 11
896.537762
 21
123.433970
  0
LINE
  8
1
 62
7
  6
CONTINUOUS
 10
896.537762
 20
123.433970
 11
896.382865
 21
123.291281
  0
LINE
  8
1
 62
7
  6
CONTINUOUS
 10
896.382865
 20
123.291281
 11
896.209391
 21
123.125069
  0
LINE
  8
1
 62
7
  6
CONTINUOUS
 10
896.209391
 20
123.125069
 11
896.021928
 21
122.938650
  0
LINE
  8
1
 62
7
  6
CONTINUOUS
 10
896.021928
 20
122.938650
 11
895.825544
 21
122.736712
  0
LINE
  8
1
 62
7
  6
CONTINUOUS
 10
895.825544
 20
122.736712
 11
895.625641
 21
122.525156
  0
LINE
  8
1
 62
7
  6
CONTINUOUS
 10
895.625641
 20
122.525156
 11
895.427792
 21
122.310769
  0
LINE
  8
1
 62
7
  6
CONTINUOUS
 10
895.427792
 20
122.310769
 11
895.237559
 21
122.100800
  0
LINE
  8
1
 62
7
  6
CONTINUOUS
 10
895.237559
 20
122.100800
 11
895.060308
 21
121.902490
  0
LINE
  8
1
 62
7
  6
CONTINUOUS
 10
895.060308
 20
121.902490
 11
894.901038
 21
121.722632
  0
LINE
  8
1
 62
7
  6
CONTINUOUS
 10
894.901038
 20
121.722632
 11
894.764222
 21
121.567232
  0
LINE
  8
1
 62
7
  6
CONTINUOUS
 10
894.764222
 20
121.567232
 11
894.653680
 21
121.441272
  0
LINE
  8
1
 62
7
  6
CONTINUOUS
 10
894.653680
 20
121.441272
 11
894.572476
 21
121.348607
  0
LINE
  8
1
 62
7
  6
CONTINUOUS
 10
894.572476
 20
121.348607
 11
894.522847
 21
121.291946
  0
LINE
  8
1
 62
7
  6
CONTINUOUS
 10
894.522847
 20
121.291946
 11
894.506152
 21
121.272884
  0
LINE
  8
1
 62
7
  6
CONTINUOUS
 10
896.917815
 20
126.242372
 11
896.908097
 21
126.233549
  0
LINE
  8
1
 62
7
  6
CONTINUOUS
 10
896.908097
 20
126.233549
 11
896.879217
 21
126.207320
  0
LINE
  8
1
 62
7
  6
CONTINUOUS
 10
896.879217
 20
126.207320
 11
896.832040
 21
126.164404
  0
LINE
  8
1
 62
7
  6
CONTINUOUS
 10
896.832040
 20
126.164404
 11
896.768126
 21
126.105981
  0
LINE
  8
1
 62
7
  6
CONTINUOUS
 10
896.768126
 20
126.105981
 11
896.689862
 21
126.033668
  0
LINE
  8
1
 62
7
  6
CONTINUOUS
 10
896.689862
 20
126.033668
 11
896.600520
 21
125.949479
  0
LINE
  8
1
 62
7
  6
CONTINUOUS
 10
896.600520
 20
125.949479
 11
896.504218
 21
125.855770
  0
LINE
  8
1
 62
7
  6
CONTINUOUS
 10
896.504218
 20
125.855770
 11
896.405701
 21
125.755175
  0
LINE
  8
1
 62
7
  6
CONTINUOUS
 10
896.405701
 20
125.755175
 11
896.309968
 21
125.650521
  0
LINE
  8
1
 62
7
  6
CONTINUOUS
 10
896.309968
 20
125.650521
 11
896.221774
 21
125.544741
  0
LINE
  8
1
 62
7
  6
CONTINUOUS
 10
896.221774
 20
125.544741
 11
896.145081
 21
125.440775
  0
LINE
  8
1
 62
7
  6
CONTINUOUS
 10
896.145081
 20
125.440775
 11
896.082581
 21
125.341481
  0
LINE
  8
1
 62
7
  6
CONTINUOUS
 10
896.082581
 20
125.341481
 11
896.035370
 21
125.249546
  0
LINE
  8
1
 62
7
  6
CONTINUOUS
 10
896.035370
 20
125.249546
 11
896.002874
 21
125.167411
  0
LINE
  8
1
 62
7
  6
CONTINUOUS
 10
896.002874
 20
125.167411
 11
895.983049
 21
125.097209
  0
LINE
  8
1
 62
7
  6
CONTINUOUS
 10
895.983049
 20
125.097209
 11
895.972837
 21
125.040727
  0
LINE
  8
1
 62
7
  6
CONTINUOUS
 10
895.972837
 20
125.040727
 11
895.968802
 21
124.999369
  0
LINE
  8
1
 62
7
  6
CONTINUOUS
 10
895.968802
 20
124.999369
 11
895.967832
 21
124.974149
  0
LINE
  8
1
 62
7
  6
CONTINUOUS
 10
895.967832
 20
124.974149
 11
895.967766
 21
124.965674
  0
LINE
  8
1
 62
7
  6
CONTINUOUS
 10
895.967766
 20
124.965674
 11
895.967832
 21
124.957204
  0
LINE
  8
1
 62
7
  6
CONTINUOUS
 10
895.967832
 20
124.957204
 11
895.968802
 21
124.932054
  0
LINE
  8
1
 62
7
  6
CONTINUOUS
 10
895.968802
 20
124.932054
 11
895.972837
 21
124.890988
  0
LINE
  8
1
 62
7
  6
CONTINUOUS
 10
895.972837
 20
124.890988
 11
895.983049
 21
124.835243
  0
LINE
  8
1
 62
7
  6
CONTINUOUS
 10
895.983049
 20
124.835243
 11
896.002874
 21
124.766475
  0
LINE
  8
1
 62
7
  6
CONTINUOUS
 10
896.002874
 20
124.766475
 11
896.035370
 21
124.686687
  0
LINE
  8
1
 62
7
  6
CONTINUOUS
 10
896.035370
 20
124.686687
 11
896.082581
 21
124.598164
  0
LINE
  8
1
 62
7
  6
CONTINUOUS
 10
896.082581
 20
124.598164
 11
896.145081
 21
124.503387
  0
LINE
  8
1
 62
7
  6
CONTINUOUS
 10
896.145081
 20
124.503387
 11
896.221774
 21
124.404963
  0
LINE
  8
1
 62
7
  6
CONTINUOUS
 10
896.221774
 20
124.404963
 11
896.309968
 21
124.305555
  0
LINE
  8
1
 62
7
  6
CONTINUOUS
 10
896.309968
 20
124.305555
 11
896.405701
 21
124.207819
  0
LINE
  8
1
 62
7
  6
CONTINUOUS
 10
896.405701
 20
124.207819
 11
896.504218
 21
124.114343
  0
LINE
  8
1
 62
7
  6
CONTINUOUS
 10
896.504218
 20
124.114343
 11
896.600520
 21
124.027593
  0
LINE
  8
1
 62
7
  6
CONTINUOUS
 10
896.600520
 20
124.027593
 11
896.689862
 21
123.949860
  0
LINE
  8
1
 62
7
  6
CONTINUOUS
 10
896.689862
 20
123.949860
 11
896.768126
 21
123.883203
  0
LINE
  8
1
 62
7
  6
CONTINUOUS
 10
896.768126
 20
123.883203
 11
896.832040
 21
123.829398
  0
LINE
  8
1
 62
7
  6
CONTINUOUS
 10
896.832040
 20
123.829398
 11
896.879217
 21
123.789891
  0
LINE
  8
1
 62
7
  6
CONTINUOUS
 10
896.879217
 20
123.789891
 11
896.908097
 21
123.765749
  0
LINE
  8
1
 62
7
  6
CONTINUOUS
 10
896.908097
 20
123.765749
 11
896.917815
 21
123.757628
  0
LINE
  8
1
 62
7
  6
CONTINUOUS
 10
720.000000
 20
101.000000
 11
850.000000
 21
101.000000
  0
LINE
  8
1
 62
7
  6
DASHDOT
 10
715.395177
 20
125.000000
 11
854.462106
 21
125.000000
  0
LINE
  8
1
 62
7
  6
CONTINUOUS
 10
850.000000
 20
146.000000
 11
850.000000
 21
143.000000
  0
LINE
  8
1
 62
7
  6
CONTINUOUS
 10
720.000000
 20
143.000000
 11
720.000000
 21
100.000000
  0
LINE
  8
1
 62
7
  6
CONTINUOUS
 10
720.000000
 20
100.000000
 11
850.000000
 21
100.000000
  0
LINE
  8
1
 62
7
  6
CONTINUOUS
 10
850.000000
 20
100.000000
 11
850.000000
 21
143.000000
  0
LINE
  8
1
 62
7
  6
CONTINUOUS
 10
850.000000
 20
143.000000
 11
720.000000
 21
143.000000
  0
LINE
  8
1
 62
7
  6
CONTINUOUS
 10
850.000000
 20
146.000000
 11
766.000000
 21
146.000000
  0
LINE
  8
1
 62
7
  6
CONTINUOUS
 10
765.000000
 20
145.000000
 11
850.000000
 21
145.000000
  0
LINE
  8
1
 62
7
  6
CONTINUOUS
 10
850.100394
 20
137.300000
 11
859.500000
 21
137.300000
  0
LINE
  8
1
 62
7
  6
CONTINUOUS
 10
859.500000
 20
137.300000
 11
860.000000
 21
136.800000
  0
LINE
  8
1
 62
7
  6
CONTINUOUS
 10
860.000000
 20
136.800000
 11
860.000000
 21
110.800000
  0
LINE
  8
1
 62
7
  6
CONTINUOUS
 10
850.100394
 20
110.300000
 11
859.500000
 21
110.300000
  0
LINE
  8
1
 62
7
  6
CONTINUOUS
 10
860.000000
 20
110.800000
 11
859.500000
 21
110.300000
  0
LINE
  8
1
 62
7
  6
CONTINUOUS
 10
850.100394
 20
136.800000
 11
859.500000
 21
136.800000
  0
LINE
  8
1
 62
7
  6
CONTINUOUS
 10
859.500000
 20
136.800000
 11
859.500000
 21
110.800000
  0
LINE
  8
1
 62
7
  6
CONTINUOUS
 10
859.500000
 20
110.800000
 11
850.100394
 21
110.800000
  0
LINE
  8
1
 62
7
  6
DASHDOT
 10
851.315453
 20
134.000000
 11
858.815453
 21
134.000000
  0
LINE
  8
1
 62
7
  6
CONTINUOUS
 10
889.500000
 20
131.026944
 11
890.000000
 21
130.526944
  0
LINE
  8
1
 62
7
  6
CONTINUOUS
 10
890.000000
 20
130.526944
 11
890.000000
 21
119.500000
  0
LINE
  8
1
 62
7
  6
CONTINUOUS
 10
890.000000
 20
119.500000
 11
889.500000
 21
119.000000
  0
LINE
  8
1
 62
7
  6
CONTINUOUS
 10
889.500000
 20
131.024699
 11
889.500000
 21
119.000000
  0
LINE
  8
1
 62
7
  6
DASHDOT
 10
752.296752
 20
125.000000
 11
892.117126
 21
125.000000
  0
LINE
  8
1
 62
7
  6
CONTINUOUS
 10
860.000000
 20
131.026944
 11
889.500000
 21
131.026944
  0
LINE
  8
1
 62
7
  6
CONTINUOUS
 10
860.057825
 20
119.000000
 11
889.500000
 21
119.000000
  0
LINE
  8
1
 62
7
  6
DOT
 10
828.000000
 20
119.000000
 11
860.000000
 21
119.000000
  0
LINE
  8
1
 62
7
  6
DOT
 10
828.000000
 20
131.026944
 11
828.000000
 21
119.000000
  0
LINE
  8
1
 62
7
  6
DOT
 10
860.000000
 20
131.026944
 11
828.000000
 21
131.026944
  0
DIMENSION
  8
1
 62
7
  6
CONTINUOUS
  2
*D2
 10
860.000000
 20
158.138566
 11
875.000000
 21
158.638566
 70
     0
  1
30
 13
860.000000
 23
138.800000
 14
890.000000
 24
132.526944
 50
0.000000
  0
TEXT
  8
1
 62
7
  6
CONTINUOUS
 10
874.000000
 20
158.638566
 40
4.000000
 41
0.750000
  1
±2
  7
KANJI
 50
0.000000
 51
30.000000
  0
DIMENSION
  8
1
 62
7
  6
CONTINUOUS
  2
*D3
 10
890.000000
 20
166.297597
 11
805.000000
 21
166.797597
 70
     0
  1
170
 13
890.000000
 23
132.526944
 14
720.000000
 24
145.000000
 50
180.000000
  0
TEXT
  8
1
 62
7
  6
CONTINUOUS
 10
805.000000
 20
166.797597
 40
4.000000
 41
0.750000
  1
±2
  7
KANJI
 50
0.000000
 51
30.000000
  0
DIMENSION
  8
1
 62
7
  6
CONTINUOUS
  2
*D4
 10
850.000000
 20
158.138566
 11
855.000000
 21
158.638566
 70
     0
  1
10
 13
850.000000
 23
148.000000
 14
860.000000
 24
137.111965
 50
0.000000
  0
DIMENSION
  8
1
 62
7
  6
CONTINUOUS
  2
*D5
 10
720.000000
 20
158.138566
 11
785.000000
 21
158.638566
 70
     0
  1
130
 13
720.000000
 23
145.000000
 14
850.000000
 24
145.000000
 50
0.000000
  0
LINE
  8
1
 62
7
  6
CONTINUOUS
 10
722.818019
 20
105.709488
 11
710.000000
 21
90.000000
  0
LINE
  8
1
 62
7
  6
CONTINUOUS
 10
710.000000
 20
90.000000
 11
695.165984
 21
90.000000
  0
TEXT
  8
1
 62
7
  6
CONTINUOUS
 10
695.165984
 20
90.249820
 40
4.000000
 41
0.583333
  1
5-φ3.5
  7
KANJI
 50
0.000000
 51
30.000000
  0
LINE
  8
1
 62
7
  6
CONTINUOUS
 10
722.818019
 20
105.709488
 11
721.997777
 21
103.885426
  0
LINE
  8
1
 62
7
  6
CONTINUOUS
 10
722.818019
 20
105.709488
 11
721.195638
 21
104.539925
  0
LINE
  8
1
 62
7
  6
CONTINUOUS
 10
721.997777
 20
103.885426
 11
721.195638
 21
104.539925
  0
LINE
  8
1
 62
7
  6
CONTINUOUS
 10
722.512691
 20
105.335285
 11
722.102570
 21
104.423254
  0
LINE
  8
1
 62
7
  6
CONTINUOUS
 10
722.512691
 20
105.335285
 11
721.701500
 21
104.750503
  0
LINE
  8
1
 62
7
  6
CONTINUOUS
 10
722.102570
 20
104.423254
 11
721.701500
 21
104.750503
  0
DIMENSION
  8
1
 62
7
  6
CONTINUOUS
  2
*D6
 10
652.000000
 20
155.233003
 11
661.000000
 21
155.733003
 70
     0
  1
18
 13
652.000000
 23
147.000000
 14
670.000000
 24
148.000000
 50
0.000000
  0
DIMENSION
  8
1
 62
7
  6
CONTINUOUS
  2
*D7
 10
670.000000
 20
155.233003
 11
679.000000
 21
155.733003
 70
     0
  1
18
 13
670.000000
 23
155.233003
 14
688.000000
 24
145.000000
 50
0.000000
  0
DIMENSION
  8
1
 62
7
  6
CONTINUOUS
  2
*D8
 10
706.675684
 20
100.000000
 11
706.175684
 21
123.000000
 70
     0
  1
46
 13
689.000000
 23
100.000000
 14
689.000000
 24
146.000000
 50
90.000000
  0
DIMENSION
  8
1
 62
7
  6
CONTINUOUS
  2
*D9
 10
699.375866
 20
125.046752
 11
698.875866
 21
112.546752
 70
     0
  1
25
 13
696.162894
 23
125.046752
 14
696.162894
 24
100.046752
 50
-90.000000
  0
DIMENSION
  8
1
 62
7
  6
CONTINUOUS
  2
*D10
 10
784.000000
 20
92.957923
 11
789.086458
 21
93.457923
 70
     0
  1
40
 13
784.000000
 23
99.069882
 14
824.000000
 24
99.069882
 50
0.000000
  0
DIMENSION
  8
1
 62
7
  6
CONTINUOUS
  2
*D11
 10
724.000000
 20
92.957923
 11
734.000000
 21
93.457923
 70
     0
  1
20
 13
724.000000
 23
99.000000
 14
744.000000
 24
99.000000
 50
0.000000
  0
DIMENSION
  8
1
 62
7
  6
CONTINUOUS
  2
*D12
 10
744.000000
 20
92.957923
 11
754.000000
 21
93.457923
 70
     0
  1
20
 13
744.000000
 23
92.957923
 14
764.000000
 24
99.069882
 50
0.000000
  0
DIMENSION
  8
1
 62
7
  6
CONTINUOUS
  2
*D13
 10
764.000000
 20
92.957923
 11
774.000000
 21
93.457923
 70
     0
  1
20
 13
764.000000
 23
92.957923
 14
784.000000
 24
99.069882
 50
0.000000
  0
LINE
  8
1
 62
7
  6
CONTINUOUS
 10
720.000000
 20
98.512057
 11
720.000000
 21
61.094734
  0
LINE
  8
1
 62
7
  6
CONTINUOUS
 10
724.000000
 20
98.512057
 11
724.000000
 21
90.473179
  0
DIMENSION
  8
1
 62
7
  6
CONTINUOUS
  2
*D14
 10
720.000000
 20
92.957923
 11
717.601747
 21
93.457923
 70
     0
  1
4
 13
720.000000
 23
92.957923
 14
724.000000
 24
92.957923
 50
0.000000
  0
DIMENSION
  8
1
 62
7
  6
CONTINUOUS
  2
*D15
 10
720.000000
 20
63.140994
 11
762.500000
 21
63.640994
 70
     0
  1
85
 13
720.000000
 23
63.140994
 14
805.000000
 24
63.140994
 50
0.000000
  0
LINE
  8
1
 62
7
  6
CONTINUOUS
 10
810.364665
 20
55.555335
 11
833.896654
 21
55.555335
  0
DIMENSION
  8
1
 62
7
  6
CONTINUOUS
  2
*D16
 10
832.142717
 20
100.000000
 11
831.642717
 21
77.777668
 70
     0
  1
46
 13
832.142717
 23
100.000000
 14
832.142717
 24
55.555335
 50
-90.000000
  0
TEXT
  8
1
 62
7
  6
CONTINUOUS
 10
829.242717
 20
78.777668
 40
2.000000
 41
0.500000
  1
+0
  7
KANJI
 50
90.000000
 51
30.000000
  0
TEXT
  8
1
 62
7
  6
CONTINUOUS
 10
831.642717
 20
78.777668
 40
2.000000
 41
0.500000
  1
-2
  7
KANJI
 50
90.000000
 51
30.000000
  0
DIMENSION
  8
1
 62
7
  6
CONTINUOUS
  2
*D17
 10
810.000000
 20
87.266609
 11
793.086458
 21
87.766609
 70
     0
  1
φ10
 13
810.000000
 23
87.266609
 14
800.000000
 24
87.266609
 50
-180.000000
  0
DIMENSION
  8
1
 62
7
  6
CONTINUOUS
  2
*D18
 10
808.000000
 20
46.555335
 11
811.418876
 21
47.055335
 70
     0
  1
φ6
 13
808.000000
 23
46.555335
 14
802.000000
 24
46.555335
 50
-180.000000
  0
DIMENSION
  8
1
 62
7
  6
CONTINUOUS
  2
*D19
 10
652.024114
 20
92.300197
 11
670.024114
 21
92.800197
 70
     0
  1
36
 13
652.024114
 23
92.300197
 14
688.024114
 24
92.300197
 50
0.000000
  0
LINE
  8
1
 62
7
  6
CONTINUOUS
 10
652.000000
 20
100.000000
 11
652.000000
 21
90.692421
  0
LINE
  8
1
 62
7
  6
CONTINUOUS
 10
688.000000
 20
100.000000
 11
688.000000
 21
90.400098
  0
DIMENSION
  8
1
 62
7
  6
CONTINUOUS
  2
*D20
 10
699.375866
 20
146.000000
 11
698.875866
 21
148.102362
 70
     0
  1
3
 13
696.162894
 23
146.000000
 14
696.162894
 24
143.000000
 50
-90.000000
  0
LINE
  8
1
 62
7
  6
CONTINUOUS
 10
689.303027
 20
143.000000
 11
696.723056
 21
143.000000
  0
DIMENSION
  8
1
 62
7
  6
CONTINUOUS
  2
*D21
 10
832.142717
 20
100.000000
 11
831.642717
 21
103.500000
 70
     0
  1
7
 13
829.005096
 23
100.000000
 14
829.910572
 24
107.000000
 50
90.000000
  0
LINE
  8
1
 62
7
  6
DASHDOT
 10
818.206816
 20
107.000000
 11
829.889272
 21
107.000000
  0
LINE
  8
1
 62
7
  6
DASHDOT
 10
824.000000
 20
111.924213
 11
824.000000
 21
101.072835
  0
LINE
  8
1
 62
7
  6
DOT
 10
110.000000
 20
123.997438
 11
110.000000
 21
105.483454
  0
TEXT
  8
5
 62
94
  6
CONTINUOUS
 10
218.238558
 20
19.951033
 40
4.000000
 41
1.000000
  1
須藤
  7
KANJI
 50
0.000000
 51
0.000000
  0
TEXT
  8
5
 62
94
  6
CONTINUOUS
 10
174.852731
 20
28.136073
 40
4.000000
 41
0.500000
  1
2006/9/4
  7
KANJI
 50
0.000000
 51
0.000000
  0
TEXT
  8
5
 62
94
  6
CONTINUOUS
 10
235.546260
 20
20.097195
 40
4.000000
 41
1.000000
  1
０１５－８７７－Ａ１０８
  7
KANJI
 50
0.000000
 51
0.000000
  0
TEXT
  8
5
 62
94
  6
CONTINUOUS
 10
241.233509
 20
35.772700
 40
4.000000
 41
0.653846
  1
FTH9-□G φ25光学
  7
KANJI
 50
0.000000
 51
0.000000
  0
TEXT
  8
5
 62
94
  6
CONTINUOUS
 10
239.798782
 20
28.574557
 40
4.000000
 41
1.000000
  1
センサヘツド外形図
  7
KANJI
 50
0.000000
 51
0.000000
  0
LINE
  8
1
 62
7
  6
DASHDOT
 10
124.000000
 20
120.000000
 11
124.000000
 21
113.169271
  0
LINE
  8
1
 62
7
  6
DASHDOT
 10
144.000000
 20
120.000000
 11
144.000000
 21
113.569622
  0
LINE
  8
1
 62
7
  6
DASHDOT
 10
164.000000
 20
120.000000
 11
164.000000
 21
113.836522
  0
LINE
  8
1
 62
7
  6
DASHDOT
 10
185.000000
 20
135.000000
 11
185.000000
 21
115.804914
  0
DIMENSION
  8
2
 62
134
  6
CONTINUOUS
  2
*D22
 10
188.000000
 20
79.000000
 11
191.418876
 21
79.500000
 70
     0
  1
φ6
 13
188.000000
 23
79.000000
 14
182.000000
 24
79.000000
 50
180.000000
  0
DIMENSION
  8
2
 62
134
  6
CONTINUOUS
  2
*D23
 10
199.577356
 20
88.000000
 11
199.577356
 21
98.500000
 70
     0
  1
22
 13
192.000000
 23
88.000000
 14
196.582422
 24
110.000000
 50
90.000000
  0
DIMENSION
  8
2
 62
134
  6
CONTINUOUS
  2
*D24
 10
180.000000
 20
94.407924
 11
173.978317
 21
94.407924
 70
     0
  1
φ10
 13
180.000000
 23
94.118579
 14
190.000000
 24
94.118579
 50
0.000000
  0
LINE
  8
1
 62
7
  6
DASHDOT
 10
186.537088
 20
91.750000
 11
183.498999
 21
91.750000
  0
CIRCLE
  8
1
 62
7
  6
CONTINUOUS
 10
185.000000
 20
91.750000
 40
1.000000
  0
CIRCLE
  8
1
 62
7
  6
CONTINUOUS
 10
185.000000
 20
91.750000
 40
0.782631
  0
LINE
  8
1
 62
7
  6
CONTINUOUS
 10
190.000000
 20
104.500000
 11
190.000000
 21
88.000000
  0
LINE
  8
1
 62
7
  6
CONTINUOUS
 10
190.000000
 20
88.000000
 11
185.000000
 21
88.000000
  0
LINE
  8
1
 62
7
  6
CONTINUOUS
 10
181.000000
 20
104.500000
 11
180.000000
 21
104.500000
  0
LINE
  8
1
 62
7
  6
CONTINUOUS
 10
180.000000
 20
104.500000
 11
180.000000
 21
88.000000
  0
LINE
  8
1
 62
7
  6
CONTINUOUS
 10
180.000000
 20
88.000000
 11
185.000000
 21
88.000000
  0
LINE
  8
1
 62
7
  6
CONTINUOUS
 10
180.500000
 20
88.000000
 11
189.500000
 21
88.000000
  0
LINE
  8
1
 62
7
  6
CONTINUOUS
 10
188.000000
 20
87.000000
 11
188.000000
 21
86.000000
  0
LINE
  8
1
 62
7
  6
CONTINUOUS
 10
188.000000
 20
85.000000
 11
188.000000
 21
84.000000
  0
LINE
  8
1
 62
7
  6
CONTINUOUS
 10
188.000000
 20
83.000000
 11
188.000000
 21
82.000000
  0
LINE
  8
1
 62
7
  6
CONTINUOUS
 10
188.000000
 20
81.000000
 11
188.000000
 21
80.000000
  0
LINE
  8
1
 62
7
  6
CONTINUOUS
 10
188.000000
 20
79.000000
 11
188.000000
 21
78.000000
  0
LINE
  8
1
 62
7
  6
CONTINUOUS
 10
188.000000
 20
77.000000
 11
188.000000
 21
76.000000
  0
LINE
  8
1
 62
7
  6
CONTINUOUS
 10
188.000000
 20
75.000000
 11
188.000000
 21
74.000000
  0
LINE
  8
1
 62
7
  6
CONTINUOUS
 10
188.000000
 20
73.000000
 11
188.000000
 21
72.000000
  0
LINE
  8
1
 62
7
  6
CONTINUOUS
 10
188.000000
 20
71.000000
 11
188.000000
 21
70.000000
  0
LINE
  8
1
 62
7
  6
CONTINUOUS
 10
187.500000
 20
69.000000
 11
188.000000
 21
69.000000
  0
LINE
  8
1
 62
7
  6
CONTINUOUS
 10
182.000000
 20
86.000000
 11
182.000000
 21
85.000000
  0
LINE
  8
1
 62
7
  6
CONTINUOUS
 10
182.000000
 20
84.000000
 11
182.000000
 21
83.000000
  0
LINE
  8
1
 62
7
  6
CONTINUOUS
 10
182.000000
 20
82.000000
 11
182.000000
 21
81.000000
  0
LINE
  8
1
 62
7
  6
CONTINUOUS
 10
182.000000
 20
80.000000
 11
182.000000
 21
79.000000
  0
LINE
  8
1
 62
7
  6
CONTINUOUS
 10
182.000000
 20
78.000000
 11
182.000000
 21
77.000000
  0
LINE
  8
1
 62
7
  6
CONTINUOUS
 10
182.000000
 20
76.000000
 11
182.000000
 21
75.000000
  0
LINE
  8
1
 62
7
  6
CONTINUOUS
 10
182.000000
 20
74.000000
 11
182.000000
 21
73.000000
  0
LINE
  8
1
 62
7
  6
CONTINUOUS
 10
182.000000
 20
72.000000
 11
182.000000
 21
71.000000
  0
LINE
  8
1
 62
7
  6
CONTINUOUS
 10
182.000000
 20
70.000000
 11
182.000000
 21
69.000000
  0
LINE
  8
1
 62
7
  6
CONTINUOUS
 10
188.000000
 20
87.000000
 11
182.000000
 21
86.000000
  0
LINE
  8
1
 62
7
  6
CONTINUOUS
 10
188.000000
 20
86.000000
 11
182.000000
 21
85.000000
  0
LINE
  8
1
 62
7
  6
CONTINUOUS
 10
188.000000
 20
85.000000
 11
182.000000
 21
84.000000
  0
LINE
  8
1
 62
7
  6
CONTINUOUS
 10
188.000000
 20
84.000000
 11
182.000000
 21
83.000000
  0
LINE
  8
1
 62
7
  6
CONTINUOUS
 10
188.000000
 20
83.000000
 11
182.000000
 21
82.000000
  0
LINE
  8
1
 62
7
  6
CONTINUOUS
 10
188.000000
 20
82.000000
 11
182.000000
 21
81.000000
  0
LINE
  8
1
 62
7
  6
CONTINUOUS
 10
188.000000
 20
81.000000
 11
182.000000
 21
80.000000
  0
LINE
  8
1
 62
7
  6
CONTINUOUS
 10
188.000000
 20
80.000000
 11
182.000000
 21
79.000000
  0
LINE
  8
1
 62
7
  6
CONTINUOUS
 10
188.000000
 20
79.000000
 11
182.000000
 21
78.000000
  0
LINE
  8
1
 62
7
  6
CONTINUOUS
 10
188.000000
 20
78.000000
 11
182.000000
 21
77.000000
  0
LINE
  8
1
 62
7
  6
CONTINUOUS
 10
188.000000
 20
77.000000
 11
182.000000
 21
76.000000
  0
LINE
  8
1
 62
7
  6
CONTINUOUS
 10
188.000000
 20
76.000000
 11
182.000000
 21
75.000000
  0
LINE
  8
1
 62
7
  6
CONTINUOUS
 10
188.000000
 20
75.000000
 11
182.000000
 21
74.000000
  0
LINE
  8
1
 62
7
  6
CONTINUOUS
 10
188.000000
 20
74.000000
 11
182.000000
 21
73.000000
  0
LINE
  8
1
 62
7
  6
CONTINUOUS
 10
188.000000
 20
73.000000
 11
182.000000
 21
72.000000
  0
LINE
  8
1
 62
7
  6
CONTINUOUS
 10
188.000000
 20
72.000000
 11
182.000000
 21
71.000000
  0
LINE
  8
1
 62
7
  6
CONTINUOUS
 10
188.000000
 20
71.000000
 11
182.000000
 21
70.000000
  0
LINE
  8
1
 62
7
  6
CONTINUOUS
 10
188.000000
 20
70.000000
 11
182.000000
 21
69.000000
  0
LINE
  8
1
 62
7
  6
CONTINUOUS
 10
187.500000
 20
69.000000
 11
182.000000
 21
69.000000
  0
LINE
  8
1
 62
7
  6
CONTINUOUS
 10
187.500000
 20
88.000000
 11
187.500000
 21
86.916667
  0
LINE
  8
1
 62
7
  6
CONTINUOUS
 10
187.500000
 20
85.916667
 11
187.500000
 21
84.916667
  0
LINE
  8
1
 62
7
  6
CONTINUOUS
 10
187.500000
 20
83.916667
 11
187.500000
 21
82.916667
  0
LINE
  8
1
 62
7
  6
CONTINUOUS
 10
187.500000
 20
81.916667
 11
187.500000
 21
80.916667
  0
LINE
  8
1
 62
7
  6
CONTINUOUS
 10
187.500000
 20
79.916667
 11
187.500000
 21
78.916667
  0
LINE
  8
1
 62
7
  6
CONTINUOUS
 10
187.500000
 20
77.916667
 11
187.500000
 21
76.916667
  0
LINE
  8
1
 62
7
  6
CONTINUOUS
 10
187.500000
 20
75.916667
 11
187.500000
 21
74.916667
  0
LINE
  8
1
 62
7
  6
CONTINUOUS
 10
187.500000
 20
73.916667
 11
187.500000
 21
72.916667
  0
LINE
  8
1
 62
7
  6
CONTINUOUS
 10
187.500000
 20
71.916667
 11
187.500000
 21
70.916667
  0
LINE
  8
1
 62
7
  6
CONTINUOUS
 10
187.500000
 20
69.916667
 11
187.500000
 21
69.000000
  0
LINE
  8
1
 62
7
  6
CONTINUOUS
 10
182.500000
 20
71.083333
 11
182.500000
 21
70.083333
  0
LINE
  8
1
 62
7
  6
CONTINUOUS
 10
182.500000
 20
73.083333
 11
182.500000
 21
72.083333
  0
LINE
  8
1
 62
7
  6
CONTINUOUS
 10
182.500000
 20
74.983760
 11
182.500000
 21
74.083333
  0
LINE
  8
1
 62
7
  6
CONTINUOUS
 10
182.500000
 20
77.083333
 11
182.500000
 21
76.083333
  0
LINE
  8
1
 62
7
  6
CONTINUOUS
 10
182.500000
 20
79.083333
 11
182.500000
 21
78.083333
  0
LINE
  8
1
 62
7
  6
CONTINUOUS
 10
182.500000
 20
81.083333
 11
182.500000
 21
80.083333
  0
LINE
  8
1
 62
7
  6
CONTINUOUS
 10
182.500000
 20
83.083333
 11
182.500000
 21
82.083333
  0
LINE
  8
1
 62
7
  6
CONTINUOUS
 10
182.500000
 20
85.083333
 11
182.500000
 21
84.083333
  0
LINE
  8
1
 62
7
  6
CONTINUOUS
 10
182.500000
 20
86.983760
 11
182.500000
 21
86.083333
  0
LINE
  8
1
 62
7
  6
CONTINUOUS
 10
187.500000
 20
88.000000
 11
181.996063
 21
86.899213
  0
LINE
  8
1
 62
7
  6
CONTINUOUS
 10
182.500000
 20
88.000000
 11
182.000000
 21
87.913382
  0
LINE
  8
1
 62
7
  6
CONTINUOUS
 10
182.000000
 20
87.913382
 11
182.000000
 21
86.900000
  0
LINE
  8
1
 62
7
  6
CONTINUOUS
 10
182.500000
 20
87.008735
 11
182.500000
 21
87.000000
  0
LINE
  8
1
 62
7
  6
CONTINUOUS
 10
181.000000
 20
104.500000
 11
190.000000
 21
104.500000
  0
LINE
  8
1
 62
7
  6
CONTINUOUS
 10
181.000000
 20
104.500000
 11
181.000000
 21
110.000000
  0
LINE
  8
1
 62
7
  6
CONTINUOUS
 10
189.000000
 20
104.500000
 11
189.000000
 21
110.000000
  0
LINE
  8
1
 62
7
  6
DASHDOT
 10
186.537088
 20
98.500000
 11
183.498999
 21
98.500000
  0
CIRCLE
  8
1
 62
7
  6
CONTINUOUS
 10
185.000000
 20
98.500000
 40
1.000000
  0
CIRCLE
  8
1
 62
7
  6
CONTINUOUS
 10
185.000000
 20
98.500000
 40
0.782631
  0
LINE
  8
1
 62
7
  6
DASHDOT
 10
185.000000
 20
124.961245
 11
185.000000
 21
59.940850
  0
DIMENSION
  8
2
 62
134
  6
CONTINUOUS
  2
*D25
 10
100.000000
 20
102.957923
 11
101.931852
 21
102.957923
 70
     0
  1
4
 13
100.000000
 23
108.000000
 14
104.000000
 24
113.250000
 50
0.000000
  0
LINE
  8
1
 62
7
  6
DASHDOT
 10
104.000000
 20
120.000000
 11
104.000000
 21
113.250000
  0
DIMENSION
  8
2
 62
134
  6
CONTINUOUS
  2
*D26
 10
104.000000
 20
102.957923
 11
114.000000
 21
102.957923
 70
     0
  1
20
 13
104.000000
 23
113.250000
 14
124.000000
 24
113.250000
 50
0.000000
  0
DIMENSION
  8
2
 62
134
  6
CONTINUOUS
  2
*D27
 10
124.000000
 20
102.957923
 11
134.000000
 21
102.957923
 70
     0
  1
20
 13
124.000000
 23
102.957923
 14
144.000000
 24
113.250000
 50
0.000000
  0
DIMENSION
  8
2
 62
134
  6
CONTINUOUS
  2
*D28
 10
144.000000
 20
102.957923
 11
154.000000
 21
102.957923
 70
     0
  1
20
 13
144.000000
 23
102.957923
 14
164.000000
 24
113.250000
 50
0.000000
  0
LINE
  8
1
 62
7
  6
DASHDOT
 10
204.000000
 20
120.522291
 11
204.000000
 21
113.877387
  0
DIMENSION
  8
2
 62
134
  6
CONTINUOUS
  2
*D29
 10
164.000000
 20
102.957923
 11
173.547929
 21
102.957923
 70
     0
  1
40
 13
164.000000
 23
113.250000
 14
204.000000
 24
113.250000
 50
0.000000
  0
DIMENSION
  8
2
 62
134
  6
CONTINUOUS
  2
*D30
 10
100.000000
 20
84.083333
 11
141.076499
 21
84.083333
 70
     0
  1
85
 13
100.000000
 23
115.000000
 14
185.000000
 24
100.957923
 50
0.000000
  0
LINE
  8
1
 62
7
  6
DASHDOT
 10
50.000000
 20
160.610236
 11
50.000000
 21
112.848969
  0
LINE
  8
1
 62
7
  6
DASHDOT
 10
51.537088
 20
91.750000
 11
48.498999
 21
91.750000
  0
CIRCLE
  8
1
 62
7
  6
CONTINUOUS
 10
50.000000
 20
91.750000
 40
1.000000
  0
CIRCLE
  8
1
 62
7
  6
CONTINUOUS
 10
50.000000
 20
91.750000
 40
0.782631
  0
LINE
  8
1
 62
7
  6
CONTINUOUS
 10
55.000000
 20
104.500000
 11
55.000000
 21
88.000000
  0
LINE
  8
1
 62
7
  6
CONTINUOUS
 10
55.000000
 20
88.000000
 11
50.000000
 21
88.000000
  0
LINE
  8
1
 62
7
  6
CONTINUOUS
 10
46.000000
 20
104.500000
 11
45.000000
 21
104.500000
  0
LINE
  8
1
 62
7
  6
CONTINUOUS
 10
45.000000
 20
104.500000
 11
45.000000
 21
88.000000
  0
LINE
  8
1
 62
7
  6
CONTINUOUS
 10
45.000000
 20
88.000000
 11
50.000000
 21
88.000000
  0
LINE
  8
1
 62
7
  6
CONTINUOUS
 10
45.500000
 20
88.000000
 11
54.500000
 21
88.000000
  0
LINE
  8
1
 62
7
  6
CONTINUOUS
 10
53.000000
 20
87.000000
 11
53.000000
 21
86.000000
  0
LINE
  8
1
 62
7
  6
CONTINUOUS
 10
53.000000
 20
85.000000
 11
53.000000
 21
84.000000
  0
LINE
  8
1
 62
7
  6
CONTINUOUS
 10
53.000000
 20
83.000000
 11
53.000000
 21
82.000000
  0
LINE
  8
1
 62
7
  6
CONTINUOUS
 10
53.000000
 20
81.000000
 11
53.000000
 21
80.000000
  0
LINE
  8
1
 62
7
  6
CONTINUOUS
 10
53.000000
 20
79.000000
 11
53.000000
 21
78.000000
  0
LINE
  8
1
 62
7
  6
CONTINUOUS
 10
53.000000
 20
77.000000
 11
53.000000
 21
76.000000
  0
LINE
  8
1
 62
7
  6
CONTINUOUS
 10
53.000000
 20
75.000000
 11
53.000000
 21
74.000000
  0
LINE
  8
1
 62
7
  6
CONTINUOUS
 10
53.000000
 20
73.000000
 11
53.000000
 21
72.000000
  0
LINE
  8
1
 62
7
  6
CONTINUOUS
 10
53.000000
 20
71.000000
 11
53.000000
 21
70.000000
  0
LINE
  8
1
 62
7
  6
CONTINUOUS
 10
52.500000
 20
69.000000
 11
53.000000
 21
69.000000
  0
LINE
  8
1
 62
7
  6
CONTINUOUS
 10
47.000000
 20
86.000000
 11
47.000000
 21
85.000000
  0
LINE
  8
1
 62
7
  6
CONTINUOUS
 10
47.000000
 20
84.000000
 11
47.000000
 21
83.000000
  0
LINE
  8
1
 62
7
  6
CONTINUOUS
 10
47.000000
 20
82.000000
 11
47.000000
 21
81.000000
  0
LINE
  8
1
 62
7
  6
CONTINUOUS
 10
47.000000
 20
80.000000
 11
47.000000
 21
79.000000
  0
LINE
  8
1
 62
7
  6
CONTINUOUS
 10
47.000000
 20
78.000000
 11
47.000000
 21
77.000000
  0
LINE
  8
1
 62
7
  6
CONTINUOUS
 10
47.000000
 20
76.000000
 11
47.000000
 21
75.000000
  0
LINE
  8
1
 62
7
  6
CONTINUOUS
 10
47.000000
 20
74.000000
 11
47.000000
 21
73.000000
  0
LINE
  8
1
 62
7
  6
CONTINUOUS
 10
47.000000
 20
72.000000
 11
47.000000
 21
71.000000
  0
LINE
  8
1
 62
7
  6
CONTINUOUS
 10
47.000000
 20
70.000000
 11
47.000000
 21
69.000000
  0
LINE
  8
1
 62
7
  6
CONTINUOUS
 10
53.000000
 20
87.000000
 11
47.000000
 21
86.000000
  0
LINE
  8
1
 62
7
  6
CONTINUOUS
 10
53.000000
 20
86.000000
 11
47.000000
 21
85.000000
  0
LINE
  8
1
 62
7
  6
CONTINUOUS
 10
53.000000
 20
85.000000
 11
47.000000
 21
84.000000
  0
LINE
  8
1
 62
7
  6
CONTINUOUS
 10
53.000000
 20
84.000000
 11
47.000000
 21
83.000000
  0
LINE
  8
1
 62
7
  6
CONTINUOUS
 10
53.000000
 20
83.000000
 11
47.000000
 21
82.000000
  0
LINE
  8
1
 62
7
  6
CONTINUOUS
 10
53.000000
 20
82.000000
 11
47.000000
 21
81.000000
  0
LINE
  8
1
 62
7
  6
CONTINUOUS
 10
53.000000
 20
81.000000
 11
47.000000
 21
80.000000
  0
LINE
  8
1
 62
7
  6
CONTINUOUS
 10
53.000000
 20
80.000000
 11
47.000000
 21
79.000000
  0
LINE
  8
1
 62
7
  6
CONTINUOUS
 10
53.000000
 20
79.000000
 11
47.000000
 21
78.000000
  0
LINE
  8
1
 62
7
  6
CONTINUOUS
 10
53.000000
 20
78.000000
 11
47.000000
 21
77.000000
  0
LINE
  8
1
 62
7
  6
CONTINUOUS
 10
53.000000
 20
77.000000
 11
47.000000
 21
76.000000
  0
LINE
  8
1
 62
7
  6
CONTINUOUS
 10
53.000000
 20
76.000000
 11
47.000000
 21
75.000000
  0
LINE
  8
1
 62
7
  6
CONTINUOUS
 10
53.000000
 20
75.000000
 11
47.000000
 21
74.000000
  0
LINE
  8
1
 62
7
  6
CONTINUOUS
 10
53.000000
 20
74.000000
 11
47.000000
 21
73.000000
  0
LINE
  8
1
 62
7
  6
CONTINUOUS
 10
53.000000
 20
73.000000
 11
47.000000
 21
72.000000
  0
LINE
  8
1
 62
7
  6
CONTINUOUS
 10
53.000000
 20
72.000000
 11
47.000000
 21
71.000000
  0
LINE
  8
1
 62
7
  6
CONTINUOUS
 10
53.000000
 20
71.000000
 11
47.000000
 21
70.000000
  0
LINE
  8
1
 62
7
  6
CONTINUOUS
 10
53.000000
 20
70.000000
 11
47.000000
 21
69.000000
  0
LINE
  8
1
 62
7
  6
CONTINUOUS
 10
52.500000
 20
69.000000
 11
47.000000
 21
69.000000
  0
LINE
  8
1
 62
7
  6
CONTINUOUS
 10
52.500000
 20
88.000000
 11
52.500000
 21
86.916667
  0
LINE
  8
1
 62
7
  6
CONTINUOUS
 10
52.500000
 20
85.916667
 11
52.500000
 21
84.916667
  0
LINE
  8
1
 62
7
  6
CONTINUOUS
 10
52.500000
 20
83.916667
 11
52.500000
 21
82.916667
  0
LINE
  8
1
 62
7
  6
CONTINUOUS
 10
52.500000
 20
81.916667
 11
52.500000
 21
80.916667
  0
LINE
  8
1
 62
7
  6
CONTINUOUS
 10
52.500000
 20
79.916667
 11
52.500000
 21
78.916667
  0
LINE
  8
1
 62
7
  6
CONTINUOUS
 10
52.500000
 20
77.916667
 11
52.500000
 21
76.916667
  0
LINE
  8
1
 62
7
  6
CONTINUOUS
 10
52.500000
 20
75.916667
 11
52.500000
 21
74.916667
  0
LINE
  8
1
 62
7
  6
CONTINUOUS
 10
52.500000
 20
73.916667
 11
52.500000
 21
72.916667
  0
LINE
  8
1
 62
7
  6
CONTINUOUS
 10
52.500000
 20
71.916667
 11
52.500000
 21
70.916667
  0
LINE
  8
1
 62
7
  6
CONTINUOUS
 10
52.500000
 20
69.916667
 11
52.500000
 21
69.000000
  0
LINE
  8
1
 62
7
  6
CONTINUOUS
 10
47.500000
 20
71.083333
 11
47.500000
 21
70.083333
  0
LINE
  8
1
 62
7
  6
CONTINUOUS
 10
47.500000
 20
73.083333
 11
47.500000
 21
72.083333
  0
LINE
  8
1
 62
7
  6
CONTINUOUS
 10
47.500000
 20
74.983760
 11
47.500000
 21
74.083333
  0
LINE
  8
1
 62
7
  6
CONTINUOUS
 10
47.500000
 20
77.083333
 11
47.500000
 21
76.083333
  0
LINE
  8
1
 62
7
  6
CONTINUOUS
 10
47.500000
 20
79.083333
 11
47.500000
 21
78.083333
  0
LINE
  8
1
 62
7
  6
CONTINUOUS
 10
47.500000
 20
81.083333
 11
47.500000
 21
80.083333
  0
LINE
  8
1
 62
7
  6
CONTINUOUS
 10
47.500000
 20
83.083333
 11
47.500000
 21
82.083333
  0
LINE
  8
1
 62
7
  6
CONTINUOUS
 10
47.500000
 20
85.083333
 11
47.500000
 21
84.083333
  0
LINE
  8
1
 62
7
  6
CONTINUOUS
 10
47.500000
 20
86.983760
 11
47.500000
 21
86.083333
  0
LINE
  8
1
 62
7
  6
CONTINUOUS
 10
52.500000
 20
88.000000
 11
46.996063
 21
86.899213
  0
LINE
  8
1
 62
7
  6
CONTINUOUS
 10
47.500000
 20
88.000000
 11
47.000000
 21
87.913382
  0
LINE
  8
1
 62
7
  6
CONTINUOUS
 10
47.000000
 20
87.913382
 11
47.000000
 21
86.900000
  0
LINE
  8
1
 62
7
  6
CONTINUOUS
 10
47.500000
 20
87.008735
 11
47.500000
 21
87.000000
  0
LINE
  8
1
 62
7
  6
CONTINUOUS
 10
46.000000
 20
104.500000
 11
55.000000
 21
104.500000
  0
LINE
  8
1
 62
7
  6
CONTINUOUS
 10
46.000000
 20
104.500000
 11
46.000000
 21
110.000000
  0
LINE
  8
1
 62
7
  6
CONTINUOUS
 10
54.000000
 20
104.500000
 11
54.000000
 21
110.000000
  0
LINE
  8
1
 62
7
  6
DASHDOT
 10
51.537088
 20
98.500000
 11
48.498999
 21
98.500000
  0
CIRCLE
  8
1
 62
7
  6
CONTINUOUS
 10
50.000000
 20
98.500000
 40
1.000000
  0
CIRCLE
  8
1
 62
7
  6
CONTINUOUS
 10
50.000000
 20
98.500000
 40
0.782631
  0
LINE
  8
1
 62
7
  6
DASHDOT
 10
50.000000
 20
124.961245
 11
50.000000
 21
59.940850
  0
DIMENSION
  8
2
 62
134
  6
CONTINUOUS
  2
*D31
 10
76.635173
 20
110.000000
 11
76.635173
 21
122.500000
 70
     0
  1
25
 13
69.000000
 23
110.000000
 14
70.000000
 24
135.000000
 50
90.000000
  0
DIMENSION
  8
2
 62
134
  6
CONTINUOUS
  2
*D32
 10
76.635173
 20
135.000000
 11
76.635173
 21
144.000000
 70
     0
  1
18
 13
76.635173
 23
135.000000
 14
70.000000
 24
153.000000
 50
90.000000
  0
DIMENSION
  8
2
 62
134
  6
CONTINUOUS
  2
*D33
 10
76.635173
 20
153.000000
 11
76.635173
 21
157.918775
 70
     0
  1
3
 13
70.000000
 23
153.000000
 14
69.000000
 24
156.000000
 50
90.000000
  0
DIMENSION
  8
2
 62
134
  6
CONTINUOUS
  2
*D34
 10
84.285690
 20
110.000000
 11
84.285690
 21
135.000000
 70
     0
  1
46
 13
69.000000
 23
110.000000
 14
67.646247
 24
156.000000
 50
90.000000
  0
DIMENSION
  8
2
 62
134
  6
CONTINUOUS
  2
*D35
 10
100.000000
 20
92.706511
 11
104.140350
 21
92.706511
 70
     0
  1
10
 13
100.000000
 23
108.000000
 14
110.000000
 24
109.000000
 50
0.000000
  0
LINE
  8
2
 62
134
  6
CONTINUOUS
 10
100.000000
 20
84.083333
 11
98.068148
 21
83.565695
  0
LINE
  8
2
 62
134
  6
CONTINUOUS
 10
98.068148
 20
83.565695
 11
98.068148
 21
84.600971
  0
LINE
  8
2
 62
134
  6
CONTINUOUS
 10
98.068148
 20
84.600971
 11
100.000000
 21
84.083333
  0
LINE
  8
2
 62
134
  6
CONTINUOUS
 10
100.000000
 20
82.083333
 11
100.000000
 21
110.255785
  0
LINE
  8
2
 62
134
  6
CONTINUOUS
 10
58.783081
 20
84.083333
 11
100.000000
 21
84.083333
  0
DIMENSION
  8
2
 62
134
  6
CONTINUOUS
  2
*D36
 10
100.000000
 20
163.302907
 11
165.000000
 21
163.802907
 70
     0
  1
130
 13
100.000000
 23
155.000000
 14
230.000000
 24
155.000000
 50
0.000000
  0
DIMENSION
  8
2
 62
134
  6
CONTINUOUS
  2
*D37
 10
230.000000
 20
163.302907
 11
235.000000
 21
163.802907
 70
     0
  1
10
 13
230.000000
 23
158.000000
 14
240.000000
 24
147.111965
 50
0.000000
  0
DIMENSION
  8
2
 62
134
  6
CONTINUOUS
  2
*D38
 10
270.000000
 20
171.461938
 11
185.000000
 21
171.961938
 70
     0
  1
170
 13
270.000000
 23
142.526944
 14
100.000000
 24
155.000000
 50
180.000000
  0
TEXT
  8
2
 62
134
  6
CONTINUOUS
 10
185.000000
 20
171.961938
 40
4.000000
 41
0.750000
  1
±2
  7
KANJI
 50
0.000000
 51
30.000000
  0
DIMENSION
  8
2
 62
134
  6
CONTINUOUS
  2
*D39
 10
240.000000
 20
163.302907
 11
255.000000
 21
163.802907
 70
     0
  1
30
 13
240.000000
 23
148.800000
 14
270.000000
 24
142.526944
 50
0.000000
  0
TEXT
  8
2
 62
134
  6
CONTINUOUS
 10
254.000000
 20
163.802907
 40
4.000000
 41
0.750000
  1
±2
  7
KANJI
 50
0.000000
 51
30.000000
  0
DIMENSION
  8
2
 62
134
  6
CONTINUOUS
  2
*D40
 10
32.000000
 20
163.302907
 11
41.000000
 21
163.302907
 70
     0
  1
18
 13
32.000000
 23
157.000000
 14
50.000000
 24
158.000000
 50
0.000000
  0
DIMENSION
  8
2
 62
134
  6
CONTINUOUS
  2
*D41
 10
50.000000
 20
163.302907
 11
59.000000
 21
163.302907
 70
     0
  1
18
 13
50.000000
 23
163.302907
 14
68.000000
 24
155.000000
 50
0.000000
  0
DIMENSION
  8
2
 62
134
  6
CONTINUOUS
  2
*D42
 10
32.000000
 20
171.461938
 11
48.491141
 21
171.461938
 70
     0
  1
36
 13
32.000000
 23
157.000000
 14
68.000000
 24
157.000000
 50
0.000000
  0
LINE
  8
3
 62
214
  6
CONTINUOUS
 10
245.182147
 20
129.000000
 11
252.685949
 21
115.234003
  0
LINE
  8
3
 62
214
  6
CONTINUOUS
 10
252.685949
 20
115.234003
 11
273.057082
 21
115.234003
  0
TEXT
  8
3
 62
214
  6
CONTINUOUS
 10
257.057082
 20
115.031198
 40
4.000000
 41
1.000000
  1
接眼鏡筒
  7
KANJI
 50
0.000000
 51
30.000000
  0
LINE
  8
3
 62
214
  6
CONTINUOUS
 10
245.182147
 20
129.000000
 11
246.561252
 21
127.551528
  0
LINE
  8
3
 62
214
  6
CONTINUOUS
 10
245.182147
 20
129.000000
 11
245.652251
 21
127.056034
  0
LINE
  8
3
 62
214
  6
CONTINUOUS
 10
246.561252
 20
127.551528
 11
245.652251
 21
127.056034
  0
LINE
  8
3
 62
214
  6
CONTINUOUS
 10
245.413298
 20
128.575945
 11
246.102850
 21
127.851709
  0
LINE
  8
3
 62
214
  6
CONTINUOUS
 10
245.413298
 20
128.575945
 11
245.648350
 21
127.603962
  0
LINE
  8
3
 62
214
  6
CONTINUOUS
 10
246.102850
 20
127.851709
 11
245.648350
 21
127.603962
  0
LINE
  8
3
 62
214
  6
CONTINUOUS
 10
137.711337
 20
148.731149
 11
150.496850
 21
177.687093
  0
LINE
  8
3
 62
214
  6
CONTINUOUS
 10
150.496850
 20
177.687093
 11
164.427152
 21
177.687093
  0
TEXT
  8
3
 62
214
  6
CONTINUOUS
 10
150.427152
 20
177.509393
 40
4.000000
 41
0.500000
  1
ｾﾝｻﾍｯﾄﾞ
  7
KANJI
 50
0.000000
 51
30.000000
  0
LINE
  8
3
 62
214
  6
CONTINUOUS
 10
137.711337
 20
148.731149
 11
138.018133
 21
150.707478
  0
LINE
  8
3
 62
214
  6
CONTINUOUS
 10
137.711337
 20
148.731149
 11
138.965194
 21
150.289302
  0
LINE
  8
3
 62
214
  6
CONTINUOUS
 10
138.018133
 20
150.707478
 11
138.965194
 21
150.289302
  0
LINE
  8
3
 62
214
  6
CONTINUOUS
 10
137.906419
 20
149.172959
 11
138.059816
 21
150.161123
  0
LINE
  8
3
 62
214
  6
CONTINUOUS
 10
137.906419
 20
149.172959
 11
138.533347
 21
149.952036
  0
LINE
  8
3
 62
214
  6
CONTINUOUS
 10
138.059816
 20
150.161123
 11
138.533347
 21
149.952036
  0
LINE
  8
3
 62
214
  6
CONTINUOUS
 10
123.617527
 20
145.673553
 11
108.843428
 21
177.314023
  0
LINE
  8
3
 62
214
  6
CONTINUOUS
 10
108.843428
 20
177.314023
 11
99.588818
 21
177.314023
  0
TEXT
  8
3
 62
214
  6
CONTINUOUS
 10
99.588818
 20
177.314023
 40
4.000000
 41
0.500000
  1
ﾚﾝｽﾞ
  7
KANJI
 50
0.000000
 51
30.000000
  0
LINE
  8
3
 62
214
  6
CONTINUOUS
 10
123.617527
 20
145.673553
 11
122.331160
 21
147.204978
  0
LINE
  8
3
 62
214
  6
CONTINUOUS
 10
123.617527
 20
145.673553
 11
123.269213
 21
147.642989
  0
LINE
  8
3
 62
214
  6
CONTINUOUS
 10
122.331160
 20
147.204978
 11
123.269213
 21
147.642989
  0
LINE
  8
3
 62
214
  6
CONTINUOUS
 10
123.413192
 20
146.111161
 11
122.770009
 21
146.876873
  0
LINE
  8
3
 62
214
  6
CONTINUOUS
 10
123.413192
 20
146.111161
 11
123.239035
 21
147.095878
  0
LINE
  8
3
 62
214
  6
CONTINUOUS
 10
122.770009
 20
146.876873
 11
123.239035
 21
147.095878
  0
TEXT
  8
3
 62
214
  6
CONTINUOUS
 10
216.302009
 20
86.860308
 40
4.000000
 41
1.000000
  1
重量５００ｇ
  7
KANJI
 50
0.000000
 51
0.000000
  0
TEXT
  8
3
 62
214
  6
CONTINUOUS
 10
73.237183
 20
84.083333
 40
4.000000
 41
1.000000
  1
測定距離
  7
KANJI
 50
0.000000
 51
30.000000
  0
LINE
  8
3
 62
214
  6
CONTINUOUS
 10
110.000000
 20
110.000000
 11
117.895206
 21
93.950582
  0
LINE
  8
3
 62
214
  6
CONTINUOUS
 10
117.895206
 20
93.950582
 11
150.336654
 21
93.950582
  0
TEXT
  8
3
 62
214
  6
CONTINUOUS
 10
122.336654
 20
94.535228
 40
4.000000
 41
0.777778
  1
R1/8計装エアー
  7
KANJI
 50
-0.000000
 51
30.000000
  0
LINE
  8
3
 62
214
  6
CONTINUOUS
 10
110.000000
 20
110.000000
 11
111.317221
 21
108.495032
  0
LINE
  8
3
 62
214
  6
CONTINUOUS
 10
110.000000
 20
110.000000
 11
110.388263
 21
108.038049
  0
LINE
  8
3
 62
214
  6
CONTINUOUS
 10
111.317221
 20
108.495032
 11
110.388263
 21
108.038049
  0
LINE
  8
3
 62
214
  6
CONTINUOUS
 10
110.213186
 20
109.566635
 11
110.871796
 21
108.814151
  0
LINE
  8
3
 62
214
  6
CONTINUOUS
 10
110.213186
 20
109.566635
 11
110.407317
 21
108.585660
  0
LINE
  8
3
 62
214
  6
CONTINUOUS
 10
110.871796
 20
108.814151
 11
110.407317
 21
108.585660
  0
LINE
  8
3
 62
214
  6
CONTINUOUS
 10
188.000000
 20
76.000000
 11
200.584105
 21
67.397966
  0
LINE
  8
3
 62
214
  6
CONTINUOUS
 10
200.584105
 20
67.397966
 11
212.623442
 21
67.397966
  0
TEXT
  8
3
 62
214
  6
CONTINUOUS
 10
202.623442
 20
67.617946
 40
4.000000
 41
0.500000
  1
ﾌｧｲﾊﾞ
  7
KANJI
 50
0.000000
 51
30.000000
  0
LINE
  8
3
 62
214
  6
CONTINUOUS
 10
188.000000
 20
76.000000
 11
189.886966
 21
75.337157
  0
LINE
  8
3
 62
214
  6
CONTINUOUS
 10
188.000000
 20
76.000000
 11
189.302738
 21
74.482478
  0
LINE
  8
3
 62
214
  6
CONTINUOUS
 10
189.886966
 20
75.337157
 11
189.302738
 21
74.482478
  0
LINE
  8
3
 62
214
  6
CONTINUOUS
 10
188.398713
 20
75.727454
 11
189.342196
 21
75.396033
  0
LINE
  8
3
 62
214
  6
CONTINUOUS
 10
188.398713
 20
75.727454
 11
189.050082
 21
74.968693
  0
LINE
  8
3
 62
214
  6
CONTINUOUS
 10
189.342196
 20
75.396033
 11
189.050082
 21
74.968693
  0
ENDSEC
  0
EOF
