  0
SECTION
  2
HEADER
  9
$ACADVER
  1
AC1003
  9
$INSBASE
 10
0.000000
 20
0.000000
  9
$EXTMIN
 10
0.000000
 20
0.000000
  9
$EXTMAX
 10
210.000000
 20
297.000000
  9
$LIMMIN
 10
0.000000
 20
0.000000
  9
$LIMMAX
 10
210.000000
 20
297.000000
  9
$VIEWCTR
 10
105.000000
 20
148.500000
  9
$VIEWSIZE
 40
297.000000
  9
$PEXTMIN
 10
0.000000
 20
0.000000
 30
0.000000
  9
$PEXTMAX
 10
210.000000
 20
297.000000
 30
0.000000
  9
$SNAPMODE
 70
     0
  9
$SNAPUNIT
 10
1.000000
 20
1.000000
  9
$SNAPBASE
 10
0.000000
 20
0.000000
  9
$SNAPANG
 50
0.000000
  9
$SNAPISOPAIR
 70
     0
  9
$SNAPSTYLE
 70
     0
  9
$GRIDMODE
 70
     0
  9
$GRIDUNIT
 10
0.000000
 20
0.000000
  9
$ORTHOMODE
 70
     0
  9
$REGENMODE
 70
     1
  9
$FILLMODE
 70
     1
  9
$QTEXTMODE
 70
     0
  9
$DRAGMODE
 70
     2
  9
$LTSCALE
 40
0.250000
  9
$OSMODE
 70
     0
  9
$ATTMODE
 70
     1
  9
$TEXTSIZE
 40
0.200000
  9
$TRACEWID
 40
0.050000
  9
$TEXTSTYLE
  7
STANDARD
  9
$CLAYER
  8
0
  9
$CELTYPE
  6
BYLAYER
  9
$CECOLOR
 62
   256
  9
$DIMSCALE
 40
1.000000
  9
$DIMASZ
 40
1.000000
  9
$DIMEXO
 40
0.000000
  9
$DIMDLI
 40
0.500000
  9
$DIMRND
 40
0.000000
  9
$DIMDLE
 40
0.000000
  9
$DIMEXE
 40
0.000000
  9
$DIMTP
 40
0.000000
  9
$DIMTM
 40
0.000000
  9
$DIMTXT
 40
0.180000
  9
$DIMCEN
 40
0.000000
  9
$DIMTSZ
 40
0.000000
  9
$DIMTOL
 70
     0
  9
$DIMLIM
 70
     0
  9
$DIMTIH
 70
     1
  9
$DIMTOH
 70
     1
  9
$DIMSE1
 70
     0
  9
$DIMSE2
 70
     0
  9
$DIMTAD
 70
     0
  9
$DIMZIN
 70
     0
  9
$DIMBLK
  1

  9
$DIMASO
 70
     0
  9
$DIMSHO
 70
     0
  9
$DIMPOST
  1

  9
$DIMAPOST
  1

  9
$DIMALT
 70
     0
  9
$DIMALTD
 70
     0
  9
$DIMALTF
 40
25.400000
  9
$DIMLFAC
 40
1.000000
  9
$DIMTOFL
 70
     0
  9
$DIMTVP
 40
0.000000
  9
$DIMTIX
 70
     0
  9
$DIMSOXD
 70
     0
  9
$DIMSAH
 70
     0
  9
$DIMBLKL
  1

  9
$DIMBLKR
  1

  9
$LUNITS
 70
     2
  9
$LUPREC
 70
     2
  9
$AXISMODE
 70
     0
  9
$AXISUNIT
 10
1.000000
 20
1.000000
  9
$SKETCHINC
 40
0.000000
  9
$FILLETRAD
 40
0.000000
  9
$AUNITS
 70
     1
  9
$AUPREC
 70
     2
  9
$MENU
  1
ACAD
  9
$ELEVATION
 40
0.000000
  9
$THICKNESS
 40
0.000000
  9
$VIEWDIR
 10
0.000000
 20
0.000000
 30
1.000000
  9
$LIMCHECK
 70
     1
  9
$BLIPMODE
 70
     1
  9
$CHAMFERA
 40
0.000000
  9
$CHAMFERB
 40
0.000000
  9
$FASTZOOM
 70
     1
  9
$SKPOLY
 70
     0
  9
$TDCREATE
 40
0.000000
  9
$TDUPDATE
 40
0.000000
  9
$TDINDWG
 40
0.000000
  9
$TDUSRTIMER
 40
0.000000
  9
$USRTIMER
 70
     1
  9
$ANGBASE
 50
0.000000
  9
$ANGDIR
 70
     0
  9
$PDMODE
 70
     0
  9
$PDSIZE
 40
0.000000
  9
$PLINEWID
 40
0.000000
  9
$COORDS
 70
     2
  9
$USERI1
 70
     0
  9
$USERI2
 70
     0
  9
$USERI3
 70
     0
  9
$USERI4
 70
     0
  9
$USERI5
 70
     0
  9
$USERR1
 40
0.000000
  9
$USERR2
 40
0.000000
  9
$USERR3
 40
0.000000
  9
$USERR4
 40
0.000000
  9
$USERR5
 40
0.000000
  0
ENDSEC
  0
SECTION
  2
TABLES
  0
TABLE
  2
LTYPE
 70
     5
  0
LTYPE
  2
CONTINUOUS
 70
    64
  3
Solid line
 72
    65
 73
     0
 40
0.0
  0
LTYPE
  2
HIDDEN
 70
    64
  3
------------------------
 72
    65
 73
     2
 40
12.6
 49
8.4
 49
-4.2
  0
LTYPE
  2
DOT
 70
    64
  3
････････････････････････
 72
    65
 73
     2
 40
8.0
 49
6.0
 49
-2.0
  0
LTYPE
  2
DASHDOT
 70
    64
  3
--･--･--･--･--･--･--･--
 72
    65
 73
     4
 40
50.5
 49
30.0
 49
-9.0
 49
2.5
 49
-9.0
  0
LTYPE
  2
DIVIDE
 70
    64
  3
--･･--･･--･･--･･--･･--
 72
    65
 73
     6
 40
58.0
 49
30.0
 49
-9.0
 49
2.5
 49
-5.0
 49
2.5
 49
-9.0
  0
LTYPE
  2
ACAD_ISO06W100
 70
    64
  3
____ ... ____ ... ____
 72
    65
 73
     8
 40
37.5
 49
24.0
 49
-3.0
 49
0.5
 49
-3.0
 49
0.5
 49
-3.0
 49
0.5
 49
-3.0
  0
LTYPE
  2
ACAD_ISO14W100
 70
    64
  3
__ . . . __ . . . __ . . . 
 72
    65
 73
     8
 40
25.5
 49
12.0
 49
-3.0
 49
0.5
 49
-3.0
 49
0.5
 49
-3.0
 49
0.5
 49
-3.0
  0
ENDTAB
  0
TABLE
  2
LAYER
 70
4
  0
LAYER
  2
1
 70
64
 62
7
  6
CONTINUOUS
  0
LAYER
  2
2
 70
64
 62
134
  6
CONTINUOUS
  0
LAYER
  2
3
 70
64
 62
214
  6
CONTINUOUS
  0
LAYER
  2
5
 70
64
 62
94
  6
CONTINUOUS
  0
ENDTAB
  0
TABLE
  2
STYLE
 70
     2
  0
STYLE
  2
STANDARD
 70
    64
 40
0.0
 41
1.0
 50
0.0
 71
     0
 42
0.2
  3
TXT
  4

  0
STYLE
  2
KANJI
 70
    64
 40
0.0
 41
1.0
 50
0.0
 71
     0
 42
0.2
  3
TXT
  4
BIGFONT
  0
ENDTAB
  0
TABLE
  2
VIEW
 70
     0
  0
ENDTAB
  0
ENDSEC
  0
SECTION
  2
BLOCKS
  0
BLOCK
  8
2
 62
134
  6
CONTINUOUS
  2
*D1
 70
    65
 10
0.0
 20
0.0
  0
LINE
  8
2
 62
134
  6
CONTINUOUS
 10
133.591535
 20
167.010581
 11
133.591535
 21
160.010581
  0
LINE
  8
2
 62
134
  6
CONTINUOUS
 10
133.591535
 20
167.010581
 11
134.109174
 21
165.078729
  0
LINE
  8
2
 62
134
  6
CONTINUOUS
 10
133.591535
 20
167.010581
 11
133.073897
 21
165.078729
  0
LINE
  8
2
 62
134
  6
CONTINUOUS
 10
134.109174
 20
165.078729
 11
133.073897
 21
165.078729
  0
LINE
  8
2
 62
134
  6
CONTINUOUS
 10
133.591535
 20
166.527618
 11
133.850354
 21
165.561692
  0
LINE
  8
2
 62
134
  6
CONTINUOUS
 10
133.591535
 20
166.527618
 11
133.332716
 21
165.561692
  0
LINE
  8
2
 62
134
  6
CONTINUOUS
 10
133.850354
 20
165.561692
 11
133.332716
 21
165.561692
  0
LINE
  8
2
 62
134
  6
CONTINUOUS
 10
133.591535
 20
160.010581
 11
133.073897
 21
161.942432
  0
LINE
  8
2
 62
134
  6
CONTINUOUS
 10
133.591535
 20
160.010581
 11
134.109174
 21
161.942432
  0
LINE
  8
2
 62
134
  6
CONTINUOUS
 10
133.073897
 20
161.942432
 11
134.109174
 21
161.942432
  0
LINE
  8
2
 62
134
  6
CONTINUOUS
 10
133.591535
 20
160.493544
 11
133.332716
 21
161.459469
  0
LINE
  8
2
 62
134
  6
CONTINUOUS
 10
133.591535
 20
160.493544
 11
133.850354
 21
161.459469
  0
LINE
  8
2
 62
134
  6
CONTINUOUS
 10
133.332716
 20
161.459469
 11
133.850354
 21
161.459469
  0
TEXT
  8
2
 62
134
  6
CONTINUOUS
 10
133.091535
 20
162.510581
 40
4.000000
 41
0.500000
  1
7
  7
KANJI
 50
90.000000
 51
30.000000
  0
ENDBLK
  0
BLOCK
  8
2
 62
134
  6
CONTINUOUS
  2
*D2
 70
    65
 10
0.0
 20
0.0
  0
LINE
  8
2
 62
134
  6
CONTINUOUS
 10
43.448819
 20
152.300197
 11
63.448819
 21
152.300197
  0
LINE
  8
2
 62
134
  6
CONTINUOUS
 10
51.448819
 20
150.300197
 11
51.448819
 21
158.000000
  0
LINE
  8
2
 62
134
  6
CONTINUOUS
 10
55.448819
 20
150.300197
 11
55.448819
 21
161.769576
  0
LINE
  8
2
 62
134
  6
CONTINUOUS
 10
51.448819
 20
152.300197
 11
49.516967
 21
151.782559
  0
LINE
  8
2
 62
134
  6
CONTINUOUS
 10
51.448819
 20
152.300197
 11
49.516967
 21
152.817835
  0
LINE
  8
2
 62
134
  6
CONTINUOUS
 10
49.516967
 20
151.782559
 11
49.516967
 21
152.817835
  0
LINE
  8
2
 62
134
  6
CONTINUOUS
 10
50.965856
 20
152.300197
 11
49.999930
 21
152.041378
  0
LINE
  8
2
 62
134
  6
CONTINUOUS
 10
50.965856
 20
152.300197
 11
49.999930
 21
152.559016
  0
LINE
  8
2
 62
134
  6
CONTINUOUS
 10
49.999930
 20
152.041378
 11
49.999930
 21
152.559016
  0
LINE
  8
2
 62
134
  6
CONTINUOUS
 10
55.448819
 20
152.300197
 11
57.380671
 21
152.817835
  0
LINE
  8
2
 62
134
  6
CONTINUOUS
 10
55.448819
 20
152.300197
 11
57.380671
 21
151.782559
  0
LINE
  8
2
 62
134
  6
CONTINUOUS
 10
57.380671
 20
152.817835
 11
57.380671
 21
151.782559
  0
LINE
  8
2
 62
134
  6
CONTINUOUS
 10
55.931782
 20
152.300197
 11
56.897708
 21
152.559016
  0
LINE
  8
2
 62
134
  6
CONTINUOUS
 10
55.931782
 20
152.300197
 11
56.897708
 21
152.041378
  0
LINE
  8
2
 62
134
  6
CONTINUOUS
 10
56.897708
 20
152.559016
 11
56.897708
 21
152.041378
  0
TEXT
  8
2
 62
134
  6
CONTINUOUS
 10
52.409907
 20
152.300197
 40
4.000000
 41
0.500000
  1
4
  7
KANJI
 50
0.000000
 51
30.000000
  0
ENDBLK
  0
BLOCK
  8
2
 62
134
  6
CONTINUOUS
  2
*D3
 70
    65
 10
0.0
 20
0.0
  0
LINE
  8
2
 62
134
  6
CONTINUOUS
 10
51.448819
 20
145.251973
 11
61.448819
 21
145.251973
  0
LINE
  8
2
 62
134
  6
CONTINUOUS
 10
51.448819
 20
143.251973
 11
51.448819
 21
158.000000
  0
LINE
  8
2
 62
134
  6
CONTINUOUS
 10
61.448819
 20
143.251973
 11
61.448819
 21
159.000000
  0
LINE
  8
2
 62
134
  6
CONTINUOUS
 10
51.448819
 20
145.251973
 11
53.380671
 21
145.769611
  0
LINE
  8
2
 62
134
  6
CONTINUOUS
 10
51.448819
 20
145.251973
 11
53.380671
 21
144.734335
  0
LINE
  8
2
 62
134
  6
CONTINUOUS
 10
53.380671
 20
145.769611
 11
53.380671
 21
144.734335
  0
LINE
  8
2
 62
134
  6
CONTINUOUS
 10
51.931782
 20
145.251973
 11
52.897708
 21
145.510792
  0
LINE
  8
2
 62
134
  6
CONTINUOUS
 10
51.931782
 20
145.251973
 11
52.897708
 21
144.993154
  0
LINE
  8
2
 62
134
  6
CONTINUOUS
 10
52.897708
 20
145.510792
 11
52.897708
 21
144.993154
  0
LINE
  8
2
 62
134
  6
CONTINUOUS
 10
61.448819
 20
145.251973
 11
59.516967
 21
144.734335
  0
LINE
  8
2
 62
134
  6
CONTINUOUS
 10
61.448819
 20
145.251973
 11
59.516967
 21
145.769611
  0
LINE
  8
2
 62
134
  6
CONTINUOUS
 10
59.516967
 20
144.734335
 11
59.516967
 21
145.769611
  0
LINE
  8
2
 62
134
  6
CONTINUOUS
 10
60.965856
 20
145.251973
 11
59.999930
 21
144.993154
  0
LINE
  8
2
 62
134
  6
CONTINUOUS
 10
60.965856
 20
145.251973
 11
59.999930
 21
145.510792
  0
LINE
  8
2
 62
134
  6
CONTINUOUS
 10
59.999930
 20
144.993154
 11
59.999930
 21
145.510792
  0
TEXT
  8
2
 62
134
  6
CONTINUOUS
 10
54.263440
 20
145.251973
 40
4.000000
 41
0.500000
  1
10
  7
KANJI
 50
0.000000
 51
30.000000
  0
ENDBLK
  0
BLOCK
  8
2
 62
134
  6
CONTINUOUS
  2
*D4
 70
    65
 10
0.0
 20
0.0
  0
LINE
  8
2
 62
134
  6
CONTINUOUS
 10
46.033223
 20
160.000000
 11
46.033223
 21
180.000000
  0
LINE
  8
2
 62
134
  6
CONTINUOUS
 10
48.033223
 20
160.000000
 11
41.024114
 21
160.000000
  0
LINE
  8
2
 62
134
  6
CONTINUOUS
 10
48.033223
 20
180.000000
 11
42.024114
 21
180.000000
  0
LINE
  8
2
 62
134
  6
CONTINUOUS
 10
46.033223
 20
160.000000
 11
45.515585
 21
161.931852
  0
LINE
  8
2
 62
134
  6
CONTINUOUS
 10
46.033223
 20
160.000000
 11
46.550861
 21
161.931852
  0
LINE
  8
2
 62
134
  6
CONTINUOUS
 10
45.515585
 20
161.931852
 11
46.550861
 21
161.931852
  0
LINE
  8
2
 62
134
  6
CONTINUOUS
 10
46.033223
 20
160.482963
 11
45.774404
 21
161.448889
  0
LINE
  8
2
 62
134
  6
CONTINUOUS
 10
46.033223
 20
160.482963
 11
46.292042
 21
161.448889
  0
LINE
  8
2
 62
134
  6
CONTINUOUS
 10
45.774404
 20
161.448889
 11
46.292042
 21
161.448889
  0
LINE
  8
2
 62
134
  6
CONTINUOUS
 10
46.033223
 20
180.000000
 11
46.550861
 21
178.068148
  0
LINE
  8
2
 62
134
  6
CONTINUOUS
 10
46.033223
 20
180.000000
 11
45.515585
 21
178.068148
  0
LINE
  8
2
 62
134
  6
CONTINUOUS
 10
46.550861
 20
178.068148
 11
45.515585
 21
178.068148
  0
LINE
  8
2
 62
134
  6
CONTINUOUS
 10
46.033223
 20
179.517037
 11
46.292042
 21
178.551111
  0
LINE
  8
2
 62
134
  6
CONTINUOUS
 10
46.033223
 20
179.517037
 11
45.774404
 21
178.551111
  0
LINE
  8
2
 62
134
  6
CONTINUOUS
 10
46.292042
 20
178.551111
 11
45.774404
 21
178.551111
  0
TEXT
  8
2
 62
134
  6
CONTINUOUS
 10
46.033223
 20
168.000000
 40
4.000000
 41
0.500000
  1
20
  7
KANJI
 50
90.000000
 51
30.000000
  0
ENDBLK
  0
BLOCK
  8
2
 62
134
  6
CONTINUOUS
  2
*D5
 70
    65
 10
0.0
 20
0.0
  0
LINE
  8
2
 62
134
  6
CONTINUOUS
 10
46.033223
 20
180.000000
 11
46.033223
 21
193.000000
  0
LINE
  8
2
 62
134
  6
CONTINUOUS
 10
48.033223
 20
193.000000
 11
41.024114
 21
193.000000
  0
LINE
  8
2
 62
134
  6
CONTINUOUS
 10
46.033223
 20
180.000000
 11
45.515585
 21
181.931852
  0
LINE
  8
2
 62
134
  6
CONTINUOUS
 10
46.033223
 20
180.000000
 11
46.550861
 21
181.931852
  0
LINE
  8
2
 62
134
  6
CONTINUOUS
 10
45.515585
 20
181.931852
 11
46.550861
 21
181.931852
  0
LINE
  8
2
 62
134
  6
CONTINUOUS
 10
46.033223
 20
180.482963
 11
45.774404
 21
181.448889
  0
LINE
  8
2
 62
134
  6
CONTINUOUS
 10
46.033223
 20
180.482963
 11
46.292042
 21
181.448889
  0
LINE
  8
2
 62
134
  6
CONTINUOUS
 10
45.774404
 20
181.448889
 11
46.292042
 21
181.448889
  0
LINE
  8
2
 62
134
  6
CONTINUOUS
 10
46.033223
 20
193.000000
 11
46.550861
 21
191.068148
  0
LINE
  8
2
 62
134
  6
CONTINUOUS
 10
46.033223
 20
193.000000
 11
45.515585
 21
191.068148
  0
LINE
  8
2
 62
134
  6
CONTINUOUS
 10
46.550861
 20
191.068148
 11
45.515585
 21
191.068148
  0
LINE
  8
2
 62
134
  6
CONTINUOUS
 10
46.033223
 20
192.517037
 11
46.292042
 21
191.551111
  0
LINE
  8
2
 62
134
  6
CONTINUOUS
 10
46.033223
 20
192.517037
 11
45.774404
 21
191.551111
  0
LINE
  8
2
 62
134
  6
CONTINUOUS
 10
46.292042
 20
191.551111
 11
45.774404
 21
191.551111
  0
TEXT
  8
2
 62
134
  6
CONTINUOUS
 10
46.033223
 20
184.500000
 40
4.000000
 41
0.500000
  1
13
  7
KANJI
 50
90.000000
 51
30.000000
  0
ENDBLK
  0
BLOCK
  8
2
 62
134
  6
CONTINUOUS
  2
*D6
 70
    65
 10
0.0
 20
0.0
  0
LINE
  8
2
 62
134
  6
CONTINUOUS
 10
78.429433
 20
182.000000
 11
78.429433
 21
198.307153
  0
LINE
  8
2
 62
134
  6
CONTINUOUS
 10
76.429433
 20
190.000000
 11
87.448819
 21
190.000000
  0
LINE
  8
2
 62
134
  6
CONTINUOUS
 10
76.429433
 20
193.000000
 11
90.299501
 21
193.000000
  0
LINE
  8
2
 62
134
  6
CONTINUOUS
 10
78.429433
 20
190.000000
 11
78.947071
 21
188.068148
  0
LINE
  8
2
 62
134
  6
CONTINUOUS
 10
78.429433
 20
190.000000
 11
77.911795
 21
188.068148
  0
LINE
  8
2
 62
134
  6
CONTINUOUS
 10
78.947071
 20
188.068148
 11
77.911795
 21
188.068148
  0
LINE
  8
2
 62
134
  6
CONTINUOUS
 10
78.429433
 20
189.517037
 11
78.688252
 21
188.551111
  0
LINE
  8
2
 62
134
  6
CONTINUOUS
 10
78.429433
 20
189.517037
 11
78.170614
 21
188.551111
  0
LINE
  8
2
 62
134
  6
CONTINUOUS
 10
78.688252
 20
188.551111
 11
78.170614
 21
188.551111
  0
LINE
  8
2
 62
134
  6
CONTINUOUS
 10
78.429433
 20
193.000000
 11
77.911795
 21
194.931852
  0
LINE
  8
2
 62
134
  6
CONTINUOUS
 10
78.429433
 20
193.000000
 11
78.947071
 21
194.931852
  0
LINE
  8
2
 62
134
  6
CONTINUOUS
 10
77.911795
 20
194.931852
 11
78.947071
 21
194.931852
  0
LINE
  8
2
 62
134
  6
CONTINUOUS
 10
78.429433
 20
193.482963
 11
78.170614
 21
194.448889
  0
LINE
  8
2
 62
134
  6
CONTINUOUS
 10
78.429433
 20
193.482963
 11
78.688252
 21
194.448889
  0
LINE
  8
2
 62
134
  6
CONTINUOUS
 10
78.170614
 20
194.448889
 11
78.688252
 21
194.448889
  0
TEXT
  8
2
 62
134
  6
CONTINUOUS
 10
78.429433
 20
195.307153
 40
4.000000
 41
0.500000
  1
3
  7
KANJI
 50
90.000000
 51
30.000000
  0
ENDBLK
  0
BLOCK
  8
2
 62
134
  6
CONTINUOUS
  2
*D7
 70
    65
 10
0.0
 20
0.0
  0
LINE
  8
2
 62
134
  6
CONTINUOUS
 10
116.867695
 20
129.000000
 11
95.448819
 21
129.000000
  0
LINE
  8
2
 62
134
  6
CONTINUOUS
 10
109.448819
 20
129.000000
 11
111.380671
 21
129.517638
  0
LINE
  8
2
 62
134
  6
CONTINUOUS
 10
109.448819
 20
129.000000
 11
111.380671
 21
128.482362
  0
LINE
  8
2
 62
134
  6
CONTINUOUS
 10
111.380671
 20
129.517638
 11
111.380671
 21
128.482362
  0
LINE
  8
2
 62
134
  6
CONTINUOUS
 10
109.931782
 20
129.000000
 11
110.897708
 21
129.258819
  0
LINE
  8
2
 62
134
  6
CONTINUOUS
 10
109.931782
 20
129.000000
 11
110.897708
 21
128.741181
  0
LINE
  8
2
 62
134
  6
CONTINUOUS
 10
110.897708
 20
129.258819
 11
110.897708
 21
128.741181
  0
LINE
  8
2
 62
134
  6
CONTINUOUS
 10
103.448819
 20
129.000000
 11
101.516967
 21
128.482362
  0
LINE
  8
2
 62
134
  6
CONTINUOUS
 10
103.448819
 20
129.000000
 11
101.516967
 21
129.517638
  0
LINE
  8
2
 62
134
  6
CONTINUOUS
 10
101.516967
 20
128.482362
 11
101.516967
 21
129.517638
  0
LINE
  8
2
 62
134
  6
CONTINUOUS
 10
102.965856
 20
129.000000
 11
101.999930
 21
128.741181
  0
LINE
  8
2
 62
134
  6
CONTINUOUS
 10
102.965856
 20
129.000000
 11
101.999930
 21
129.258819
  0
LINE
  8
2
 62
134
  6
CONTINUOUS
 10
101.999930
 20
128.741181
 11
101.999930
 21
129.258819
  0
TEXT
  8
2
 62
134
  6
CONTINUOUS
 10
109.867695
 20
129.500000
 40
4.000000
 41
0.750000
  1
φ6
  7
KANJI
 50
0.000000
 51
30.000000
  0
ENDBLK
  0
BLOCK
  8
2
 62
134
  6
CONTINUOUS
  2
*D8
 70
    65
 10
0.0
 20
0.0
  0
LINE
  8
2
 62
134
  6
CONTINUOUS
 10
121.026175
 20
138.000000
 11
121.026175
 21
160.000000
  0
LINE
  8
2
 62
134
  6
CONTINUOUS
 10
123.026175
 20
138.000000
 11
113.448819
 21
138.000000
  0
LINE
  8
2
 62
134
  6
CONTINUOUS
 10
123.026175
 20
160.000000
 11
118.031241
 21
160.000000
  0
LINE
  8
2
 62
134
  6
CONTINUOUS
 10
121.026175
 20
138.000000
 11
120.508537
 21
139.931852
  0
LINE
  8
2
 62
134
  6
CONTINUOUS
 10
121.026175
 20
138.000000
 11
121.543813
 21
139.931852
  0
LINE
  8
2
 62
134
  6
CONTINUOUS
 10
120.508537
 20
139.931852
 11
121.543813
 21
139.931852
  0
LINE
  8
2
 62
134
  6
CONTINUOUS
 10
121.026175
 20
138.482963
 11
120.767356
 21
139.448889
  0
LINE
  8
2
 62
134
  6
CONTINUOUS
 10
121.026175
 20
138.482963
 11
121.284994
 21
139.448889
  0
LINE
  8
2
 62
134
  6
CONTINUOUS
 10
120.767356
 20
139.448889
 11
121.284994
 21
139.448889
  0
LINE
  8
2
 62
134
  6
CONTINUOUS
 10
121.026175
 20
160.000000
 11
121.543813
 21
158.068148
  0
LINE
  8
2
 62
134
  6
CONTINUOUS
 10
121.026175
 20
160.000000
 11
120.508537
 21
158.068148
  0
LINE
  8
2
 62
134
  6
CONTINUOUS
 10
121.543813
 20
158.068148
 11
120.508537
 21
158.068148
  0
LINE
  8
2
 62
134
  6
CONTINUOUS
 10
121.026175
 20
159.517037
 11
121.284994
 21
158.551111
  0
LINE
  8
2
 62
134
  6
CONTINUOUS
 10
121.026175
 20
159.517037
 11
120.767356
 21
158.551111
  0
LINE
  8
2
 62
134
  6
CONTINUOUS
 10
121.284994
 20
158.551111
 11
120.767356
 21
158.551111
  0
TEXT
  8
2
 62
134
  6
CONTINUOUS
 10
121.026175
 20
146.500000
 40
4.000000
 41
0.500000
  1
22
  7
KANJI
 50
90.000000
 51
30.000000
  0
ENDBLK
  0
BLOCK
  8
2
 62
134
  6
CONTINUOUS
  2
*D9
 70
    65
 10
0.0
 20
0.0
  0
LINE
  8
2
 62
134
  6
CONTINUOUS
 10
90.427136
 20
144.407924
 11
119.448819
 21
144.407924
  0
LINE
  8
2
 62
134
  6
CONTINUOUS
 10
101.448819
 20
146.407924
 11
101.448819
 21
144.118579
  0
LINE
  8
2
 62
134
  6
CONTINUOUS
 10
111.448819
 20
146.407924
 11
111.448819
 21
144.118579
  0
LINE
  8
2
 62
134
  6
CONTINUOUS
 10
101.448819
 20
144.407924
 11
99.516967
 21
143.890286
  0
LINE
  8
2
 62
134
  6
CONTINUOUS
 10
101.448819
 20
144.407924
 11
99.516967
 21
144.925562
  0
LINE
  8
2
 62
134
  6
CONTINUOUS
 10
99.516967
 20
143.890286
 11
99.516967
 21
144.925562
  0
LINE
  8
2
 62
134
  6
CONTINUOUS
 10
100.965856
 20
144.407924
 11
99.999930
 21
144.149105
  0
LINE
  8
2
 62
134
  6
CONTINUOUS
 10
100.965856
 20
144.407924
 11
99.999930
 21
144.666743
  0
LINE
  8
2
 62
134
  6
CONTINUOUS
 10
99.999930
 20
144.149105
 11
99.999930
 21
144.666743
  0
LINE
  8
2
 62
134
  6
CONTINUOUS
 10
111.448819
 20
144.407924
 11
113.380671
 21
144.925562
  0
LINE
  8
2
 62
134
  6
CONTINUOUS
 10
111.448819
 20
144.407924
 11
113.380671
 21
143.890286
  0
LINE
  8
2
 62
134
  6
CONTINUOUS
 10
113.380671
 20
144.925562
 11
113.380671
 21
143.890286
  0
LINE
  8
2
 62
134
  6
CONTINUOUS
 10
111.931782
 20
144.407924
 11
112.897708
 21
144.666743
  0
LINE
  8
2
 62
134
  6
CONTINUOUS
 10
111.931782
 20
144.407924
 11
112.897708
 21
144.149105
  0
LINE
  8
2
 62
134
  6
CONTINUOUS
 10
112.897708
 20
144.666743
 11
112.897708
 21
144.149105
  0
TEXT
  8
2
 62
134
  6
CONTINUOUS
 10
91.427136
 20
144.407924
 40
4.000000
 41
0.666667
  1
φ10
  7
KANJI
 50
0.000000
 51
30.000000
  0
ENDBLK
  0
BLOCK
  8
2
 62
134
  6
CONTINUOUS
  2
*D10
 70
    65
 10
0.0
 20
0.0
  0
LINE
  8
2
 62
134
  6
CONTINUOUS
 10
51.448819
 20
136.841384
 11
106.448819
 21
136.841384
  0
LINE
  8
2
 62
134
  6
CONTINUOUS
 10
51.448819
 20
134.841384
 11
51.448819
 21
158.000000
  0
LINE
  8
2
 62
134
  6
CONTINUOUS
 10
51.448819
 20
136.841384
 11
53.380671
 21
137.359022
  0
LINE
  8
2
 62
134
  6
CONTINUOUS
 10
51.448819
 20
136.841384
 11
53.380671
 21
136.323746
  0
LINE
  8
2
 62
134
  6
CONTINUOUS
 10
53.380671
 20
137.359022
 11
53.380671
 21
136.323746
  0
LINE
  8
2
 62
134
  6
CONTINUOUS
 10
51.931782
 20
136.841384
 11
52.897708
 21
137.100203
  0
LINE
  8
2
 62
134
  6
CONTINUOUS
 10
51.931782
 20
136.841384
 11
52.897708
 21
136.582565
  0
LINE
  8
2
 62
134
  6
CONTINUOUS
 10
52.897708
 20
137.100203
 11
52.897708
 21
136.582565
  0
LINE
  8
2
 62
134
  6
CONTINUOUS
 10
106.448819
 20
136.841384
 11
104.516967
 21
136.323746
  0
LINE
  8
2
 62
134
  6
CONTINUOUS
 10
106.448819
 20
136.841384
 11
104.516967
 21
137.359022
  0
LINE
  8
2
 62
134
  6
CONTINUOUS
 10
104.516967
 20
136.323746
 11
104.516967
 21
137.359022
  0
LINE
  8
2
 62
134
  6
CONTINUOUS
 10
105.965856
 20
136.841384
 11
104.999930
 21
136.582565
  0
LINE
  8
2
 62
134
  6
CONTINUOUS
 10
105.965856
 20
136.841384
 11
104.999930
 21
137.100203
  0
LINE
  8
2
 62
134
  6
CONTINUOUS
 10
104.999930
 20
136.582565
 11
104.999930
 21
137.100203
  0
TEXT
  8
2
 62
134
  6
CONTINUOUS
 10
77.185571
 20
136.841384
 40
4.000000
 41
0.500000
  1
55
  7
KANJI
 50
0.000000
 51
30.000000
  0
ENDBLK
  0
BLOCK
  8
2
 62
134
  6
CONTINUOUS
  2
*D11
 70
    65
 10
0.0
 20
0.0
  0
LINE
  8
2
 62
134
  6
CONTINUOUS
 10
55.448819
 20
170.803423
 11
75.448819
 21
170.803423
  0
LINE
  8
2
 62
134
  6
CONTINUOUS
 10
55.448819
 20
172.803423
 11
55.448819
 21
170.750000
  0
LINE
  8
2
 62
134
  6
CONTINUOUS
 10
75.448819
 20
172.803423
 11
75.448819
 21
170.750000
  0
LINE
  8
2
 62
134
  6
CONTINUOUS
 10
55.448819
 20
170.803423
 11
57.380671
 21
171.321061
  0
LINE
  8
2
 62
134
  6
CONTINUOUS
 10
55.448819
 20
170.803423
 11
57.380671
 21
170.285785
  0
LINE
  8
2
 62
134
  6
CONTINUOUS
 10
57.380671
 20
171.321061
 11
57.380671
 21
170.285785
  0
LINE
  8
2
 62
134
  6
CONTINUOUS
 10
55.931782
 20
170.803423
 11
56.897708
 21
171.062242
  0
LINE
  8
2
 62
134
  6
CONTINUOUS
 10
55.931782
 20
170.803423
 11
56.897708
 21
170.544604
  0
LINE
  8
2
 62
134
  6
CONTINUOUS
 10
56.897708
 20
171.062242
 11
56.897708
 21
170.544604
  0
LINE
  8
2
 62
134
  6
CONTINUOUS
 10
75.448819
 20
170.803423
 11
73.516967
 21
170.285785
  0
LINE
  8
2
 62
134
  6
CONTINUOUS
 10
75.448819
 20
170.803423
 11
73.516967
 21
171.321061
  0
LINE
  8
2
 62
134
  6
CONTINUOUS
 10
73.516967
 20
170.285785
 11
73.516967
 21
171.321061
  0
LINE
  8
2
 62
134
  6
CONTINUOUS
 10
74.965856
 20
170.803423
 11
73.999930
 21
170.544604
  0
LINE
  8
2
 62
134
  6
CONTINUOUS
 10
74.965856
 20
170.803423
 11
73.999930
 21
171.062242
  0
LINE
  8
2
 62
134
  6
CONTINUOUS
 10
73.999930
 20
170.544604
 11
73.999930
 21
171.062242
  0
TEXT
  8
2
 62
134
  6
CONTINUOUS
 10
63.448819
 20
170.803423
 40
4.000000
 41
0.500000
  1
20
  7
KANJI
 50
0.000000
 51
30.000000
  0
ENDBLK
  0
BLOCK
  8
2
 62
134
  6
CONTINUOUS
  2
*D12
 70
    65
 10
0.0
 20
0.0
  0
LINE
  8
2
 62
134
  6
CONTINUOUS
 10
75.448819
 20
170.803423
 11
95.448819
 21
170.803423
  0
LINE
  8
2
 62
134
  6
CONTINUOUS
 10
95.448819
 20
172.803423
 11
95.448819
 21
170.750000
  0
LINE
  8
2
 62
134
  6
CONTINUOUS
 10
75.448819
 20
170.803423
 11
77.380671
 21
171.321061
  0
LINE
  8
2
 62
134
  6
CONTINUOUS
 10
75.448819
 20
170.803423
 11
77.380671
 21
170.285785
  0
LINE
  8
2
 62
134
  6
CONTINUOUS
 10
77.380671
 20
171.321061
 11
77.380671
 21
170.285785
  0
LINE
  8
2
 62
134
  6
CONTINUOUS
 10
75.931782
 20
170.803423
 11
76.897708
 21
171.062242
  0
LINE
  8
2
 62
134
  6
CONTINUOUS
 10
75.931782
 20
170.803423
 11
76.897708
 21
170.544604
  0
LINE
  8
2
 62
134
  6
CONTINUOUS
 10
76.897708
 20
171.062242
 11
76.897708
 21
170.544604
  0
LINE
  8
2
 62
134
  6
CONTINUOUS
 10
95.448819
 20
170.803423
 11
93.516967
 21
170.285785
  0
LINE
  8
2
 62
134
  6
CONTINUOUS
 10
95.448819
 20
170.803423
 11
93.516967
 21
171.321061
  0
LINE
  8
2
 62
134
  6
CONTINUOUS
 10
93.516967
 20
170.285785
 11
93.516967
 21
171.321061
  0
LINE
  8
2
 62
134
  6
CONTINUOUS
 10
94.965856
 20
170.803423
 11
93.999930
 21
170.544604
  0
LINE
  8
2
 62
134
  6
CONTINUOUS
 10
94.965856
 20
170.803423
 11
93.999930
 21
171.062242
  0
LINE
  8
2
 62
134
  6
CONTINUOUS
 10
93.999930
 20
170.544604
 11
93.999930
 21
171.062242
  0
TEXT
  8
2
 62
134
  6
CONTINUOUS
 10
83.448819
 20
170.803423
 40
4.000000
 41
0.500000
  1
20
  7
KANJI
 50
0.000000
 51
30.000000
  0
ENDBLK
  0
BLOCK
  8
2
 62
134
  6
CONTINUOUS
  2
*D13
 70
    65
 10
0.0
 20
0.0
  0
LINE
  8
2
 62
134
  6
CONTINUOUS
 10
95.448819
 20
170.803423
 11
115.448819
 21
170.803423
  0
LINE
  8
2
 62
134
  6
CONTINUOUS
 10
115.448819
 20
172.803423
 11
115.448819
 21
170.750000
  0
LINE
  8
2
 62
134
  6
CONTINUOUS
 10
95.448819
 20
170.803423
 11
97.380671
 21
171.321061
  0
LINE
  8
2
 62
134
  6
CONTINUOUS
 10
95.448819
 20
170.803423
 11
97.380671
 21
170.285785
  0
LINE
  8
2
 62
134
  6
CONTINUOUS
 10
97.380671
 20
171.321061
 11
97.380671
 21
170.285785
  0
LINE
  8
2
 62
134
  6
CONTINUOUS
 10
95.931782
 20
170.803423
 11
96.897708
 21
171.062242
  0
LINE
  8
2
 62
134
  6
CONTINUOUS
 10
95.931782
 20
170.803423
 11
96.897708
 21
170.544604
  0
LINE
  8
2
 62
134
  6
CONTINUOUS
 10
96.897708
 20
171.062242
 11
96.897708
 21
170.544604
  0
LINE
  8
2
 62
134
  6
CONTINUOUS
 10
115.448819
 20
170.803423
 11
113.516967
 21
170.285785
  0
LINE
  8
2
 62
134
  6
CONTINUOUS
 10
115.448819
 20
170.803423
 11
113.516967
 21
171.321061
  0
LINE
  8
2
 62
134
  6
CONTINUOUS
 10
113.516967
 20
170.285785
 11
113.516967
 21
171.321061
  0
LINE
  8
2
 62
134
  6
CONTINUOUS
 10
114.965856
 20
170.803423
 11
113.999930
 21
170.544604
  0
LINE
  8
2
 62
134
  6
CONTINUOUS
 10
114.965856
 20
170.803423
 11
113.999930
 21
171.062242
  0
LINE
  8
2
 62
134
  6
CONTINUOUS
 10
113.999930
 20
170.544604
 11
113.999930
 21
171.062242
  0
TEXT
  8
2
 62
134
  6
CONTINUOUS
 10
103.448819
 20
170.803423
 40
4.000000
 41
0.500000
  1
20
  7
KANJI
 50
0.000000
 51
30.000000
  0
ENDBLK
  0
BLOCK
  8
2
 62
134
  6
CONTINUOUS
  2
*D14
 70
    65
 10
0.0
 20
0.0
  0
LINE
  8
2
 62
134
  6
CONTINUOUS
 10
51.448819
 20
201.189062
 11
146.448819
 21
201.189062
  0
LINE
  8
2
 62
134
  6
CONTINUOUS
 10
51.448819
 20
203.189062
 11
51.448819
 21
192.000000
  0
LINE
  8
2
 62
134
  6
CONTINUOUS
 10
146.448819
 20
203.189062
 11
146.448819
 21
194.000000
  0
LINE
  8
2
 62
134
  6
CONTINUOUS
 10
51.448819
 20
201.189062
 11
53.380671
 21
201.706700
  0
LINE
  8
2
 62
134
  6
CONTINUOUS
 10
51.448819
 20
201.189062
 11
53.380671
 21
200.671424
  0
LINE
  8
2
 62
134
  6
CONTINUOUS
 10
53.380671
 20
201.706700
 11
53.380671
 21
200.671424
  0
LINE
  8
2
 62
134
  6
CONTINUOUS
 10
51.931782
 20
201.189062
 11
52.897708
 21
201.447881
  0
LINE
  8
2
 62
134
  6
CONTINUOUS
 10
51.931782
 20
201.189062
 11
52.897708
 21
200.930243
  0
LINE
  8
2
 62
134
  6
CONTINUOUS
 10
52.897708
 20
201.447881
 11
52.897708
 21
200.930243
  0
LINE
  8
2
 62
134
  6
CONTINUOUS
 10
146.448819
 20
201.189062
 11
144.516967
 21
200.671424
  0
LINE
  8
2
 62
134
  6
CONTINUOUS
 10
146.448819
 20
201.189062
 11
144.516967
 21
201.706700
  0
LINE
  8
2
 62
134
  6
CONTINUOUS
 10
144.516967
 20
200.671424
 11
144.516967
 21
201.706700
  0
LINE
  8
2
 62
134
  6
CONTINUOUS
 10
145.965856
 20
201.189062
 11
144.999930
 21
200.930243
  0
LINE
  8
2
 62
134
  6
CONTINUOUS
 10
145.965856
 20
201.189062
 11
144.999930
 21
201.447881
  0
LINE
  8
2
 62
134
  6
CONTINUOUS
 10
144.999930
 20
200.930243
 11
144.999930
 21
201.447881
  0
TEXT
  8
2
 62
134
  6
CONTINUOUS
 10
98.970239
 20
201.189062
 40
4.000000
 41
0.500000
  1
95
  7
KANJI
 50
0.000000
 51
30.000000
  0
ENDBLK
  0
BLOCK
  8
2
 62
134
  6
CONTINUOUS
  2
*D15
 70
    65
 10
0.0
 20
0.0
  0
LINE
  8
2
 62
134
  6
CONTINUOUS
 10
146.448819
 20
201.189062
 11
156.549213
 21
201.189062
  0
LINE
  8
2
 62
134
  6
CONTINUOUS
 10
146.448819
 20
203.189062
 11
146.448819
 21
195.000000
  0
LINE
  8
2
 62
134
  6
CONTINUOUS
 10
156.549213
 20
203.189062
 11
156.549213
 21
189.093054
  0
LINE
  8
2
 62
134
  6
CONTINUOUS
 10
146.448819
 20
201.189062
 11
148.380671
 21
201.706700
  0
LINE
  8
2
 62
134
  6
CONTINUOUS
 10
146.448819
 20
201.189062
 11
148.380671
 21
200.671424
  0
LINE
  8
2
 62
134
  6
CONTINUOUS
 10
148.380671
 20
201.706700
 11
148.380671
 21
200.671424
  0
LINE
  8
2
 62
134
  6
CONTINUOUS
 10
146.931782
 20
201.189062
 11
147.897708
 21
201.447881
  0
LINE
  8
2
 62
134
  6
CONTINUOUS
 10
146.931782
 20
201.189062
 11
147.897708
 21
200.930243
  0
LINE
  8
2
 62
134
  6
CONTINUOUS
 10
147.897708
 20
201.447881
 11
147.897708
 21
200.930243
  0
LINE
  8
2
 62
134
  6
CONTINUOUS
 10
156.549213
 20
201.189062
 11
154.617361
 21
200.671424
  0
LINE
  8
2
 62
134
  6
CONTINUOUS
 10
156.549213
 20
201.189062
 11
154.617361
 21
201.706700
  0
LINE
  8
2
 62
134
  6
CONTINUOUS
 10
154.617361
 20
200.671424
 11
154.617361
 21
201.706700
  0
LINE
  8
2
 62
134
  6
CONTINUOUS
 10
156.066250
 20
201.189062
 11
155.100324
 21
200.930243
  0
LINE
  8
2
 62
134
  6
CONTINUOUS
 10
156.066250
 20
201.189062
 11
155.100324
 21
201.447881
  0
LINE
  8
2
 62
134
  6
CONTINUOUS
 10
155.100324
 20
200.930243
 11
155.100324
 21
201.447881
  0
TEXT
  8
2
 62
134
  6
CONTINUOUS
 10
149.275709
 20
201.189062
 40
4.000000
 41
0.500000
  1
10
  7
KANJI
 50
0.000000
 51
30.000000
  0
ENDBLK
  0
BLOCK
  8
2
 62
134
  6
CONTINUOUS
  2
*D16
 70
    65
 10
0.0
 20
0.0
  0
LINE
  8
2
 62
134
  6
CONTINUOUS
 10
156.549213
 20
201.189062
 11
185.549213
 21
201.189062
  0
LINE
  8
2
 62
134
  6
CONTINUOUS
 10
156.549213
 20
203.189062
 11
156.549213
 21
192.228757
  0
LINE
  8
2
 62
134
  6
CONTINUOUS
 10
185.549213
 20
203.189062
 11
185.549213
 21
187.526944
  0
LINE
  8
2
 62
134
  6
CONTINUOUS
 10
156.549213
 20
201.189062
 11
158.481064
 21
201.706700
  0
LINE
  8
2
 62
134
  6
CONTINUOUS
 10
156.549213
 20
201.189062
 11
158.481064
 21
200.671424
  0
LINE
  8
2
 62
134
  6
CONTINUOUS
 10
158.481064
 20
201.706700
 11
158.481064
 21
200.671424
  0
LINE
  8
2
 62
134
  6
CONTINUOUS
 10
157.032176
 20
201.189062
 11
157.998101
 21
201.447881
  0
LINE
  8
2
 62
134
  6
CONTINUOUS
 10
157.032176
 20
201.189062
 11
157.998101
 21
200.930243
  0
LINE
  8
2
 62
134
  6
CONTINUOUS
 10
157.998101
 20
201.447881
 11
157.998101
 21
200.930243
  0
LINE
  8
2
 62
134
  6
CONTINUOUS
 10
185.549213
 20
201.189062
 11
183.617361
 21
200.671424
  0
LINE
  8
2
 62
134
  6
CONTINUOUS
 10
185.549213
 20
201.189062
 11
183.617361
 21
201.706700
  0
LINE
  8
2
 62
134
  6
CONTINUOUS
 10
183.617361
 20
200.671424
 11
183.617361
 21
201.706700
  0
LINE
  8
2
 62
134
  6
CONTINUOUS
 10
185.066250
 20
201.189062
 11
184.100324
 21
200.930243
  0
LINE
  8
2
 62
134
  6
CONTINUOUS
 10
185.066250
 20
201.189062
 11
184.100324
 21
201.447881
  0
LINE
  8
2
 62
134
  6
CONTINUOUS
 10
184.100324
 20
200.930243
 11
184.100324
 21
201.447881
  0
TEXT
  8
2
 62
134
  6
CONTINUOUS
 10
164.337359
 20
201.189062
 40
4.000000
 41
0.500000
  1
30
  7
KANJI
 50
0.000000
 51
30.000000
  0
ENDBLK
  0
BLOCK
  8
2
 62
134
  6
CONTINUOUS
  2
*D17
 70
    65
 10
0.0
 20
0.0
  0
LINE
  8
2
 62
134
  6
CONTINUOUS
 10
51.448819
 20
209.415493
 11
185.549213
 21
209.415493
  0
LINE
  8
2
 62
134
  6
CONTINUOUS
 10
51.448819
 20
211.415493
 11
51.448819
 21
192.000000
  0
LINE
  8
2
 62
134
  6
CONTINUOUS
 10
185.549213
 20
211.415493
 11
185.549213
 21
182.000000
  0
LINE
  8
2
 62
134
  6
CONTINUOUS
 10
51.448819
 20
209.415493
 11
53.380671
 21
209.933131
  0
LINE
  8
2
 62
134
  6
CONTINUOUS
 10
51.448819
 20
209.415493
 11
53.380671
 21
208.897855
  0
LINE
  8
2
 62
134
  6
CONTINUOUS
 10
53.380671
 20
209.933131
 11
53.380671
 21
208.897855
  0
LINE
  8
2
 62
134
  6
CONTINUOUS
 10
51.931782
 20
209.415493
 11
52.897708
 21
209.674312
  0
LINE
  8
2
 62
134
  6
CONTINUOUS
 10
51.931782
 20
209.415493
 11
52.897708
 21
209.156674
  0
LINE
  8
2
 62
134
  6
CONTINUOUS
 10
52.897708
 20
209.674312
 11
52.897708
 21
209.156674
  0
LINE
  8
2
 62
134
  6
CONTINUOUS
 10
185.549213
 20
209.415493
 11
183.617361
 21
208.897855
  0
LINE
  8
2
 62
134
  6
CONTINUOUS
 10
185.549213
 20
209.415493
 11
183.617361
 21
209.933131
  0
LINE
  8
2
 62
134
  6
CONTINUOUS
 10
183.617361
 20
208.897855
 11
183.617361
 21
209.933131
  0
LINE
  8
2
 62
134
  6
CONTINUOUS
 10
185.066250
 20
209.415493
 11
184.100324
 21
209.156674
  0
LINE
  8
2
 62
134
  6
CONTINUOUS
 10
185.066250
 20
209.415493
 11
184.100324
 21
209.674312
  0
LINE
  8
2
 62
134
  6
CONTINUOUS
 10
184.100324
 20
209.156674
 11
184.100324
 21
209.674312
  0
TEXT
  8
2
 62
134
  6
CONTINUOUS
 10
107.898129
 20
209.415493
 40
4.000000
 41
0.500000
  1
135
  7
KANJI
 50
0.000000
 51
30.000000
  0
ENDBLK
  0
BLOCK
  8
2
 62
134
  6
CONTINUOUS
  2
*D18
 70
    65
 10
0.0
 20
0.0
  0
LINE
  8
2
 62
134
  6
CONTINUOUS
 10
20.024114
 20
201.189062
 11
40.024114
 21
201.189062
  0
LINE
  8
2
 62
134
  6
CONTINUOUS
 10
20.024114
 20
203.189062
 11
20.024114
 21
194.000000
  0
LINE
  8
2
 62
134
  6
CONTINUOUS
 10
40.024114
 20
203.189062
 11
40.024114
 21
194.000000
  0
LINE
  8
2
 62
134
  6
CONTINUOUS
 10
20.024114
 20
201.189062
 11
21.955966
 21
201.706700
  0
LINE
  8
2
 62
134
  6
CONTINUOUS
 10
20.024114
 20
201.189062
 11
21.955966
 21
200.671424
  0
LINE
  8
2
 62
134
  6
CONTINUOUS
 10
21.955966
 20
201.706700
 11
21.955966
 21
200.671424
  0
LINE
  8
2
 62
134
  6
CONTINUOUS
 10
20.507077
 20
201.189062
 11
21.473003
 21
201.447881
  0
LINE
  8
2
 62
134
  6
CONTINUOUS
 10
20.507077
 20
201.189062
 11
21.473003
 21
200.930243
  0
LINE
  8
2
 62
134
  6
CONTINUOUS
 10
21.473003
 20
201.447881
 11
21.473003
 21
200.930243
  0
LINE
  8
2
 62
134
  6
CONTINUOUS
 10
40.024114
 20
201.189062
 11
38.092263
 21
200.671424
  0
LINE
  8
2
 62
134
  6
CONTINUOUS
 10
40.024114
 20
201.189062
 11
38.092263
 21
201.706700
  0
LINE
  8
2
 62
134
  6
CONTINUOUS
 10
38.092263
 20
200.671424
 11
38.092263
 21
201.706700
  0
LINE
  8
2
 62
134
  6
CONTINUOUS
 10
39.541151
 20
201.189062
 11
38.575225
 21
200.930243
  0
LINE
  8
2
 62
134
  6
CONTINUOUS
 10
39.541151
 20
201.189062
 11
38.575225
 21
201.447881
  0
LINE
  8
2
 62
134
  6
CONTINUOUS
 10
38.575225
 20
200.930243
 11
38.575225
 21
201.447881
  0
TEXT
  8
2
 62
134
  6
CONTINUOUS
 10
28.080529
 20
201.189062
 40
4.000000
 41
0.500000
  1
20
  7
KANJI
 50
0.000000
 51
30.000000
  0
ENDBLK
  0
ENDSEC
  0
SECTION
  2
ENTITIES
  0
TEXT
  8
5
 62
94
  6
CONTINUOUS
 10
125.962748
 20
25.651490
 40
1.750000
 41
4.000000
  1
製図
  7
KANJI
 50
-90.000000
 51
0.000000
  0
TEXT
  8
5
 62
94
  6
CONTINUOUS
 10
145.795530
 20
25.487583
 40
1.750000
 41
4.000000
  1
図番
  7
KANJI
 50
-90.000000
 51
0.000000
  0
TEXT
  8
5
 62
94
  6
CONTINUOUS
 10
145.795530
 20
38.764073
 40
1.750000
 41
4.000000
  1
図　名
  7
KANJI
 50
-90.000000
 51
0.000000
  0
TEXT
  8
5
 62
94
  6
CONTINUOUS
 10
80.888245
 20
33.355132
 40
1.750000
 41
4.000000
  1
日付
  7
KANJI
 50
-90.000000
 51
0.000000
  0
TEXT
  8
5
 62
94
  6
CONTINUOUS
 10
115.964404
 20
33.519040
 40
1.750000
 41
4.000000
  1
図法
  7
KANJI
 50
-90.000000
 51
0.000000
  0
TEXT
  8
5
 62
94
  6
CONTINUOUS
 10
115.800497
 20
41.550497
 40
1.750000
 41
4.000000
  1
尺度
  7
KANJI
 50
-90.000000
 51
0.000000
  0
TEXT
  8
5
 62
94
  6
CONTINUOUS
 10
80.888245
 20
41.386589
 40
1.750000
 41
4.000000
  1
公差
  7
KANJI
 50
-90.000000
 51
0.000000
  0
TEXT
  8
5
 62
94
  6
CONTINUOUS
 10
80.888245
 20
25.487583
 40
1.750000
 41
4.000000
  1
承認
  7
KANJI
 50
-90.000000
 51
0.000000
  0
TEXT
  8
5
 62
94
  6
CONTINUOUS
 10
105.966060
 20
25.487583
 40
1.750000
 41
4.000000
  1
設計
  7
KANJI
 50
-90.000000
 51
0.000000
  0
TEXT
  8
5
 62
94
  6
CONTINUOUS
 10
99.409768
 20
11.555464
 40
4.500000
 41
1.888889
  1
ジャパンセンサー株式会社
  7
KANJI
 50
0.000000
 51
0.000000
  0
LINE
  8
5
 62
94
  6
CONTINUOUS
 10
200.000000
 20
10.000000
 11
200.000000
 21
285.000000
  0
LINE
  8
5
 62
94
  6
CONTINUOUS
 10
200.000000
 20
285.000000
 11
15.000000
 21
285.000000
  0
LINE
  8
5
 62
94
  6
CONTINUOUS
 10
15.000000
 20
285.000000
 11
15.000000
 21
10.000000
  0
LINE
  8
5
 62
94
  6
CONTINUOUS
 10
15.000000
 20
10.000000
 11
200.000000
 21
10.000000
  0
LINE
  8
5
 62
94
  6
CONTINUOUS
 10
80.000000
 20
42.000000
 11
200.000000
 21
42.000000
  0
LINE
  8
5
 62
94
  6
CONTINUOUS
 10
80.000000
 20
10.000000
 11
80.000000
 21
42.000000
  0
LINE
  8
5
 62
94
  6
CONTINUOUS
 10
200.000000
 20
18.000000
 11
80.000000
 21
18.000000
  0
LINE
  8
5
 62
94
  6
CONTINUOUS
 10
145.000000
 20
42.000000
 11
145.000000
 21
18.000000
  0
LINE
  8
5
 62
94
  6
CONTINUOUS
 10
200.000000
 20
26.000000
 11
80.000000
 21
26.000000
  0
LINE
  8
5
 62
94
  6
CONTINUOUS
 10
150.000000
 20
18.000000
 11
150.000000
 21
42.000000
  0
LINE
  8
5
 62
94
  6
CONTINUOUS
 10
120.000000
 20
42.000000
 11
120.000000
 21
26.000000
  0
LINE
  8
5
 62
94
  6
CONTINUOUS
 10
85.000000
 20
18.000000
 11
85.000000
 21
42.000000
  0
LINE
  8
5
 62
94
  6
CONTINUOUS
 10
80.000000
 20
34.000000
 11
145.000000
 21
34.000000
  0
LINE
  8
5
 62
94
  6
CONTINUOUS
 10
115.000000
 20
42.000000
 11
115.000000
 21
26.000000
  0
LINE
  8
5
 62
94
  6
CONTINUOUS
 10
105.000000
 20
18.000000
 11
105.000000
 21
26.000000
  0
LINE
  8
5
 62
94
  6
CONTINUOUS
 10
125.000000
 20
18.000000
 11
125.000000
 21
26.000000
  0
LINE
  8
5
 62
94
  6
CONTINUOUS
 10
110.000000
 20
26.000000
 11
110.000000
 21
18.000000
  0
LINE
  8
5
 62
94
  6
CONTINUOUS
 10
130.000000
 20
26.000000
 11
130.000000
 21
18.000000
  0
TEXT
  8
5
 62
94
  6
CONTINUOUS
 10
124.979305
 20
35.649834
 40
4.000000
 41
1.000000
  1
１／１
  7
KANJI
 50
0.000000
 51
0.000000
  0
TEXT
  8
5
 62
94
  6
CONTINUOUS
 10
123.995861
 20
27.290563
 40
4.000000
 41
1.000000
  1
三角法
  7
KANJI
 50
0.000000
 51
0.000000
  0
LINE
  8
1
 62
7
  6
CONTINUOUS
 10
21.024114
 20
193.000000
 11
20.024114
 21
192.000000
  0
LINE
  8
1
 62
7
  6
CONTINUOUS
 10
20.024114
 20
192.000000
 11
20.024114
 21
161.000000
  0
LINE
  8
1
 62
7
  6
CONTINUOUS
 10
20.024114
 20
161.000000
 11
21.024114
 21
160.000000
  0
LINE
  8
1
 62
7
  6
CONTINUOUS
 10
21.024114
 20
160.000000
 11
39.024114
 21
160.000000
  0
LINE
  8
1
 62
7
  6
CONTINUOUS
 10
39.024114
 20
160.000000
 11
40.024114
 21
161.000000
  0
LINE
  8
1
 62
7
  6
CONTINUOUS
 10
40.024114
 20
161.000000
 11
40.024114
 21
192.000000
  0
LINE
  8
1
 62
7
  6
CONTINUOUS
 10
21.024114
 20
193.000000
 11
39.024114
 21
193.000000
  0
LINE
  8
1
 62
7
  6
CONTINUOUS
 10
40.024114
 20
192.000000
 11
39.024114
 21
193.000000
  0
LINE
  8
1
 62
7
  6
CONTINUOUS
 10
20.024114
 20
192.000000
 11
40.024114
 21
192.000000
  0
CIRCLE
  8
1
 62
7
  6
CONTINUOUS
 10
30.024114
 20
180.000000
 40
7.500000
  0
CIRCLE
  8
1
 62
7
  6
CONTINUOUS
 10
30.024114
 20
180.000000
 40
5.827893
  0
LINE
  8
2
 62
134
  6
CONTINUOUS
 10
40.024114
 20
160.046752
 11
40.024114
 21
160.000000
  0
LINE
  8
2
 62
134
  6
CONTINUOUS
 10
40.024114
 20
180.000000
 11
48.087106
 21
180.000000
  0
LINE
  8
1
 62
7
  6
CONTINUOUS
 10
51.448819
 20
190.000000
 11
51.448819
 21
160.000000
  0
LINE
  8
1
 62
7
  6
CONTINUOUS
 10
51.448819
 20
160.000000
 11
146.448819
 21
160.000000
  0
LINE
  8
1
 62
7
  6
CONTINUOUS
 10
146.448819
 20
160.000000
 11
146.448819
 21
190.000000
  0
LINE
  8
1
 62
7
  6
CONTINUOUS
 10
146.448819
 20
190.000000
 11
51.448819
 21
190.000000
  0
CIRCLE
  8
1
 62
7
  6
CONTINUOUS
 10
55.448819
 20
167.000000
 40
1.750000
  0
CIRCLE
  8
1
 62
7
  6
CONTINUOUS
 10
75.448819
 20
167.000000
 40
1.750000
  0
CIRCLE
  8
1
 62
7
  6
CONTINUOUS
 10
95.448819
 20
167.000000
 40
1.750000
  0
CIRCLE
  8
1
 62
7
  6
CONTINUOUS
 10
115.448819
 20
167.000000
 40
1.750000
  0
LINE
  8
1
 62
7
  6
CONTINUOUS
 10
51.448819
 20
161.000000
 11
146.448819
 21
161.000000
  0
LINE
  8
1
 62
7
  6
CONTINUOUS
 10
146.448819
 20
193.000000
 11
146.448819
 21
190.000000
  0
LINE
  8
1
 62
7
  6
CONTINUOUS
 10
89.448819
 20
190.000000
 11
89.448819
 21
192.000000
  0
LINE
  8
1
 62
7
  6
CONTINUOUS
 10
146.448819
 20
193.000000
 11
90.448819
 21
193.000000
  0
LINE
  8
1
 62
7
  6
CONTINUOUS
 10
89.448819
 20
192.000000
 11
90.448819
 21
193.000000
  0
LINE
  8
1
 62
7
  6
CONTINUOUS
 10
89.448819
 20
192.000000
 11
146.448819
 21
192.000000
  0
LINE
  8
1
 62
7
  6
DASHDOT
 10
46.843996
 20
180.000000
 11
150.910925
 21
180.000000
  0
CIRCLE
  8
1
 62
7
  6
CONTINUOUS
 10
151.549213
 20
189.000000
 40
1.750000
  0
LINE
  8
1
 62
7
  6
CONTINUOUS
 10
146.549213
 20
192.300000
 11
156.049213
 21
192.300000
  0
LINE
  8
1
 62
7
  6
CONTINUOUS
 10
156.049213
 20
192.300000
 11
156.549213
 21
191.800000
  0
LINE
  8
1
 62
7
  6
CONTINUOUS
 10
156.549213
 20
191.800000
 11
156.549213
 21
165.800000
  0
LINE
  8
1
 62
7
  6
CONTINUOUS
 10
146.549213
 20
165.300000
 11
156.049213
 21
165.300000
  0
LINE
  8
1
 62
7
  6
CONTINUOUS
 10
156.549213
 20
165.800000
 11
156.049213
 21
165.300000
  0
LINE
  8
1
 62
7
  6
CONTINUOUS
 10
146.549213
 20
191.800000
 11
156.049213
 21
191.800000
  0
LINE
  8
1
 62
7
  6
CONTINUOUS
 10
156.049213
 20
191.800000
 11
156.049213
 21
165.800000
  0
LINE
  8
1
 62
7
  6
CONTINUOUS
 10
156.049213
 20
165.800000
 11
146.549213
 21
165.800000
  0
LINE
  8
1
 62
7
  6
DASHDOT
 10
147.764272
 20
189.000000
 11
155.364665
 21
189.000000
  0
LINE
  8
1
 62
7
  6
DASHDOT
 10
151.549213
 20
193.846580
 11
151.549213
 21
184.492249
  0
LINE
  8
1
 62
7
  6
CONTINUOUS
 10
156.549213
 20
186.026944
 11
185.049213
 21
186.026944
  0
LINE
  8
1
 62
7
  6
CONTINUOUS
 10
185.049213
 20
186.026944
 11
185.549213
 21
185.526944
  0
LINE
  8
1
 62
7
  6
CONTINUOUS
 10
185.549213
 20
185.526944
 11
185.549213
 21
174.500000
  0
LINE
  8
1
 62
7
  6
CONTINUOUS
 10
156.607037
 20
174.000000
 11
185.049213
 21
174.000000
  0
LINE
  8
1
 62
7
  6
CONTINUOUS
 10
185.549213
 20
174.500000
 11
185.049213
 21
174.000000
  0
LINE
  8
1
 62
7
  6
DASHDOT
 10
83.745571
 20
180.000000
 11
187.666339
 21
180.000000
  0
LINE
  8
1
 62
7
  6
DOT
 10
117.728100
 20
174.000000
 11
156.549213
 21
174.000000
  0
LINE
  8
1
 62
7
  6
DOT
 10
156.549213
 20
186.026944
 11
117.728100
 21
186.026944
  0
LINE
  8
1
 62
7
  6
CONTINUOUS
 10
185.049213
 20
186.024699
 11
185.049213
 21
174.000000
  0
LINE
  8
1
 62
7
  6
CONTINUOUS
 10
190.954970
 20
183.580955
 11
190.960453
 21
183.569866
  0
LINE
  8
1
 62
7
  6
CONTINUOUS
 10
190.960453
 20
183.569866
 11
190.976759
 21
183.536902
  0
LINE
  8
1
 62
7
  6
CONTINUOUS
 10
190.976759
 20
183.536902
 11
191.003527
 21
183.482952
  0
LINE
  8
1
 62
7
  6
CONTINUOUS
 10
191.003527
 20
183.482952
 11
191.040324
 21
183.409457
  0
LINE
  8
1
 62
7
  6
CONTINUOUS
 10
191.040324
 20
183.409457
 11
191.086834
 21
183.318347
  0
LINE
  8
1
 62
7
  6
CONTINUOUS
 10
191.086834
 20
183.318347
 11
191.143018
 21
183.211976
  0
LINE
  8
1
 62
7
  6
CONTINUOUS
 10
191.143018
 20
183.211976
 11
191.209151
 21
183.093052
  0
LINE
  8
1
 62
7
  6
CONTINUOUS
 10
191.209151
 20
183.093052
 11
191.285710
 21
182.964574
  0
LINE
  8
1
 62
7
  6
CONTINUOUS
 10
191.285710
 20
182.964574
 11
191.373098
 21
182.829780
  0
LINE
  8
1
 62
7
  6
CONTINUOUS
 10
191.373098
 20
182.829780
 11
191.471238
 21
182.692100
  0
LINE
  8
1
 62
7
  6
CONTINUOUS
 10
191.471238
 20
182.692100
 11
191.579131
 21
182.555110
  0
LINE
  8
1
 62
7
  6
CONTINUOUS
 10
191.579131
 20
182.555110
 11
191.694478
 21
182.422476
  0
LINE
  8
1
 62
7
  6
CONTINUOUS
 10
191.694478
 20
182.422476
 11
191.813479
 21
182.297887
  0
LINE
  8
1
 62
7
  6
CONTINUOUS
 10
191.813479
 20
182.297887
 11
191.930881
 21
182.184957
  0
LINE
  8
1
 62
7
  6
CONTINUOUS
 10
191.930881
 20
182.184957
 11
192.040326
 21
182.087105
  0
LINE
  8
1
 62
7
  6
CONTINUOUS
 10
192.040326
 20
182.087105
 11
192.134954
 21
182.007413
  0
LINE
  8
1
 62
7
  6
CONTINUOUS
 10
192.134954
 20
182.007413
 11
192.208184
 21
181.948485
  0
LINE
  8
1
 62
7
  6
CONTINUOUS
 10
192.208184
 20
181.948485
 11
192.254547
 21
181.912301
  0
LINE
  8
1
 62
7
  6
CONTINUOUS
 10
192.254547
 20
181.912301
 11
192.270423
 21
181.900098
  0
LINE
  8
1
 62
7
  6
CONTINUOUS
 10
192.270423
 20
181.900098
 11
192.286442
 21
181.887881
  0
LINE
  8
1
 62
7
  6
CONTINUOUS
 10
192.286442
 20
181.887881
 11
192.334895
 21
181.851472
  0
LINE
  8
1
 62
7
  6
CONTINUOUS
 10
192.334895
 20
181.851472
 11
192.416815
 21
181.791614
  0
LINE
  8
1
 62
7
  6
CONTINUOUS
 10
192.416815
 20
181.791614
 11
192.533439
 21
181.709565
  0
LINE
  8
1
 62
7
  6
CONTINUOUS
 10
192.533439
 20
181.709565
 11
192.685584
 21
181.607137
  0
LINE
  8
1
 62
7
  6
CONTINUOUS
 10
192.685584
 20
181.607137
 11
192.872978
 21
181.486708
  0
LINE
  8
1
 62
7
  6
CONTINUOUS
 10
192.872978
 20
181.486708
 11
193.093663
 21
181.351225
  0
LINE
  8
1
 62
7
  6
CONTINUOUS
 10
193.093663
 20
181.351225
 11
193.343626
 21
181.204168
  0
LINE
  8
1
 62
7
  6
CONTINUOUS
 10
193.343626
 20
181.204168
 11
193.616702
 21
181.049479
  0
LINE
  8
1
 62
7
  6
CONTINUOUS
 10
193.616702
 20
181.049479
 11
193.904799
 21
180.891447
  0
LINE
  8
1
 62
7
  6
CONTINUOUS
 10
193.904799
 20
180.891447
 11
194.198381
 21
180.734561
  0
LINE
  8
1
 62
7
  6
CONTINUOUS
 10
194.198381
 20
180.734561
 11
194.487131
 21
180.583348
  0
LINE
  8
1
 62
7
  6
CONTINUOUS
 10
194.487131
 20
180.583348
 11
194.760684
 21
180.442200
  0
LINE
  8
1
 62
7
  6
CONTINUOUS
 10
194.760684
 20
180.442200
 11
195.009296
 21
180.315212
  0
LINE
  8
1
 62
7
  6
CONTINUOUS
 10
195.009296
 20
180.315212
 11
195.224377
 21
180.206041
  0
LINE
  8
1
 62
7
  6
CONTINUOUS
 10
195.224377
 20
180.206041
 11
195.398832
 21
180.117797
  0
LINE
  8
1
 62
7
  6
CONTINUOUS
 10
195.398832
 20
180.117797
 11
195.527214
 21
180.052960
  0
LINE
  8
1
 62
7
  6
CONTINUOUS
 10
195.527214
 20
180.052960
 11
195.605723
 21
180.013331
  0
LINE
  8
1
 62
7
  6
CONTINUOUS
 10
195.605723
 20
180.013331
 11
195.632136
 21
180.000000
  0
LINE
  8
1
 62
7
  6
CONTINUOUS
 10
195.632136
 20
180.000000
 11
195.616936
 21
179.993646
  0
LINE
  8
1
 62
7
  6
CONTINUOUS
 10
195.616936
 20
179.993646
 11
195.571749
 21
179.974751
  0
LINE
  8
1
 62
7
  6
CONTINUOUS
 10
195.571749
 20
179.974751
 11
195.497804
 21
179.943780
  0
LINE
  8
1
 62
7
  6
CONTINUOUS
 10
195.497804
 20
179.943780
 11
195.397094
 21
179.901399
  0
LINE
  8
1
 62
7
  6
CONTINUOUS
 10
195.397094
 20
179.901399
 11
195.272319
 21
179.848344
  0
LINE
  8
1
 62
7
  6
CONTINUOUS
 10
195.272319
 20
179.848344
 11
195.126794
 21
179.785318
  0
LINE
  8
1
 62
7
  6
CONTINUOUS
 10
195.126794
 20
179.785318
 11
194.964359
 21
179.712941
  0
LINE
  8
1
 62
7
  6
CONTINUOUS
 10
194.964359
 20
179.712941
 11
194.789282
 21
179.631803
  0
LINE
  8
1
 62
7
  6
CONTINUOUS
 10
194.789282
 20
179.631803
 11
194.606161
 21
179.542605
  0
LINE
  8
1
 62
7
  6
CONTINUOUS
 10
194.606161
 20
179.542605
 11
194.419827
 21
179.446379
  0
LINE
  8
1
 62
7
  6
CONTINUOUS
 10
194.419827
 20
179.446379
 11
194.235241
 21
179.344732
  0
LINE
  8
1
 62
7
  6
CONTINUOUS
 10
194.235241
 20
179.344732
 11
194.057394
 21
179.240044
  0
LINE
  8
1
 62
7
  6
CONTINUOUS
 10
194.057394
 20
179.240044
 11
193.891183
 21
179.135569
  0
LINE
  8
1
 62
7
  6
CONTINUOUS
 10
193.891183
 20
179.135569
 11
193.741285
 21
179.035375
  0
LINE
  8
1
 62
7
  6
CONTINUOUS
 10
193.741285
 20
179.035375
 11
193.612014
 21
178.944109
  0
LINE
  8
1
 62
7
  6
CONTINUOUS
 10
193.612014
 20
178.944109
 11
193.507174
 21
178.866616
  0
LINE
  8
1
 62
7
  6
CONTINUOUS
 10
193.507174
 20
178.866616
 11
193.429910
 21
178.807437
  0
LINE
  8
1
 62
7
  6
CONTINUOUS
 10
193.429910
 20
178.807437
 11
193.382576
 21
178.770293
  0
LINE
  8
1
 62
7
  6
CONTINUOUS
 10
193.382576
 20
178.770293
 11
193.366634
 21
178.757628
  0
LINE
  8
1
 62
7
  6
CONTINUOUS
 10
193.366634
 20
178.757628
 11
193.350681
 21
178.744876
  0
LINE
  8
1
 62
7
  6
CONTINUOUS
 10
193.350681
 20
178.744876
 11
193.303199
 21
178.706464
  0
LINE
  8
1
 62
7
  6
CONTINUOUS
 10
193.303199
 20
178.706464
 11
193.225313
 21
178.642008
  0
LINE
  8
1
 62
7
  6
CONTINUOUS
 10
193.225313
 20
178.642008
 11
193.118902
 21
178.551160
  0
LINE
  8
1
 62
7
  6
CONTINUOUS
 10
193.118902
 20
178.551160
 11
192.986581
 21
178.433970
  0
LINE
  8
1
 62
7
  6
CONTINUOUS
 10
192.986581
 20
178.433970
 11
192.831684
 21
178.291281
  0
LINE
  8
1
 62
7
  6
CONTINUOUS
 10
192.831684
 20
178.291281
 11
192.658210
 21
178.125069
  0
LINE
  8
1
 62
7
  6
CONTINUOUS
 10
192.658210
 20
178.125069
 11
192.470747
 21
177.938650
  0
LINE
  8
1
 62
7
  6
CONTINUOUS
 10
192.470747
 20
177.938650
 11
192.274363
 21
177.736712
  0
LINE
  8
1
 62
7
  6
CONTINUOUS
 10
192.274363
 20
177.736712
 11
192.074460
 21
177.525156
  0
LINE
  8
1
 62
7
  6
CONTINUOUS
 10
192.074460
 20
177.525156
 11
191.876611
 21
177.310769
  0
LINE
  8
1
 62
7
  6
CONTINUOUS
 10
191.876611
 20
177.310769
 11
191.686378
 21
177.100800
  0
LINE
  8
1
 62
7
  6
CONTINUOUS
 10
191.686378
 20
177.100800
 11
191.509127
 21
176.902490
  0
LINE
  8
1
 62
7
  6
CONTINUOUS
 10
191.509127
 20
176.902490
 11
191.349857
 21
176.722632
  0
LINE
  8
1
 62
7
  6
CONTINUOUS
 10
191.349857
 20
176.722632
 11
191.213041
 21
176.567232
  0
LINE
  8
1
 62
7
  6
CONTINUOUS
 10
191.213041
 20
176.567232
 11
191.102499
 21
176.441272
  0
LINE
  8
1
 62
7
  6
CONTINUOUS
 10
191.102499
 20
176.441272
 11
191.021295
 21
176.348607
  0
LINE
  8
1
 62
7
  6
CONTINUOUS
 10
191.021295
 20
176.348607
 11
190.971666
 21
176.291946
  0
LINE
  8
1
 62
7
  6
CONTINUOUS
 10
190.971666
 20
176.291946
 11
190.954970
 21
176.272884
  0
LINE
  8
1
 62
7
  6
CONTINUOUS
 10
193.366634
 20
181.242372
 11
193.356916
 21
181.233549
  0
LINE
  8
1
 62
7
  6
CONTINUOUS
 10
193.356916
 20
181.233549
 11
193.328036
 21
181.207320
  0
LINE
  8
1
 62
7
  6
CONTINUOUS
 10
193.328036
 20
181.207320
 11
193.280858
 21
181.164404
  0
LINE
  8
1
 62
7
  6
CONTINUOUS
 10
193.280858
 20
181.164404
 11
193.216945
 21
181.105981
  0
LINE
  8
1
 62
7
  6
CONTINUOUS
 10
193.216945
 20
181.105981
 11
193.138681
 21
181.033668
  0
LINE
  8
1
 62
7
  6
CONTINUOUS
 10
193.138681
 20
181.033668
 11
193.049339
 21
180.949479
  0
LINE
  8
1
 62
7
  6
CONTINUOUS
 10
193.049339
 20
180.949479
 11
192.953037
 21
180.855770
  0
LINE
  8
1
 62
7
  6
CONTINUOUS
 10
192.953037
 20
180.855770
 11
192.854520
 21
180.755175
  0
LINE
  8
1
 62
7
  6
CONTINUOUS
 10
192.854520
 20
180.755175
 11
192.758787
 21
180.650521
  0
LINE
  8
1
 62
7
  6
CONTINUOUS
 10
192.758787
 20
180.650521
 11
192.670593
 21
180.544741
  0
LINE
  8
1
 62
7
  6
CONTINUOUS
 10
192.670593
 20
180.544741
 11
192.593900
 21
180.440775
  0
LINE
  8
1
 62
7
  6
CONTINUOUS
 10
192.593900
 20
180.440775
 11
192.531400
 21
180.341481
  0
LINE
  8
1
 62
7
  6
CONTINUOUS
 10
192.531400
 20
180.341481
 11
192.484189
 21
180.249546
  0
LINE
  8
1
 62
7
  6
CONTINUOUS
 10
192.484189
 20
180.249546
 11
192.451693
 21
180.167411
  0
LINE
  8
1
 62
7
  6
CONTINUOUS
 10
192.451693
 20
180.167411
 11
192.431868
 21
180.097209
  0
LINE
  8
1
 62
7
  6
CONTINUOUS
 10
192.431868
 20
180.097209
 11
192.421656
 21
180.040727
  0
LINE
  8
1
 62
7
  6
CONTINUOUS
 10
192.421656
 20
180.040727
 11
192.417621
 21
179.999369
  0
LINE
  8
1
 62
7
  6
CONTINUOUS
 10
192.417621
 20
179.999369
 11
192.416651
 21
179.974149
  0
LINE
  8
1
 62
7
  6
CONTINUOUS
 10
192.416651
 20
179.974149
 11
192.416585
 21
179.965674
  0
LINE
  8
1
 62
7
  6
CONTINUOUS
 10
192.416585
 20
179.965674
 11
192.416651
 21
179.957204
  0
LINE
  8
1
 62
7
  6
CONTINUOUS
 10
192.416651
 20
179.957204
 11
192.417621
 21
179.932054
  0
LINE
  8
1
 62
7
  6
CONTINUOUS
 10
192.417621
 20
179.932054
 11
192.421656
 21
179.890988
  0
LINE
  8
1
 62
7
  6
CONTINUOUS
 10
192.421656
 20
179.890988
 11
192.431868
 21
179.835243
  0
LINE
  8
1
 62
7
  6
CONTINUOUS
 10
192.431868
 20
179.835243
 11
192.451693
 21
179.766475
  0
LINE
  8
1
 62
7
  6
CONTINUOUS
 10
192.451693
 20
179.766475
 11
192.484189
 21
179.686687
  0
LINE
  8
1
 62
7
  6
CONTINUOUS
 10
192.484189
 20
179.686687
 11
192.531400
 21
179.598164
  0
LINE
  8
1
 62
7
  6
CONTINUOUS
 10
192.531400
 20
179.598164
 11
192.593900
 21
179.503387
  0
LINE
  8
1
 62
7
  6
CONTINUOUS
 10
192.593900
 20
179.503387
 11
192.670593
 21
179.404963
  0
LINE
  8
1
 62
7
  6
CONTINUOUS
 10
192.670593
 20
179.404963
 11
192.758787
 21
179.305555
  0
LINE
  8
1
 62
7
  6
CONTINUOUS
 10
192.758787
 20
179.305555
 11
192.854520
 21
179.207819
  0
LINE
  8
1
 62
7
  6
CONTINUOUS
 10
192.854520
 20
179.207819
 11
192.953037
 21
179.114343
  0
LINE
  8
1
 62
7
  6
CONTINUOUS
 10
192.953037
 20
179.114343
 11
193.049339
 21
179.027593
  0
LINE
  8
1
 62
7
  6
CONTINUOUS
 10
193.049339
 20
179.027593
 11
193.138681
 21
178.949860
  0
LINE
  8
1
 62
7
  6
CONTINUOUS
 10
193.138681
 20
178.949860
 11
193.216945
 21
178.883203
  0
LINE
  8
1
 62
7
  6
CONTINUOUS
 10
193.216945
 20
178.883203
 11
193.280858
 21
178.829398
  0
LINE
  8
1
 62
7
  6
CONTINUOUS
 10
193.280858
 20
178.829398
 11
193.328036
 21
178.789891
  0
LINE
  8
1
 62
7
  6
CONTINUOUS
 10
193.328036
 20
178.789891
 11
193.356916
 21
178.765749
  0
LINE
  8
1
 62
7
  6
CONTINUOUS
 10
193.356916
 20
178.765749
 11
193.366634
 21
178.757628
  0
LINE
  8
1
 62
7
  6
DOT
 10
114.015133
 20
172.500000
 11
99.015133
 21
187.500000
  0
LINE
  8
1
 62
7
  6
DOT
 10
117.915723
 20
186.063484
 11
117.915723
 21
173.932087
  0
LINE
  8
1
 62
7
  6
DOT
 10
51.448819
 20
187.500000
 11
94.676058
 21
187.500000
  0
LINE
  8
1
 62
7
  6
DOT
 10
94.676058
 20
187.500000
 11
94.676058
 21
172.500000
  0
LINE
  8
1
 62
7
  6
DOT
 10
94.676058
 20
172.500000
 11
51.448819
 21
172.500000
  0
LINE
  8
1
 62
7
  6
DOT
 10
51.448819
 20
186.209646
 11
95.553027
 21
186.209646
  0
LINE
  8
1
 62
7
  6
DOT
 10
95.553027
 20
186.209646
 11
95.553027
 21
174.078248
  0
LINE
  8
1
 62
7
  6
DOT
 10
95.553027
 20
174.078248
 11
51.412279
 21
174.078248
  0
ARC
  8
1
 62
7
  6
DOT
 10
97.073819
 20
180.000000
 40
28.625000
 50
164.810713
 51
-164.810713
  0
ARC
  8
1
 62
7
  6
DOT
 10
42.823819
 20
180.000000
 40
28.625000
 50
-15.189287
 51
15.189287
  0
LINE
  8
1
 62
7
  6
DOT
 10
56.584819
 20
161.000000
 11
56.584819
 21
172.500000
  0
LINE
  8
1
 62
7
  6
DOT
 10
57.165819
 20
161.000000
 11
57.165819
 21
172.500000
  0
LINE
  8
1
 62
7
  6
DOT
 10
65.731819
 20
161.000000
 11
65.731819
 21
172.500000
  0
LINE
  8
1
 62
7
  6
DOT
 10
66.312819
 20
161.000000
 11
66.312819
 21
172.500000
  0
LINE
  8
1
 62
7
  6
DOT
 10
61.448819
 20
172.500000
 11
61.448819
 21
160.000000
  0
LINE
  8
1
 62
7
  6
CONTINUOUS
 10
123.360236
 20
167.000000
 11
134.322343
 21
167.000000
  0
DIMENSION
  8
2
 62
134
  6
CONTINUOUS
  2
*D1
 10
133.591535
 20
167.010581
 11
133.091535
 21
163.510581
 70
     0
  1
7
 13
133.591535
 23
167.010581
 14
133.591535
 24
160.010581
 50
-90.000000
  0
LINE
  8
1
 62
7
  6
DASHDOT
 10
30.024114
 20
197.610236
 11
30.024114
 21
156.392717
  0
LINE
  8
1
 62
7
  6
DASHDOT
 10
15.017717
 20
180.000000
 11
42.788386
 21
180.000000
  0
TEXT
  8
5
 62
94
  6
CONTINUOUS
 10
156.392717
 20
28.574557
 40
4.000000
 41
1.000000
  1
センサヘッド外形図
  7
KANJI
 50
0.000000
 51
0.000000
  0
LINE
  8
5
 62
94
  6
CONTINUOUS
 10
152.702141
 20
34.274852
 11
197.427534
 21
34.274852
  0
TEXT
  8
5
 62
94
  6
CONTINUOUS
 10
113.238558
 20
19.951033
 40
4.000000
 41
1.000000
  1
須藤
  7
KANJI
 50
0.000000
 51
0.000000
  0
TEXT
  8
5
 62
94
  6
CONTINUOUS
 10
156.357887
 20
35.829825
 40
4.000000
 41
0.653846
  1
FTH9-□L φ15光学
  7
KANJI
 50
0.000000
 51
0.000000
  0
TEXT
  8
5
 62
94
  6
CONTINUOUS
 10
89.852731
 20
28.136073
 40
4.000000
 41
0.500000
  1
2006/09/04
  7
KANJI
 50
0.000000
 51
0.000000
  0
TEXT
  8
5
 62
94
  6
CONTINUOUS
 10
133.238558
 20
19.951033
 40
4.000000
 41
1.000000
  1
須藤
  7
KANJI
 50
0.000000
 51
0.000000
  0
LINE
  8
1
 62
7
  6
DASHDOT
 10
55.448819
 20
170.448056
 11
55.448819
 21
163.769576
  0
LINE
  8
1
 62
7
  6
DASHDOT
 10
52.499206
 20
167.000000
 11
58.995545
 21
167.000000
  0
LINE
  8
1
 62
7
  6
DASHDOT
 10
70.834668
 20
167.000000
 11
79.638119
 21
167.000000
  0
LINE
  8
1
 62
7
  6
DASHDOT
 10
75.448819
 20
170.326629
 11
75.448819
 21
163.587436
  0
DIMENSION
  8
2
 62
134
  6
CONTINUOUS
  2
*D2
 10
51.448819
 20
152.300197
 11
53.409907
 21
152.300197
 70
     0
  1
4
 13
51.448819
 23
158.000000
 14
55.448819
 24
161.769576
 50
0.000000
  0
DIMENSION
  8
2
 62
134
  6
CONTINUOUS
  2
*D3
 10
51.448819
 20
145.251973
 11
56.263440
 21
145.251973
 70
     0
  1
10
 13
51.448819
 23
158.000000
 14
61.448819
 24
159.000000
 50
0.000000
  0
DIMENSION
  8
2
 62
134
  6
CONTINUOUS
  2
*D4
 10
46.033223
 20
160.000000
 11
46.033223
 21
170.000000
 70
     0
  1
20
 13
41.024114
 23
160.000000
 14
42.024114
 24
180.000000
 50
90.000000
  0
DIMENSION
  8
2
 62
134
  6
CONTINUOUS
  2
*D5
 10
46.033223
 20
180.000000
 11
46.033223
 21
186.500000
 70
     0
  1
13
 13
46.033223
 23
180.000000
 14
41.024114
 24
193.000000
 50
90.000000
  0
DIMENSION
  8
2
 62
134
  6
CONTINUOUS
  2
*D6
 10
78.429433
 20
190.000000
 11
78.429433
 21
196.307153
 70
     0
  1
3
 13
87.448819
 23
190.000000
 14
90.299501
 24
193.000000
 50
90.000000
  0
LINE
  8
1
 62
7
  6
CONTINUOUS
 10
20.024114
 20
190.000000
 11
40.024114
 21
190.000000
  0
LINE
  8
1
 62
7
  6
DASHDOT
 10
106.448819
 20
180.000000
 11
106.448819
 21
164.369403
  0
DIMENSION
  8
2
 62
134
  6
CONTINUOUS
  2
*D7
 10
109.448819
 20
129.000000
 11
112.867695
 21
129.500000
 70
     0
  1
φ6
 13
109.448819
 23
129.000000
 14
103.448819
 24
129.000000
 50
180.000000
  0
DIMENSION
  8
2
 62
134
  6
CONTINUOUS
  2
*D8
 10
121.026175
 20
138.000000
 11
121.026175
 21
148.500000
 70
     0
  1
22
 13
113.448819
 23
138.000000
 14
118.031241
 24
160.000000
 50
90.000000
  0
DIMENSION
  8
2
 62
134
  6
CONTINUOUS
  2
*D9
 10
101.448819
 20
144.407924
 11
95.427136
 21
144.407924
 70
     0
  1
φ10
 13
101.448819
 23
144.118579
 14
111.448819
 24
144.118579
 50
0.000000
  0
LINE
  8
1
 62
7
  6
DASHDOT
 10
107.985907
 20
141.750000
 11
104.947817
 21
141.750000
  0
CIRCLE
  8
1
 62
7
  6
CONTINUOUS
 10
106.448819
 20
141.750000
 40
1.000000
  0
CIRCLE
  8
1
 62
7
  6
CONTINUOUS
 10
106.448819
 20
141.750000
 40
0.782631
  0
LINE
  8
1
 62
7
  6
CONTINUOUS
 10
111.448819
 20
154.500000
 11
111.448819
 21
138.000000
  0
LINE
  8
1
 62
7
  6
CONTINUOUS
 10
111.448819
 20
138.000000
 11
106.448819
 21
138.000000
  0
LINE
  8
1
 62
7
  6
CONTINUOUS
 10
102.448819
 20
154.500000
 11
101.448819
 21
154.500000
  0
LINE
  8
1
 62
7
  6
CONTINUOUS
 10
101.448819
 20
154.500000
 11
101.448819
 21
138.000000
  0
LINE
  8
1
 62
7
  6
CONTINUOUS
 10
101.448819
 20
138.000000
 11
106.448819
 21
138.000000
  0
LINE
  8
1
 62
7
  6
CONTINUOUS
 10
101.948819
 20
138.000000
 11
110.948819
 21
138.000000
  0
LINE
  8
1
 62
7
  6
CONTINUOUS
 10
109.448819
 20
137.000000
 11
109.448819
 21
136.000000
  0
LINE
  8
1
 62
7
  6
CONTINUOUS
 10
109.448819
 20
135.000000
 11
109.448819
 21
134.000000
  0
LINE
  8
1
 62
7
  6
CONTINUOUS
 10
109.448819
 20
133.000000
 11
109.448819
 21
132.000000
  0
LINE
  8
1
 62
7
  6
CONTINUOUS
 10
109.448819
 20
131.000000
 11
109.448819
 21
130.000000
  0
LINE
  8
1
 62
7
  6
CONTINUOUS
 10
109.448819
 20
129.000000
 11
109.448819
 21
128.000000
  0
LINE
  8
1
 62
7
  6
CONTINUOUS
 10
109.448819
 20
127.000000
 11
109.448819
 21
126.000000
  0
LINE
  8
1
 62
7
  6
CONTINUOUS
 10
109.448819
 20
125.000000
 11
109.448819
 21
124.000000
  0
LINE
  8
1
 62
7
  6
CONTINUOUS
 10
109.448819
 20
123.000000
 11
109.448819
 21
122.000000
  0
LINE
  8
1
 62
7
  6
CONTINUOUS
 10
109.448819
 20
121.000000
 11
109.448819
 21
120.000000
  0
LINE
  8
1
 62
7
  6
CONTINUOUS
 10
108.948819
 20
119.000000
 11
109.448819
 21
119.000000
  0
LINE
  8
1
 62
7
  6
CONTINUOUS
 10
103.448819
 20
136.000000
 11
103.448819
 21
135.000000
  0
LINE
  8
1
 62
7
  6
CONTINUOUS
 10
103.448819
 20
134.000000
 11
103.448819
 21
133.000000
  0
LINE
  8
1
 62
7
  6
CONTINUOUS
 10
103.448819
 20
132.000000
 11
103.448819
 21
131.000000
  0
LINE
  8
1
 62
7
  6
CONTINUOUS
 10
103.448819
 20
130.000000
 11
103.448819
 21
129.000000
  0
LINE
  8
1
 62
7
  6
CONTINUOUS
 10
103.448819
 20
128.000000
 11
103.448819
 21
127.000000
  0
LINE
  8
1
 62
7
  6
CONTINUOUS
 10
103.448819
 20
126.000000
 11
103.448819
 21
125.000000
  0
LINE
  8
1
 62
7
  6
CONTINUOUS
 10
103.448819
 20
124.000000
 11
103.448819
 21
123.000000
  0
LINE
  8
1
 62
7
  6
CONTINUOUS
 10
103.448819
 20
122.000000
 11
103.448819
 21
121.000000
  0
LINE
  8
1
 62
7
  6
CONTINUOUS
 10
103.448819
 20
120.000000
 11
103.448819
 21
119.000000
  0
LINE
  8
1
 62
7
  6
CONTINUOUS
 10
109.448819
 20
137.000000
 11
103.448819
 21
136.000000
  0
LINE
  8
1
 62
7
  6
CONTINUOUS
 10
109.448819
 20
136.000000
 11
103.448819
 21
135.000000
  0
LINE
  8
1
 62
7
  6
CONTINUOUS
 10
109.448819
 20
135.000000
 11
103.448819
 21
134.000000
  0
LINE
  8
1
 62
7
  6
CONTINUOUS
 10
109.448819
 20
134.000000
 11
103.448819
 21
133.000000
  0
LINE
  8
1
 62
7
  6
CONTINUOUS
 10
109.448819
 20
133.000000
 11
103.448819
 21
132.000000
  0
LINE
  8
1
 62
7
  6
CONTINUOUS
 10
109.448819
 20
132.000000
 11
103.448819
 21
131.000000
  0
LINE
  8
1
 62
7
  6
CONTINUOUS
 10
109.448819
 20
131.000000
 11
103.448819
 21
130.000000
  0
LINE
  8
1
 62
7
  6
CONTINUOUS
 10
109.448819
 20
130.000000
 11
103.448819
 21
129.000000
  0
LINE
  8
1
 62
7
  6
CONTINUOUS
 10
109.448819
 20
129.000000
 11
103.448819
 21
128.000000
  0
LINE
  8
1
 62
7
  6
CONTINUOUS
 10
109.448819
 20
128.000000
 11
103.448819
 21
127.000000
  0
LINE
  8
1
 62
7
  6
CONTINUOUS
 10
109.448819
 20
127.000000
 11
103.448819
 21
126.000000
  0
LINE
  8
1
 62
7
  6
CONTINUOUS
 10
109.448819
 20
126.000000
 11
103.448819
 21
125.000000
  0
LINE
  8
1
 62
7
  6
CONTINUOUS
 10
109.448819
 20
125.000000
 11
103.448819
 21
124.000000
  0
LINE
  8
1
 62
7
  6
CONTINUOUS
 10
109.448819
 20
124.000000
 11
103.448819
 21
123.000000
  0
LINE
  8
1
 62
7
  6
CONTINUOUS
 10
109.448819
 20
123.000000
 11
103.448819
 21
122.000000
  0
LINE
  8
1
 62
7
  6
CONTINUOUS
 10
109.448819
 20
122.000000
 11
103.448819
 21
121.000000
  0
LINE
  8
1
 62
7
  6
CONTINUOUS
 10
109.448819
 20
121.000000
 11
103.448819
 21
120.000000
  0
LINE
  8
1
 62
7
  6
CONTINUOUS
 10
109.448819
 20
120.000000
 11
103.448819
 21
119.000000
  0
LINE
  8
1
 62
7
  6
CONTINUOUS
 10
108.948819
 20
119.000000
 11
103.448819
 21
119.000000
  0
LINE
  8
1
 62
7
  6
CONTINUOUS
 10
108.948819
 20
138.000000
 11
108.948819
 21
136.916667
  0
LINE
  8
1
 62
7
  6
CONTINUOUS
 10
108.948819
 20
135.916667
 11
108.948819
 21
134.916667
  0
LINE
  8
1
 62
7
  6
CONTINUOUS
 10
108.948819
 20
133.916667
 11
108.948819
 21
132.916667
  0
LINE
  8
1
 62
7
  6
CONTINUOUS
 10
108.948819
 20
131.916667
 11
108.948819
 21
130.916667
  0
LINE
  8
1
 62
7
  6
CONTINUOUS
 10
108.948819
 20
129.916667
 11
108.948819
 21
128.916667
  0
LINE
  8
1
 62
7
  6
CONTINUOUS
 10
108.948819
 20
127.916667
 11
108.948819
 21
126.916667
  0
LINE
  8
1
 62
7
  6
CONTINUOUS
 10
108.948819
 20
125.916667
 11
108.948819
 21
124.916667
  0
LINE
  8
1
 62
7
  6
CONTINUOUS
 10
108.948819
 20
123.916667
 11
108.948819
 21
122.916667
  0
LINE
  8
1
 62
7
  6
CONTINUOUS
 10
108.948819
 20
121.916667
 11
108.948819
 21
120.916667
  0
LINE
  8
1
 62
7
  6
CONTINUOUS
 10
108.948819
 20
119.916667
 11
108.948819
 21
119.000000
  0
LINE
  8
1
 62
7
  6
CONTINUOUS
 10
103.948819
 20
121.083333
 11
103.948819
 21
120.083333
  0
LINE
  8
1
 62
7
  6
CONTINUOUS
 10
103.948819
 20
123.083333
 11
103.948819
 21
122.083333
  0
LINE
  8
1
 62
7
  6
CONTINUOUS
 10
103.948819
 20
124.983760
 11
103.948819
 21
124.083333
  0
LINE
  8
1
 62
7
  6
CONTINUOUS
 10
103.948819
 20
127.083333
 11
103.948819
 21
126.083333
  0
LINE
  8
1
 62
7
  6
CONTINUOUS
 10
103.948819
 20
129.083333
 11
103.948819
 21
128.083333
  0
LINE
  8
1
 62
7
  6
CONTINUOUS
 10
103.948819
 20
131.083333
 11
103.948819
 21
130.083333
  0
LINE
  8
1
 62
7
  6
CONTINUOUS
 10
103.948819
 20
133.083333
 11
103.948819
 21
132.083333
  0
LINE
  8
1
 62
7
  6
CONTINUOUS
 10
103.948819
 20
135.083333
 11
103.948819
 21
134.083333
  0
LINE
  8
1
 62
7
  6
CONTINUOUS
 10
103.948819
 20
136.983760
 11
103.948819
 21
136.083333
  0
LINE
  8
1
 62
7
  6
CONTINUOUS
 10
108.948819
 20
138.000000
 11
103.444882
 21
136.899213
  0
LINE
  8
1
 62
7
  6
CONTINUOUS
 10
103.948819
 20
138.000000
 11
103.448819
 21
137.913382
  0
LINE
  8
1
 62
7
  6
CONTINUOUS
 10
103.448819
 20
137.913382
 11
103.448819
 21
136.900000
  0
LINE
  8
1
 62
7
  6
CONTINUOUS
 10
103.948819
 20
137.008735
 11
103.948819
 21
137.000000
  0
LINE
  8
1
 62
7
  6
CONTINUOUS
 10
102.448819
 20
154.500000
 11
111.448819
 21
154.500000
  0
LINE
  8
1
 62
7
  6
CONTINUOUS
 10
102.448819
 20
154.500000
 11
102.448819
 21
160.000000
  0
LINE
  8
1
 62
7
  6
CONTINUOUS
 10
110.448819
 20
154.500000
 11
110.448819
 21
160.000000
  0
LINE
  8
1
 62
7
  6
DASHDOT
 10
107.985907
 20
148.500000
 11
104.947817
 21
148.500000
  0
CIRCLE
  8
1
 62
7
  6
CONTINUOUS
 10
106.448819
 20
148.500000
 40
1.000000
  0
CIRCLE
  8
1
 62
7
  6
CONTINUOUS
 10
106.448819
 20
148.500000
 40
0.782631
  0
LINE
  8
1
 62
7
  6
DASHDOT
 10
106.448819
 20
174.961245
 11
106.448819
 21
109.940850
  0
LINE
  8
2
 62
134
  6
CONTINUOUS
 10
51.448819
 20
136.841384
 11
49.516967
 21
136.323746
  0
LINE
  8
2
 62
134
  6
CONTINUOUS
 10
49.516967
 20
136.323746
 11
49.516967
 21
137.359022
  0
LINE
  8
2
 62
134
  6
CONTINUOUS
 10
49.516967
 20
137.359022
 11
51.448819
 21
136.841384
  0
LINE
  8
2
 62
134
  6
CONTINUOUS
 10
51.448819
 20
134.841384
 11
51.448819
 21
159.000000
  0
LINE
  8
2
 62
134
  6
CONTINUOUS
 10
20.024114
 20
136.841384
 11
51.448819
 21
136.841384
  0
DIMENSION
  8
2
 62
134
  6
CONTINUOUS
  2
*D10
 10
51.448819
 20
136.841384
 11
79.185571
 21
136.841384
 70
     0
  1
55
 13
51.448819
 23
158.000000
 14
106.448819
 24
136.841384
 50
0.000000
  0
LINE
  8
1
 62
7
  6
DASHDOT
 10
95.448819
 20
170.551291
 11
95.448819
 21
161.069882
  0
LINE
  8
1
 62
7
  6
DASHDOT
 10
115.448819
 20
170.803423
 11
115.448819
 21
161.362205
  0
LINE
  8
1
 62
7
  6
DASHDOT
 10
110.554971
 20
167.000000
 11
124.017224
 21
167.000000
  0
LINE
  8
1
 62
7
  6
DASHDOT
 10
90.636526
 20
167.000000
 11
100.091484
 21
167.000000
  0
DIMENSION
  8
2
 62
134
  6
CONTINUOUS
  2
*D11
 10
55.448819
 20
170.803423
 11
65.448819
 21
170.803423
 70
     0
  1
20
 13
55.448819
 23
170.750000
 14
75.448819
 24
170.750000
 50
0.000000
  0
DIMENSION
  8
2
 62
134
  6
CONTINUOUS
  2
*D12
 10
75.448819
 20
170.803423
 11
85.448819
 21
170.803423
 70
     0
  1
20
 13
75.448819
 23
170.803423
 14
95.448819
 24
170.750000
 50
0.000000
  0
DIMENSION
  8
2
 62
134
  6
CONTINUOUS
  2
*D13
 10
95.448819
 20
170.803423
 11
105.448819
 21
170.803423
 70
     0
  1
20
 13
95.448819
 23
170.803423
 14
115.448819
 24
170.750000
 50
0.000000
  0
TEXT
  8
2
 62
134
  6
CONTINUOUS
 10
133.059129
 20
144.815415
 40
4.000000
 41
0.583333
  1
4-φ3.5
  7
KANJI
 50
0.000000
 51
0.000000
  0
DIMENSION
  8
2
 62
134
  6
CONTINUOUS
  2
*D14
 10
51.448819
 20
201.189062
 11
100.970239
 21
201.189062
 70
     0
  1
95
 13
51.448819
 23
192.000000
 14
146.448819
 24
194.000000
 50
0.000000
  0
TEXT
  8
5
 62
94
  6
CONTINUOUS
 10
150.546260
 20
20.097195
 40
4.000000
 41
1.000000
  1
０１５－８７７－Ａ１０６
  7
KANJI
 50
0.000000
 51
0.000000
  0
LINE
  8
1
 62
7
  6
DASHDOT
 10
31.561202
 20
141.750000
 11
28.523113
 21
141.750000
  0
CIRCLE
  8
1
 62
7
  6
CONTINUOUS
 10
30.024114
 20
141.750000
 40
1.000000
  0
CIRCLE
  8
1
 62
7
  6
CONTINUOUS
 10
30.024114
 20
141.750000
 40
0.782631
  0
LINE
  8
1
 62
7
  6
CONTINUOUS
 10
35.024114
 20
154.500000
 11
35.024114
 21
138.000000
  0
LINE
  8
1
 62
7
  6
CONTINUOUS
 10
35.024114
 20
138.000000
 11
30.024114
 21
138.000000
  0
LINE
  8
1
 62
7
  6
CONTINUOUS
 10
26.024114
 20
154.500000
 11
25.024114
 21
154.500000
  0
LINE
  8
1
 62
7
  6
CONTINUOUS
 10
25.024114
 20
154.500000
 11
25.024114
 21
138.000000
  0
LINE
  8
1
 62
7
  6
CONTINUOUS
 10
25.024114
 20
138.000000
 11
30.024114
 21
138.000000
  0
LINE
  8
1
 62
7
  6
CONTINUOUS
 10
25.524114
 20
138.000000
 11
34.524114
 21
138.000000
  0
LINE
  8
1
 62
7
  6
CONTINUOUS
 10
33.024114
 20
137.000000
 11
33.024114
 21
136.000000
  0
LINE
  8
1
 62
7
  6
CONTINUOUS
 10
33.024114
 20
135.000000
 11
33.024114
 21
134.000000
  0
LINE
  8
1
 62
7
  6
CONTINUOUS
 10
33.024114
 20
133.000000
 11
33.024114
 21
132.000000
  0
LINE
  8
1
 62
7
  6
CONTINUOUS
 10
33.024114
 20
131.000000
 11
33.024114
 21
130.000000
  0
LINE
  8
1
 62
7
  6
CONTINUOUS
 10
33.024114
 20
129.000000
 11
33.024114
 21
128.000000
  0
LINE
  8
1
 62
7
  6
CONTINUOUS
 10
33.024114
 20
127.000000
 11
33.024114
 21
126.000000
  0
LINE
  8
1
 62
7
  6
CONTINUOUS
 10
33.024114
 20
125.000000
 11
33.024114
 21
124.000000
  0
LINE
  8
1
 62
7
  6
CONTINUOUS
 10
33.024114
 20
123.000000
 11
33.024114
 21
122.000000
  0
LINE
  8
1
 62
7
  6
CONTINUOUS
 10
33.024114
 20
121.000000
 11
33.024114
 21
120.000000
  0
LINE
  8
1
 62
7
  6
CONTINUOUS
 10
32.524114
 20
119.000000
 11
33.024114
 21
119.000000
  0
LINE
  8
1
 62
7
  6
CONTINUOUS
 10
27.024114
 20
136.000000
 11
27.024114
 21
135.000000
  0
LINE
  8
1
 62
7
  6
CONTINUOUS
 10
27.024114
 20
134.000000
 11
27.024114
 21
133.000000
  0
LINE
  8
1
 62
7
  6
CONTINUOUS
 10
27.024114
 20
132.000000
 11
27.024114
 21
131.000000
  0
LINE
  8
1
 62
7
  6
CONTINUOUS
 10
27.024114
 20
130.000000
 11
27.024114
 21
129.000000
  0
LINE
  8
1
 62
7
  6
CONTINUOUS
 10
27.024114
 20
128.000000
 11
27.024114
 21
127.000000
  0
LINE
  8
1
 62
7
  6
CONTINUOUS
 10
27.024114
 20
126.000000
 11
27.024114
 21
125.000000
  0
LINE
  8
1
 62
7
  6
CONTINUOUS
 10
27.024114
 20
124.000000
 11
27.024114
 21
123.000000
  0
LINE
  8
1
 62
7
  6
CONTINUOUS
 10
27.024114
 20
122.000000
 11
27.024114
 21
121.000000
  0
LINE
  8
1
 62
7
  6
CONTINUOUS
 10
27.024114
 20
120.000000
 11
27.024114
 21
119.000000
  0
LINE
  8
1
 62
7
  6
CONTINUOUS
 10
33.024114
 20
137.000000
 11
27.024114
 21
136.000000
  0
LINE
  8
1
 62
7
  6
CONTINUOUS
 10
33.024114
 20
136.000000
 11
27.024114
 21
135.000000
  0
LINE
  8
1
 62
7
  6
CONTINUOUS
 10
33.024114
 20
135.000000
 11
27.024114
 21
134.000000
  0
LINE
  8
1
 62
7
  6
CONTINUOUS
 10
33.024114
 20
134.000000
 11
27.024114
 21
133.000000
  0
LINE
  8
1
 62
7
  6
CONTINUOUS
 10
33.024114
 20
133.000000
 11
27.024114
 21
132.000000
  0
LINE
  8
1
 62
7
  6
CONTINUOUS
 10
33.024114
 20
132.000000
 11
27.024114
 21
131.000000
  0
LINE
  8
1
 62
7
  6
CONTINUOUS
 10
33.024114
 20
131.000000
 11
27.024114
 21
130.000000
  0
LINE
  8
1
 62
7
  6
CONTINUOUS
 10
33.024114
 20
130.000000
 11
27.024114
 21
129.000000
  0
LINE
  8
1
 62
7
  6
CONTINUOUS
 10
33.024114
 20
129.000000
 11
27.024114
 21
128.000000
  0
LINE
  8
1
 62
7
  6
CONTINUOUS
 10
33.024114
 20
128.000000
 11
27.024114
 21
127.000000
  0
LINE
  8
1
 62
7
  6
CONTINUOUS
 10
33.024114
 20
127.000000
 11
27.024114
 21
126.000000
  0
LINE
  8
1
 62
7
  6
CONTINUOUS
 10
33.024114
 20
126.000000
 11
27.024114
 21
125.000000
  0
LINE
  8
1
 62
7
  6
CONTINUOUS
 10
33.024114
 20
125.000000
 11
27.024114
 21
124.000000
  0
LINE
  8
1
 62
7
  6
CONTINUOUS
 10
33.024114
 20
124.000000
 11
27.024114
 21
123.000000
  0
LINE
  8
1
 62
7
  6
CONTINUOUS
 10
33.024114
 20
123.000000
 11
27.024114
 21
122.000000
  0
LINE
  8
1
 62
7
  6
CONTINUOUS
 10
33.024114
 20
122.000000
 11
27.024114
 21
121.000000
  0
LINE
  8
1
 62
7
  6
CONTINUOUS
 10
33.024114
 20
121.000000
 11
27.024114
 21
120.000000
  0
LINE
  8
1
 62
7
  6
CONTINUOUS
 10
33.024114
 20
120.000000
 11
27.024114
 21
119.000000
  0
LINE
  8
1
 62
7
  6
CONTINUOUS
 10
32.524114
 20
119.000000
 11
27.024114
 21
119.000000
  0
LINE
  8
1
 62
7
  6
CONTINUOUS
 10
32.524114
 20
138.000000
 11
32.524114
 21
136.916667
  0
LINE
  8
1
 62
7
  6
CONTINUOUS
 10
32.524114
 20
135.916667
 11
32.524114
 21
134.916667
  0
LINE
  8
1
 62
7
  6
CONTINUOUS
 10
32.524114
 20
133.916667
 11
32.524114
 21
132.916667
  0
LINE
  8
1
 62
7
  6
CONTINUOUS
 10
32.524114
 20
131.916667
 11
32.524114
 21
130.916667
  0
LINE
  8
1
 62
7
  6
CONTINUOUS
 10
32.524114
 20
129.916667
 11
32.524114
 21
128.916667
  0
LINE
  8
1
 62
7
  6
CONTINUOUS
 10
32.524114
 20
127.916667
 11
32.524114
 21
126.916667
  0
LINE
  8
1
 62
7
  6
CONTINUOUS
 10
32.524114
 20
125.916667
 11
32.524114
 21
124.916667
  0
LINE
  8
1
 62
7
  6
CONTINUOUS
 10
32.524114
 20
123.916667
 11
32.524114
 21
122.916667
  0
LINE
  8
1
 62
7
  6
CONTINUOUS
 10
32.524114
 20
121.916667
 11
32.524114
 21
120.916667
  0
LINE
  8
1
 62
7
  6
CONTINUOUS
 10
32.524114
 20
119.916667
 11
32.524114
 21
119.000000
  0
LINE
  8
1
 62
7
  6
CONTINUOUS
 10
27.524114
 20
121.083333
 11
27.524114
 21
120.083333
  0
LINE
  8
1
 62
7
  6
CONTINUOUS
 10
27.524114
 20
123.083333
 11
27.524114
 21
122.083333
  0
LINE
  8
1
 62
7
  6
CONTINUOUS
 10
27.524114
 20
124.983760
 11
27.524114
 21
124.083333
  0
LINE
  8
1
 62
7
  6
CONTINUOUS
 10
27.524114
 20
127.083333
 11
27.524114
 21
126.083333
  0
LINE
  8
1
 62
7
  6
CONTINUOUS
 10
27.524114
 20
129.083333
 11
27.524114
 21
128.083333
  0
LINE
  8
1
 62
7
  6
CONTINUOUS
 10
27.524114
 20
131.083333
 11
27.524114
 21
130.083333
  0
LINE
  8
1
 62
7
  6
CONTINUOUS
 10
27.524114
 20
133.083333
 11
27.524114
 21
132.083333
  0
LINE
  8
1
 62
7
  6
CONTINUOUS
 10
27.524114
 20
135.083333
 11
27.524114
 21
134.083333
  0
LINE
  8
1
 62
7
  6
CONTINUOUS
 10
27.524114
 20
136.983760
 11
27.524114
 21
136.083333
  0
LINE
  8
1
 62
7
  6
CONTINUOUS
 10
32.524114
 20
138.000000
 11
27.020177
 21
136.899213
  0
LINE
  8
1
 62
7
  6
CONTINUOUS
 10
27.524114
 20
138.000000
 11
27.024114
 21
137.913382
  0
LINE
  8
1
 62
7
  6
CONTINUOUS
 10
27.024114
 20
137.913382
 11
27.024114
 21
136.900000
  0
LINE
  8
1
 62
7
  6
CONTINUOUS
 10
27.524114
 20
137.008735
 11
27.524114
 21
137.000000
  0
LINE
  8
1
 62
7
  6
CONTINUOUS
 10
26.024114
 20
154.500000
 11
35.024114
 21
154.500000
  0
LINE
  8
1
 62
7
  6
CONTINUOUS
 10
26.024114
 20
154.500000
 11
26.024114
 21
160.000000
  0
LINE
  8
1
 62
7
  6
CONTINUOUS
 10
34.024114
 20
154.500000
 11
34.024114
 21
160.000000
  0
LINE
  8
1
 62
7
  6
DASHDOT
 10
31.561202
 20
148.500000
 11
28.523113
 21
148.500000
  0
CIRCLE
  8
1
 62
7
  6
CONTINUOUS
 10
30.024114
 20
148.500000
 40
1.000000
  0
CIRCLE
  8
1
 62
7
  6
CONTINUOUS
 10
30.024114
 20
148.500000
 40
0.782631
  0
LINE
  8
1
 62
7
  6
DASHDOT
 10
30.024114
 20
174.961245
 11
30.024114
 21
109.940850
  0
DIMENSION
  8
2
 62
134
  6
CONTINUOUS
  2
*D15
 10
146.448819
 20
201.189062
 11
151.275709
 21
201.189062
 70
     0
  1
10
 13
146.448819
 23
195.000000
 14
156.549213
 24
189.093054
 50
0.000000
  0
DIMENSION
  8
2
 62
134
  6
CONTINUOUS
  2
*D16
 10
156.549213
 20
201.189062
 11
169.337359
 21
201.189062
 70
     0
  1
30
 13
156.549213
 23
192.228757
 14
185.549213
 24
187.526944
 50
0.000000
  0
TEXT
  8
2
 62
134
  6
CONTINUOUS
 10
168.337359
 20
201.189062
 40
4.000000
 41
0.750000
  1
±2
  7
KANJI
 50
0.000000
 51
30.000000
  0
DIMENSION
  8
2
 62
134
  6
CONTINUOUS
  2
*D17
 10
51.448819
 20
209.415493
 11
113.898129
 21
209.415493
 70
     0
  1
135
 13
51.448819
 23
192.000000
 14
185.549213
 24
182.000000
 50
0.000000
  0
TEXT
  8
2
 62
134
  6
CONTINUOUS
 10
113.898129
 20
209.415493
 40
4.000000
 41
0.750000
  1
±2
  7
KANJI
 50
0.000000
 51
30.000000
  0
DIMENSION
  8
2
 62
134
  6
CONTINUOUS
  2
*D18
 10
20.024114
 20
201.189062
 11
30.080529
 21
201.189062
 70
     0
  1
20
 13
20.024114
 23
194.000000
 14
40.024114
 24
194.000000
 50
0.000000
  0
LINE
  8
3
 62
214
  6
CONTINUOUS
 10
163.504951
 20
174.000000
 11
171.008753
 21
160.234003
  0
LINE
  8
3
 62
214
  6
CONTINUOUS
 10
171.008753
 20
160.234003
 11
191.379886
 21
160.234003
  0
TEXT
  8
3
 62
214
  6
CONTINUOUS
 10
175.379886
 20
160.031198
 40
4.000000
 41
1.000000
  1
接眼鏡筒
  7
KANJI
 50
0.000000
 51
30.000000
  0
LINE
  8
3
 62
214
  6
CONTINUOUS
 10
163.504951
 20
174.000000
 11
164.884055
 21
172.551528
  0
LINE
  8
3
 62
214
  6
CONTINUOUS
 10
163.504951
 20
174.000000
 11
163.975054
 21
172.056034
  0
LINE
  8
3
 62
214
  6
CONTINUOUS
 10
164.884055
 20
172.551528
 11
163.975054
 21
172.056034
  0
LINE
  8
3
 62
214
  6
CONTINUOUS
 10
163.736102
 20
173.575945
 11
164.425654
 21
172.851709
  0
LINE
  8
3
 62
214
  6
CONTINUOUS
 10
163.736102
 20
173.575945
 11
163.971154
 21
172.603962
  0
LINE
  8
3
 62
214
  6
CONTINUOUS
 10
164.425654
 20
172.851709
 11
163.971154
 21
172.603962
  0
TEXT
  8
3
 62
214
  6
CONTINUOUS
 10
34.974144
 20
137.472812
 40
4.000000
 41
1.000000
  1
測定距離
  7
KANJI
 50
0.000000
 51
30.000000
  0
TEXT
  8
3
 62
214
  6
CONTINUOUS
 10
143.634587
 20
131.609712
 40
4.000000
 41
1.000000
  1
重量１３０ｇ
  7
KANJI
 50
0.000000
 51
0.000000
  0
LINE
  8
3
 62
214
  6
CONTINUOUS
 10
84.045783
 20
189.267241
 11
96.831295
 21
218.223186
  0
LINE
  8
3
 62
214
  6
CONTINUOUS
 10
96.831295
 20
218.223186
 11
110.761597
 21
218.223186
  0
TEXT
  8
3
 62
214
  6
CONTINUOUS
 10
96.761597
 20
218.045486
 40
4.000000
 41
0.500000
  1
ｾﾝｻﾍｯﾄﾞ
  7
KANJI
 50
0.000000
 51
30.000000
  0
LINE
  8
3
 62
214
  6
CONTINUOUS
 10
84.045783
 20
189.267241
 11
84.352578
 21
191.243570
  0
LINE
  8
3
 62
214
  6
CONTINUOUS
 10
84.045783
 20
189.267241
 11
85.299640
 21
190.825395
  0
LINE
  8
3
 62
214
  6
CONTINUOUS
 10
84.352578
 20
191.243570
 11
85.299640
 21
190.825395
  0
LINE
  8
3
 62
214
  6
CONTINUOUS
 10
84.240865
 20
189.709052
 11
84.394262
 21
190.697216
  0
LINE
  8
3
 62
214
  6
CONTINUOUS
 10
84.240865
 20
189.709052
 11
84.867793
 21
190.488128
  0
LINE
  8
3
 62
214
  6
CONTINUOUS
 10
84.394262
 20
190.697216
 11
84.867793
 21
190.488128
  0
LINE
  8
3
 62
214
  6
CONTINUOUS
 10
69.951973
 20
186.209646
 11
55.177874
 21
217.850115
  0
LINE
  8
3
 62
214
  6
CONTINUOUS
 10
55.177874
 20
217.850115
 11
45.923264
 21
217.850115
  0
TEXT
  8
3
 62
214
  6
CONTINUOUS
 10
45.923264
 20
217.850115
 40
4.000000
 41
0.500000
  1
ﾚﾝｽﾞ
  7
KANJI
 50
0.000000
 51
30.000000
  0
LINE
  8
3
 62
214
  6
CONTINUOUS
 10
69.951973
 20
186.209646
 11
68.665606
 21
187.741070
  0
LINE
  8
3
 62
214
  6
CONTINUOUS
 10
69.951973
 20
186.209646
 11
69.603659
 21
188.179081
  0
LINE
  8
3
 62
214
  6
CONTINUOUS
 10
68.665606
 20
187.741070
 11
69.603659
 21
188.179081
  0
LINE
  8
3
 62
214
  6
CONTINUOUS
 10
69.747638
 20
186.647253
 11
69.104454
 21
187.412965
  0
LINE
  8
3
 62
214
  6
CONTINUOUS
 10
69.747638
 20
186.647253
 11
69.573481
 21
187.631971
  0
LINE
  8
3
 62
214
  6
CONTINUOUS
 10
69.104454
 20
187.412965
 11
69.573481
 21
187.631971
  0
LINE
  8
3
 62
214
  6
CONTINUOUS
 10
116.693065
 20
165.769410
 11
133.118235
 21
149.337709
  0
LINE
  8
3
 62
214
  6
CONTINUOUS
 10
133.118235
 20
149.337709
 11
156.787332
 21
149.337709
  0
TEXT
  8
3
 62
214
  6
CONTINUOUS
 10
132.787332
 20
149.922355
 40
4.000000
 41
0.750000
  1
　ﾍｯﾄﾞ取付穴
  7
KANJI
 50
0.000000
 51
30.000000
  0
LINE
  8
3
 62
214
  6
CONTINUOUS
 10
116.693065
 20
165.769410
 11
118.424917
 21
164.769066
  0
LINE
  8
3
 62
214
  6
CONTINUOUS
 10
116.693065
 20
165.769410
 11
117.692721
 21
164.037161
  0
LINE
  8
3
 62
214
  6
CONTINUOUS
 10
118.424917
 20
164.769066
 11
117.692721
 21
164.037161
  0
LINE
  8
3
 62
214
  6
CONTINUOUS
 10
117.034504
 20
165.427836
 11
117.900430
 21
164.927664
  0
LINE
  8
3
 62
214
  6
CONTINUOUS
 10
117.034504
 20
165.427836
 11
117.534332
 21
164.561711
  0
LINE
  8
3
 62
214
  6
CONTINUOUS
 10
117.900430
 20
164.927664
 11
117.534332
 21
164.561711
  0
LINE
  8
3
 62
214
  6
CONTINUOUS
 10
61.448819
 20
160.000000
 11
66.767427
 21
151.006570
  0
LINE
  8
3
 62
214
  6
CONTINUOUS
 10
66.767427
 20
151.006570
 11
99.208874
 21
151.006570
  0
TEXT
  8
3
 62
214
  6
CONTINUOUS
 10
71.208874
 20
151.591216
 40
4.000000
 41
0.777778
  1
R1/8計装エアー
  7
KANJI
 50
-0.000000
 51
30.000000
  0
LINE
  8
3
 62
214
  6
CONTINUOUS
 10
61.448819
 20
160.000000
 11
62.877754
 21
158.600663
  0
LINE
  8
3
 62
214
  6
CONTINUOUS
 10
61.448819
 20
160.000000
 11
61.986644
 21
158.073671
  0
LINE
  8
3
 62
214
  6
CONTINUOUS
 10
62.877754
 20
158.600663
 11
61.986644
 21
158.073671
  0
LINE
  8
3
 62
214
  6
CONTINUOUS
 10
61.694664
 20
159.584292
 11
62.409131
 21
158.884623
  0
LINE
  8
3
 62
214
  6
CONTINUOUS
 10
61.694664
 20
159.584292
 11
61.963576
 21
158.621127
  0
LINE
  8
3
 62
214
  6
CONTINUOUS
 10
62.409131
 20
158.884623
 11
61.963576
 21
158.621127
  0
LINE
  8
3
 62
214
  6
CONTINUOUS
 10
109.448819
 20
126.000000
 11
122.032924
 21
117.397966
  0
LINE
  8
3
 62
214
  6
CONTINUOUS
 10
122.032924
 20
117.397966
 11
134.072261
 21
117.397966
  0
TEXT
  8
3
 62
214
  6
CONTINUOUS
 10
124.072261
 20
117.617946
 40
4.000000
 41
0.500000
  1
ﾌｧｲﾊﾞ
  7
KANJI
 50
0.000000
 51
30.000000
  0
LINE
  8
3
 62
214
  6
CONTINUOUS
 10
109.448819
 20
126.000000
 11
111.335784
 21
125.337157
  0
LINE
  8
3
 62
214
  6
CONTINUOUS
 10
109.448819
 20
126.000000
 11
110.751557
 21
124.482478
  0
LINE
  8
3
 62
214
  6
CONTINUOUS
 10
111.335784
 20
125.337157
 11
110.751557
 21
124.482478
  0
LINE
  8
3
 62
214
  6
CONTINUOUS
 10
109.847532
 20
125.727454
 11
110.791015
 21
125.396033
  0
LINE
  8
3
 62
214
  6
CONTINUOUS
 10
109.847532
 20
125.727454
 11
110.498901
 21
124.968693
  0
LINE
  8
3
 62
214
  6
CONTINUOUS
 10
110.791015
 20
125.396033
 11
110.498901
 21
124.968693
  0
ENDSEC
  0
EOF
