  0
SECTION
  2
HEADER
  9
$ACADVER
  1
AC1003
  9
$INSBASE
 10
0.000000
 20
0.000000
  9
$EXTMIN
 10
0.000000
 20
0.000000
  9
$EXTMAX
 10
210.000000
 20
297.000000
  9
$LIMMIN
 10
0.000000
 20
0.000000
  9
$LIMMAX
 10
210.000000
 20
297.000000
  9
$VIEWCTR
 10
105.000000
 20
148.500000
  9
$VIEWSIZE
 40
297.000000
  9
$PEXTMIN
 10
0.000000
 20
0.000000
 30
0.000000
  9
$PEXTMAX
 10
210.000000
 20
297.000000
 30
0.000000
  9
$SNAPMODE
 70
     0
  9
$SNAPUNIT
 10
1.000000
 20
1.000000
  9
$SNAPBASE
 10
0.000000
 20
0.000000
  9
$SNAPANG
 50
0.000000
  9
$SNAPISOPAIR
 70
     0
  9
$SNAPSTYLE
 70
     0
  9
$GRIDMODE
 70
     0
  9
$GRIDUNIT
 10
0.000000
 20
0.000000
  9
$ORTHOMODE
 70
     0
  9
$REGENMODE
 70
     1
  9
$FILLMODE
 70
     1
  9
$QTEXTMODE
 70
     0
  9
$DRAGMODE
 70
     2
  9
$LTSCALE
 40
0.250000
  9
$OSMODE
 70
     0
  9
$ATTMODE
 70
     1
  9
$TEXTSIZE
 40
0.200000
  9
$TRACEWID
 40
0.050000
  9
$TEXTSTYLE
  7
STANDARD
  9
$CLAYER
  8
0
  9
$CELTYPE
  6
BYLAYER
  9
$CECOLOR
 62
   256
  9
$DIMSCALE
 40
1.000000
  9
$DIMASZ
 40
1.000000
  9
$DIMEXO
 40
0.000000
  9
$DIMDLI
 40
0.500000
  9
$DIMRND
 40
0.000000
  9
$DIMDLE
 40
0.000000
  9
$DIMEXE
 40
0.000000
  9
$DIMTP
 40
0.000000
  9
$DIMTM
 40
0.000000
  9
$DIMTXT
 40
0.180000
  9
$DIMCEN
 40
0.000000
  9
$DIMTSZ
 40
0.000000
  9
$DIMTOL
 70
     0
  9
$DIMLIM
 70
     0
  9
$DIMTIH
 70
     1
  9
$DIMTOH
 70
     1
  9
$DIMSE1
 70
     0
  9
$DIMSE2
 70
     0
  9
$DIMTAD
 70
     0
  9
$DIMZIN
 70
     0
  9
$DIMBLK
  1

  9
$DIMASO
 70
     0
  9
$DIMSHO
 70
     0
  9
$DIMPOST
  1

  9
$DIMAPOST
  1

  9
$DIMALT
 70
     0
  9
$DIMALTD
 70
     0
  9
$DIMALTF
 40
25.400000
  9
$DIMLFAC
 40
1.000000
  9
$DIMTOFL
 70
     0
  9
$DIMTVP
 40
0.000000
  9
$DIMTIX
 70
     0
  9
$DIMSOXD
 70
     0
  9
$DIMSAH
 70
     0
  9
$DIMBLKL
  1

  9
$DIMBLKR
  1

  9
$LUNITS
 70
     2
  9
$LUPREC
 70
     2
  9
$AXISMODE
 70
     0
  9
$AXISUNIT
 10
1.000000
 20
1.000000
  9
$SKETCHINC
 40
0.000000
  9
$FILLETRAD
 40
0.000000
  9
$AUNITS
 70
     1
  9
$AUPREC
 70
     2
  9
$MENU
  1
ACAD
  9
$ELEVATION
 40
0.000000
  9
$THICKNESS
 40
0.000000
  9
$VIEWDIR
 10
0.000000
 20
0.000000
 30
1.000000
  9
$LIMCHECK
 70
     1
  9
$BLIPMODE
 70
     1
  9
$CHAMFERA
 40
0.000000
  9
$CHAMFERB
 40
0.000000
  9
$FASTZOOM
 70
     1
  9
$SKPOLY
 70
     0
  9
$TDCREATE
 40
0.000000
  9
$TDUPDATE
 40
0.000000
  9
$TDINDWG
 40
0.000000
  9
$TDUSRTIMER
 40
0.000000
  9
$USRTIMER
 70
     1
  9
$ANGBASE
 50
0.000000
  9
$ANGDIR
 70
     0
  9
$PDMODE
 70
     0
  9
$PDSIZE
 40
0.000000
  9
$PLINEWID
 40
0.000000
  9
$COORDS
 70
     2
  9
$USERI1
 70
     0
  9
$USERI2
 70
     0
  9
$USERI3
 70
     0
  9
$USERI4
 70
     0
  9
$USERI5
 70
     0
  9
$USERR1
 40
0.000000
  9
$USERR2
 40
0.000000
  9
$USERR3
 40
0.000000
  9
$USERR4
 40
0.000000
  9
$USERR5
 40
0.000000
  0
ENDSEC
  0
SECTION
  2
TABLES
  0
TABLE
  2
LTYPE
 70
     5
  0
LTYPE
  2
CONTINUOUS
 70
    64
  3
Solid line
 72
    65
 73
     0
 40
0.0
  0
LTYPE
  2
HIDDEN
 70
    64
  3
------------------------
 72
    65
 73
     2
 40
12.6
 49
8.4
 49
-4.2
  0
LTYPE
  2
DOT
 70
    64
  3
････････････････････････
 72
    65
 73
     2
 40
8.0
 49
6.0
 49
-2.0
  0
LTYPE
  2
DASHDOT
 70
    64
  3
--･--･--･--･--･--･--･--
 72
    65
 73
     4
 40
50.5
 49
30.0
 49
-9.0
 49
2.5
 49
-9.0
  0
LTYPE
  2
DIVIDE
 70
    64
  3
--･･--･･--･･--･･--･･--
 72
    65
 73
     6
 40
58.0
 49
30.0
 49
-9.0
 49
2.5
 49
-5.0
 49
2.5
 49
-9.0
  0
LTYPE
  2
ACAD_ISO06W100
 70
    64
  3
____ ... ____ ... ____
 72
    65
 73
     8
 40
37.5
 49
24.0
 49
-3.0
 49
0.5
 49
-3.0
 49
0.5
 49
-3.0
 49
0.5
 49
-3.0
  0
LTYPE
  2
ACAD_ISO14W100
 70
    64
  3
__ . . . __ . . . __ . . . 
 72
    65
 73
     8
 40
25.5
 49
12.0
 49
-3.0
 49
0.5
 49
-3.0
 49
0.5
 49
-3.0
 49
0.5
 49
-3.0
  0
ENDTAB
  0
TABLE
  2
LAYER
 70
4
  0
LAYER
  2
1
 70
64
 62
7
  6
CONTINUOUS
  0
LAYER
  2
2
 70
64
 62
134
  6
CONTINUOUS
  0
LAYER
  2
3
 70
64
 62
214
  6
CONTINUOUS
  0
LAYER
  2
5
 70
64
 62
94
  6
CONTINUOUS
  0
ENDTAB
  0
TABLE
  2
STYLE
 70
     2
  0
STYLE
  2
STANDARD
 70
    64
 40
0.0
 41
1.0
 50
0.0
 71
     0
 42
0.2
  3
TXT
  4

  0
STYLE
  2
KANJI
 70
    64
 40
0.0
 41
1.0
 50
0.0
 71
     0
 42
0.2
  3
TXT
  4
BIGFONT
  0
ENDTAB
  0
TABLE
  2
VIEW
 70
     0
  0
ENDTAB
  0
ENDSEC
  0
SECTION
  2
BLOCKS
  0
BLOCK
  8
2
 62
134
  6
CONTINUOUS
  2
*D1
 70
    65
 10
0.0
 20
0.0
  0
LINE
  8
2
 62
134
  6
CONTINUOUS
 10
161.000000
 20
210.418876
 11
161.000000
 21
189.000000
  0
LINE
  8
2
 62
134
  6
CONTINUOUS
 10
161.000000
 20
203.000000
 11
160.482362
 21
204.931852
  0
LINE
  8
2
 62
134
  6
CONTINUOUS
 10
161.000000
 20
203.000000
 11
161.517638
 21
204.931852
  0
LINE
  8
2
 62
134
  6
CONTINUOUS
 10
160.482362
 20
204.931852
 11
161.517638
 21
204.931852
  0
LINE
  8
2
 62
134
  6
CONTINUOUS
 10
161.000000
 20
203.482963
 11
160.741181
 21
204.448889
  0
LINE
  8
2
 62
134
  6
CONTINUOUS
 10
161.000000
 20
203.482963
 11
161.258819
 21
204.448889
  0
LINE
  8
2
 62
134
  6
CONTINUOUS
 10
160.741181
 20
204.448889
 11
161.258819
 21
204.448889
  0
LINE
  8
2
 62
134
  6
CONTINUOUS
 10
161.000000
 20
197.000000
 11
161.517638
 21
195.068148
  0
LINE
  8
2
 62
134
  6
CONTINUOUS
 10
161.000000
 20
197.000000
 11
160.482362
 21
195.068148
  0
LINE
  8
2
 62
134
  6
CONTINUOUS
 10
161.517638
 20
195.068148
 11
160.482362
 21
195.068148
  0
LINE
  8
2
 62
134
  6
CONTINUOUS
 10
161.000000
 20
196.517037
 11
161.258819
 21
195.551111
  0
LINE
  8
2
 62
134
  6
CONTINUOUS
 10
161.000000
 20
196.517037
 11
160.741181
 21
195.551111
  0
LINE
  8
2
 62
134
  6
CONTINUOUS
 10
161.258819
 20
195.551111
 11
160.741181
 21
195.551111
  0
TEXT
  8
2
 62
134
  6
CONTINUOUS
 10
160.500000
 20
203.418876
 40
4.000000
 41
0.750000
  1
φ6
  7
KANJI
 50
90.000000
 51
30.000000
  0
ENDBLK
  0
BLOCK
  8
2
 62
134
  6
CONTINUOUS
  2
*D2
 70
    65
 10
0.0
 20
0.0
  0
LINE
  8
2
 62
134
  6
CONTINUOUS
 10
130.000000
 20
212.609025
 11
152.000000
 21
212.609025
  0
LINE
  8
2
 62
134
  6
CONTINUOUS
 10
130.000000
 20
214.609025
 11
130.000000
 21
202.000000
  0
LINE
  8
2
 62
134
  6
CONTINUOUS
 10
152.000000
 20
214.609025
 11
152.000000
 21
207.000000
  0
LINE
  8
2
 62
134
  6
CONTINUOUS
 10
130.000000
 20
212.609025
 11
131.931852
 21
213.126663
  0
LINE
  8
2
 62
134
  6
CONTINUOUS
 10
130.000000
 20
212.609025
 11
131.931852
 21
212.091387
  0
LINE
  8
2
 62
134
  6
CONTINUOUS
 10
131.931852
 20
213.126663
 11
131.931852
 21
212.091387
  0
LINE
  8
2
 62
134
  6
CONTINUOUS
 10
130.482963
 20
212.609025
 11
131.448889
 21
212.867844
  0
LINE
  8
2
 62
134
  6
CONTINUOUS
 10
130.482963
 20
212.609025
 11
131.448889
 21
212.350206
  0
LINE
  8
2
 62
134
  6
CONTINUOUS
 10
131.448889
 20
212.867844
 11
131.448889
 21
212.350206
  0
LINE
  8
2
 62
134
  6
CONTINUOUS
 10
152.000000
 20
212.609025
 11
150.068148
 21
212.091387
  0
LINE
  8
2
 62
134
  6
CONTINUOUS
 10
152.000000
 20
212.609025
 11
150.068148
 21
213.126663
  0
LINE
  8
2
 62
134
  6
CONTINUOUS
 10
150.068148
 20
212.091387
 11
150.068148
 21
213.126663
  0
LINE
  8
2
 62
134
  6
CONTINUOUS
 10
151.517037
 20
212.609025
 11
150.551111
 21
212.350206
  0
LINE
  8
2
 62
134
  6
CONTINUOUS
 10
151.517037
 20
212.609025
 11
150.551111
 21
212.867844
  0
LINE
  8
2
 62
134
  6
CONTINUOUS
 10
150.551111
 20
212.350206
 11
150.551111
 21
212.867844
  0
TEXT
  8
2
 62
134
  6
CONTINUOUS
 10
139.033192
 20
212.609025
 40
4.000000
 41
0.500000
  1
22
  7
KANJI
 50
0.000000
 51
30.000000
  0
ENDBLK
  0
BLOCK
  8
2
 62
134
  6
CONTINUOUS
  2
*D3
 70
    65
 10
0.0
 20
0.0
  0
LINE
  8
2
 62
134
  6
CONTINUOUS
 10
145.905501
 20
184.018505
 11
145.905501
 21
213.000000
  0
LINE
  8
2
 62
134
  6
CONTINUOUS
 10
143.905501
 20
205.000000
 11
147.000000
 21
205.000000
  0
LINE
  8
2
 62
134
  6
CONTINUOUS
 10
145.905501
 20
195.000000
 11
146.423139
 21
193.068148
  0
LINE
  8
2
 62
134
  6
CONTINUOUS
 10
145.905501
 20
195.000000
 11
145.387863
 21
193.068148
  0
LINE
  8
2
 62
134
  6
CONTINUOUS
 10
146.423139
 20
193.068148
 11
145.387863
 21
193.068148
  0
LINE
  8
2
 62
134
  6
CONTINUOUS
 10
145.905501
 20
194.517037
 11
146.164320
 21
193.551111
  0
LINE
  8
2
 62
134
  6
CONTINUOUS
 10
145.905501
 20
194.517037
 11
145.646682
 21
193.551111
  0
LINE
  8
2
 62
134
  6
CONTINUOUS
 10
146.164320
 20
193.551111
 11
145.646682
 21
193.551111
  0
LINE
  8
2
 62
134
  6
CONTINUOUS
 10
145.905501
 20
205.000000
 11
145.387863
 21
206.931852
  0
LINE
  8
2
 62
134
  6
CONTINUOUS
 10
145.905501
 20
205.000000
 11
146.423139
 21
206.931852
  0
LINE
  8
2
 62
134
  6
CONTINUOUS
 10
145.387863
 20
206.931852
 11
146.423139
 21
206.931852
  0
LINE
  8
2
 62
134
  6
CONTINUOUS
 10
145.905501
 20
205.482963
 11
145.646682
 21
206.448889
  0
LINE
  8
2
 62
134
  6
CONTINUOUS
 10
145.905501
 20
205.482963
 11
146.164320
 21
206.448889
  0
LINE
  8
2
 62
134
  6
CONTINUOUS
 10
145.646682
 20
206.448889
 11
146.164320
 21
206.448889
  0
TEXT
  8
2
 62
134
  6
CONTINUOUS
 10
145.905501
 20
185.018505
 40
4.000000
 41
0.666667
  1
φ10
  7
KANJI
 50
90.000000
 51
30.000000
  0
ENDBLK
  0
BLOCK
  8
2
 62
134
  6
CONTINUOUS
  2
*D4
 70
    65
 10
0.0
 20
0.0
  0
LINE
  8
2
 62
134
  6
CONTINUOUS
 10
90.000000
 20
174.587447
 11
152.000000
 21
174.587447
  0
LINE
  8
2
 62
134
  6
CONTINUOUS
 10
90.000000
 20
172.587447
 11
90.000000
 21
193.250000
  0
LINE
  8
2
 62
134
  6
CONTINUOUS
 10
152.000000
 20
172.587447
 11
152.000000
 21
193.000000
  0
LINE
  8
2
 62
134
  6
CONTINUOUS
 10
90.000000
 20
174.587447
 11
91.931852
 21
175.105085
  0
LINE
  8
2
 62
134
  6
CONTINUOUS
 10
90.000000
 20
174.587447
 11
91.931852
 21
174.069809
  0
LINE
  8
2
 62
134
  6
CONTINUOUS
 10
91.931852
 20
175.105085
 11
91.931852
 21
174.069809
  0
LINE
  8
2
 62
134
  6
CONTINUOUS
 10
90.482963
 20
174.587447
 11
91.448889
 21
174.846266
  0
LINE
  8
2
 62
134
  6
CONTINUOUS
 10
90.482963
 20
174.587447
 11
91.448889
 21
174.328628
  0
LINE
  8
2
 62
134
  6
CONTINUOUS
 10
91.448889
 20
174.846266
 11
91.448889
 21
174.328628
  0
LINE
  8
2
 62
134
  6
CONTINUOUS
 10
152.000000
 20
174.587447
 11
150.068148
 21
174.069809
  0
LINE
  8
2
 62
134
  6
CONTINUOUS
 10
152.000000
 20
174.587447
 11
150.068148
 21
175.105085
  0
LINE
  8
2
 62
134
  6
CONTINUOUS
 10
150.068148
 20
174.069809
 11
150.068148
 21
175.105085
  0
LINE
  8
2
 62
134
  6
CONTINUOUS
 10
151.517037
 20
174.587447
 11
150.551111
 21
174.328628
  0
LINE
  8
2
 62
134
  6
CONTINUOUS
 10
151.517037
 20
174.587447
 11
150.551111
 21
174.846266
  0
LINE
  8
2
 62
134
  6
CONTINUOUS
 10
150.551111
 20
174.328628
 11
150.551111
 21
174.846266
  0
TEXT
  8
2
 62
134
  6
CONTINUOUS
 10
119.594378
 20
174.587447
 40
4.000000
 41
0.500000
  1
62
  7
KANJI
 50
0.000000
 51
30.000000
  0
ENDBLK
  0
BLOCK
  8
2
 62
134
  6
CONTINUOUS
  2
*D5
 70
    65
 10
0.0
 20
0.0
  0
LINE
  8
2
 62
134
  6
CONTINUOUS
 10
90.000000
 20
181.080354
 11
111.000000
 21
181.080354
  0
LINE
  8
2
 62
134
  6
CONTINUOUS
 10
90.000000
 20
179.080354
 11
90.000000
 21
193.250000
  0
LINE
  8
2
 62
134
  6
CONTINUOUS
 10
111.000000
 20
179.080354
 11
111.000000
 21
193.250000
  0
LINE
  8
2
 62
134
  6
CONTINUOUS
 10
90.000000
 20
181.080354
 11
91.931852
 21
181.597992
  0
LINE
  8
2
 62
134
  6
CONTINUOUS
 10
90.000000
 20
181.080354
 11
91.931852
 21
180.562716
  0
LINE
  8
2
 62
134
  6
CONTINUOUS
 10
91.931852
 20
181.597992
 11
91.931852
 21
180.562716
  0
LINE
  8
2
 62
134
  6
CONTINUOUS
 10
90.482963
 20
181.080354
 11
91.448889
 21
181.339173
  0
LINE
  8
2
 62
134
  6
CONTINUOUS
 10
90.482963
 20
181.080354
 11
91.448889
 21
180.821535
  0
LINE
  8
2
 62
134
  6
CONTINUOUS
 10
91.448889
 20
181.339173
 11
91.448889
 21
180.821535
  0
LINE
  8
2
 62
134
  6
CONTINUOUS
 10
111.000000
 20
181.080354
 11
109.068148
 21
180.562716
  0
LINE
  8
2
 62
134
  6
CONTINUOUS
 10
111.000000
 20
181.080354
 11
109.068148
 21
181.597992
  0
LINE
  8
2
 62
134
  6
CONTINUOUS
 10
109.068148
 20
180.562716
 11
109.068148
 21
181.597992
  0
LINE
  8
2
 62
134
  6
CONTINUOUS
 10
110.517037
 20
181.080354
 11
109.551111
 21
180.821535
  0
LINE
  8
2
 62
134
  6
CONTINUOUS
 10
110.517037
 20
181.080354
 11
109.551111
 21
181.339173
  0
LINE
  8
2
 62
134
  6
CONTINUOUS
 10
109.551111
 20
180.821535
 11
109.551111
 21
181.339173
  0
TEXT
  8
2
 62
134
  6
CONTINUOUS
 10
97.671914
 20
181.080354
 40
4.000000
 41
0.500000
  1
21
  7
KANJI
 50
0.000000
 51
30.000000
  0
ENDBLK
  0
BLOCK
  8
2
 62
134
  6
CONTINUOUS
  2
*D6
 70
    65
 10
0.0
 20
0.0
  0
LINE
  8
2
 62
134
  6
CONTINUOUS
 10
111.000000
 20
181.080354
 11
138.000000
 21
181.080354
  0
LINE
  8
2
 62
134
  6
CONTINUOUS
 10
111.000000
 20
179.080354
 11
111.000000
 21
193.250000
  0
LINE
  8
2
 62
134
  6
CONTINUOUS
 10
138.000000
 20
179.080354
 11
138.000000
 21
193.000000
  0
LINE
  8
2
 62
134
  6
CONTINUOUS
 10
111.000000
 20
181.080354
 11
112.931852
 21
181.597992
  0
LINE
  8
2
 62
134
  6
CONTINUOUS
 10
111.000000
 20
181.080354
 11
112.931852
 21
180.562716
  0
LINE
  8
2
 62
134
  6
CONTINUOUS
 10
112.931852
 20
181.597992
 11
112.931852
 21
180.562716
  0
LINE
  8
2
 62
134
  6
CONTINUOUS
 10
111.482963
 20
181.080354
 11
112.448889
 21
181.339173
  0
LINE
  8
2
 62
134
  6
CONTINUOUS
 10
111.482963
 20
181.080354
 11
112.448889
 21
180.821535
  0
LINE
  8
2
 62
134
  6
CONTINUOUS
 10
112.448889
 20
181.339173
 11
112.448889
 21
180.821535
  0
LINE
  8
2
 62
134
  6
CONTINUOUS
 10
138.000000
 20
181.080354
 11
136.068148
 21
180.562716
  0
LINE
  8
2
 62
134
  6
CONTINUOUS
 10
138.000000
 20
181.080354
 11
136.068148
 21
181.597992
  0
LINE
  8
2
 62
134
  6
CONTINUOUS
 10
136.068148
 20
180.562716
 11
136.068148
 21
181.597992
  0
LINE
  8
2
 62
134
  6
CONTINUOUS
 10
137.517037
 20
181.080354
 11
136.551111
 21
180.821535
  0
LINE
  8
2
 62
134
  6
CONTINUOUS
 10
137.517037
 20
181.080354
 11
136.551111
 21
181.339173
  0
LINE
  8
2
 62
134
  6
CONTINUOUS
 10
136.551111
 20
180.821535
 11
136.551111
 21
181.339173
  0
TEXT
  8
2
 62
134
  6
CONTINUOUS
 10
121.712890
 20
181.080354
 40
4.000000
 41
0.500000
  1
27
  7
KANJI
 50
0.000000
 51
30.000000
  0
ENDBLK
  0
BLOCK
  8
2
 62
134
  6
CONTINUOUS
  2
*D7
 70
    65
 10
0.0
 20
0.0
  0
LINE
  8
2
 62
134
  6
CONTINUOUS
 10
138.000000
 20
181.080354
 11
152.000000
 21
181.080354
  0
LINE
  8
2
 62
134
  6
CONTINUOUS
 10
138.000000
 20
179.080354
 11
138.000000
 21
193.000000
  0
LINE
  8
2
 62
134
  6
CONTINUOUS
 10
152.000000
 20
179.080354
 11
152.000000
 21
193.000000
  0
LINE
  8
2
 62
134
  6
CONTINUOUS
 10
138.000000
 20
181.080354
 11
139.931852
 21
181.597992
  0
LINE
  8
2
 62
134
  6
CONTINUOUS
 10
138.000000
 20
181.080354
 11
139.931852
 21
180.562716
  0
LINE
  8
2
 62
134
  6
CONTINUOUS
 10
139.931852
 20
181.597992
 11
139.931852
 21
180.562716
  0
LINE
  8
2
 62
134
  6
CONTINUOUS
 10
138.482963
 20
181.080354
 11
139.448889
 21
181.339173
  0
LINE
  8
2
 62
134
  6
CONTINUOUS
 10
138.482963
 20
181.080354
 11
139.448889
 21
180.821535
  0
LINE
  8
2
 62
134
  6
CONTINUOUS
 10
139.448889
 20
181.339173
 11
139.448889
 21
180.821535
  0
LINE
  8
2
 62
134
  6
CONTINUOUS
 10
152.000000
 20
181.080354
 11
150.068148
 21
180.562716
  0
LINE
  8
2
 62
134
  6
CONTINUOUS
 10
152.000000
 20
181.080354
 11
150.068148
 21
181.597992
  0
LINE
  8
2
 62
134
  6
CONTINUOUS
 10
150.068148
 20
180.562716
 11
150.068148
 21
181.597992
  0
LINE
  8
2
 62
134
  6
CONTINUOUS
 10
151.517037
 20
181.080354
 11
150.551111
 21
180.821535
  0
LINE
  8
2
 62
134
  6
CONTINUOUS
 10
151.517037
 20
181.080354
 11
150.551111
 21
181.339173
  0
LINE
  8
2
 62
134
  6
CONTINUOUS
 10
150.551111
 20
180.821535
 11
150.551111
 21
181.339173
  0
TEXT
  8
2
 62
134
  6
CONTINUOUS
 10
142.868949
 20
181.080354
 40
4.000000
 41
0.500000
  1
14
  7
KANJI
 50
0.000000
 51
30.000000
  0
ENDBLK
  0
BLOCK
  8
2
 62
134
  6
CONTINUOUS
  2
*D8
 70
    65
 10
0.0
 20
0.0
  0
LINE
  8
2
 62
134
  6
CONTINUOUS
 10
104.803891
 20
187.250000
 11
104.803891
 21
221.721229
  0
LINE
  8
2
 62
134
  6
CONTINUOUS
 10
104.803891
 20
195.250000
 11
105.321529
 21
193.318148
  0
LINE
  8
2
 62
134
  6
CONTINUOUS
 10
104.803891
 20
195.250000
 11
104.286253
 21
193.318148
  0
LINE
  8
2
 62
134
  6
CONTINUOUS
 10
105.321529
 20
193.318148
 11
104.286253
 21
193.318148
  0
LINE
  8
2
 62
134
  6
CONTINUOUS
 10
104.803891
 20
194.767037
 11
105.062710
 21
193.801111
  0
LINE
  8
2
 62
134
  6
CONTINUOUS
 10
104.803891
 20
194.767037
 11
104.545072
 21
193.801111
  0
LINE
  8
2
 62
134
  6
CONTINUOUS
 10
105.062710
 20
193.801111
 11
104.545072
 21
193.801111
  0
LINE
  8
2
 62
134
  6
CONTINUOUS
 10
104.803891
 20
204.750000
 11
104.286253
 21
206.681852
  0
LINE
  8
2
 62
134
  6
CONTINUOUS
 10
104.803891
 20
204.750000
 11
105.321529
 21
206.681852
  0
LINE
  8
2
 62
134
  6
CONTINUOUS
 10
104.286253
 20
206.681852
 11
105.321529
 21
206.681852
  0
LINE
  8
2
 62
134
  6
CONTINUOUS
 10
104.803891
 20
205.232963
 11
104.545072
 21
206.198889
  0
LINE
  8
2
 62
134
  6
CONTINUOUS
 10
104.803891
 20
205.232963
 11
105.062710
 21
206.198889
  0
LINE
  8
2
 62
134
  6
CONTINUOUS
 10
104.545072
 20
206.198889
 11
105.062710
 21
206.198889
  0
TEXT
  8
2
 62
134
  6
CONTINUOUS
 10
104.803891
 20
207.309465
 40
4.000000
 41
0.625000
  1
φ9.5
  7
KANJI
 50
90.000000
 51
30.000000
  0
ENDBLK
  0
BLOCK
  8
3
 62
214
  6
CONTINUOUS
  2
*D9
 70
    65
 10
0.0
 20
0.0
  0
LINE
  8
3
 62
214
  6
CONTINUOUS
 10
122.048112
 20
186.000000
 11
122.048112
 21
232.946201
  0
LINE
  8
3
 62
214
  6
CONTINUOUS
 10
120.048112
 20
194.000000
 11
125.339644
 21
194.000000
  0
LINE
  8
3
 62
214
  6
CONTINUOUS
 10
120.048112
 20
206.000000
 11
124.745297
 21
206.000000
  0
LINE
  8
3
 62
214
  6
CONTINUOUS
 10
122.048112
 20
194.000000
 11
122.565750
 21
192.068148
  0
LINE
  8
3
 62
214
  6
CONTINUOUS
 10
122.048112
 20
194.000000
 11
121.530474
 21
192.068148
  0
LINE
  8
3
 62
214
  6
CONTINUOUS
 10
122.565750
 20
192.068148
 11
121.530474
 21
192.068148
  0
LINE
  8
3
 62
214
  6
CONTINUOUS
 10
122.048112
 20
193.517037
 11
122.306931
 21
192.551111
  0
LINE
  8
3
 62
214
  6
CONTINUOUS
 10
122.048112
 20
193.517037
 11
121.789293
 21
192.551111
  0
LINE
  8
3
 62
214
  6
CONTINUOUS
 10
122.306931
 20
192.551111
 11
121.789293
 21
192.551111
  0
LINE
  8
3
 62
214
  6
CONTINUOUS
 10
122.048112
 20
206.000000
 11
121.530474
 21
207.931852
  0
LINE
  8
3
 62
214
  6
CONTINUOUS
 10
122.048112
 20
206.000000
 11
122.565750
 21
207.931852
  0
LINE
  8
3
 62
214
  6
CONTINUOUS
 10
121.530474
 20
207.931852
 11
122.565750
 21
207.931852
  0
LINE
  8
3
 62
214
  6
CONTINUOUS
 10
122.048112
 20
206.482963
 11
121.789293
 21
207.448889
  0
LINE
  8
3
 62
214
  6
CONTINUOUS
 10
122.048112
 20
206.482963
 11
122.306931
 21
207.448889
  0
LINE
  8
3
 62
214
  6
CONTINUOUS
 10
121.789293
 20
207.448889
 11
122.306931
 21
207.448889
  0
TEXT
  8
3
 62
214
  6
CONTINUOUS
 10
122.048112
 20
209.946201
 40
4.000000
 41
0.611111
  1
ﾍｯﾄﾞ取付ﾈｼﾞ
  7
KANJI
 50
90.000000
 51
30.000000
  0
ENDBLK
  0
ENDSEC
  0
SECTION
  2
ENTITIES
  0
TEXT
  8
5
 62
94
  6
CONTINUOUS
 10
123.572985
 20
23.251884
 40
1.750000
 41
4.000000
  1
製図
  7
KANJI
 50
-90.000000
 51
0.000000
  0
TEXT
  8
5
 62
94
  6
CONTINUOUS
 10
143.405766
 20
23.087976
 40
1.750000
 41
4.000000
  1
図番
  7
KANJI
 50
-90.000000
 51
0.000000
  0
TEXT
  8
5
 62
94
  6
CONTINUOUS
 10
143.405766
 20
36.364467
 40
1.750000
 41
4.000000
  1
図　名
  7
KANJI
 50
-90.000000
 51
0.000000
  0
TEXT
  8
5
 62
94
  6
CONTINUOUS
 10
78.498481
 20
30.955526
 40
1.750000
 41
4.000000
  1
日付
  7
KANJI
 50
-90.000000
 51
0.000000
  0
TEXT
  8
5
 62
94
  6
CONTINUOUS
 10
113.574640
 20
31.119433
 40
1.750000
 41
4.000000
  1
図法
  7
KANJI
 50
-90.000000
 51
0.000000
  0
TEXT
  8
5
 62
94
  6
CONTINUOUS
 10
113.410733
 20
39.150890
 40
1.750000
 41
4.000000
  1
尺度
  7
KANJI
 50
-90.000000
 51
0.000000
  0
TEXT
  8
5
 62
94
  6
CONTINUOUS
 10
78.498481
 20
38.986983
 40
1.750000
 41
4.000000
  1
公差
  7
KANJI
 50
-90.000000
 51
0.000000
  0
TEXT
  8
5
 62
94
  6
CONTINUOUS
 10
78.498481
 20
23.087976
 40
1.750000
 41
4.000000
  1
承認
  7
KANJI
 50
-90.000000
 51
0.000000
  0
TEXT
  8
5
 62
94
  6
CONTINUOUS
 10
103.576296
 20
23.087976
 40
1.750000
 41
4.000000
  1
設計
  7
KANJI
 50
-90.000000
 51
0.000000
  0
TEXT
  8
5
 62
94
  6
CONTINUOUS
 10
97.020004
 20
9.155857
 40
4.500000
 41
1.888889
  1
ジャパンセンサー株式会社
  7
KANJI
 50
0.000000
 51
0.000000
  0
LINE
  8
5
 62
94
  6
CONTINUOUS
 10
197.610236
 20
7.600394
 11
197.610236
 21
282.600394
  0
LINE
  8
5
 62
94
  6
CONTINUOUS
 10
197.610236
 20
282.600394
 11
12.610236
 21
282.600394
  0
LINE
  8
5
 62
94
  6
CONTINUOUS
 10
12.610236
 20
282.600394
 11
12.610236
 21
7.600394
  0
LINE
  8
5
 62
94
  6
CONTINUOUS
 10
12.610236
 20
7.600394
 11
197.610236
 21
7.600394
  0
LINE
  8
5
 62
94
  6
CONTINUOUS
 10
77.610236
 20
39.600394
 11
197.610236
 21
39.600394
  0
LINE
  8
5
 62
94
  6
CONTINUOUS
 10
77.610236
 20
7.600394
 11
77.610236
 21
39.600394
  0
LINE
  8
5
 62
94
  6
CONTINUOUS
 10
197.610236
 20
15.600394
 11
77.610236
 21
15.600394
  0
LINE
  8
5
 62
94
  6
CONTINUOUS
 10
142.610236
 20
39.600394
 11
142.610236
 21
15.600394
  0
LINE
  8
5
 62
94
  6
CONTINUOUS
 10
197.610236
 20
23.600394
 11
77.610236
 21
23.600394
  0
LINE
  8
5
 62
94
  6
CONTINUOUS
 10
147.610236
 20
15.600394
 11
147.610236
 21
39.600394
  0
LINE
  8
5
 62
94
  6
CONTINUOUS
 10
117.610236
 20
39.600394
 11
117.610236
 21
23.600394
  0
LINE
  8
5
 62
94
  6
CONTINUOUS
 10
82.610236
 20
15.600394
 11
82.610236
 21
39.600394
  0
LINE
  8
5
 62
94
  6
CONTINUOUS
 10
77.610236
 20
31.600394
 11
142.610236
 21
31.600394
  0
LINE
  8
5
 62
94
  6
CONTINUOUS
 10
112.610236
 20
39.600394
 11
112.610236
 21
23.600394
  0
LINE
  8
5
 62
94
  6
CONTINUOUS
 10
102.610236
 20
15.600394
 11
102.610236
 21
23.600394
  0
LINE
  8
5
 62
94
  6
CONTINUOUS
 10
122.610236
 20
15.600394
 11
122.610236
 21
23.600394
  0
LINE
  8
5
 62
94
  6
CONTINUOUS
 10
107.610236
 20
23.600394
 11
107.610236
 21
15.600394
  0
LINE
  8
5
 62
94
  6
CONTINUOUS
 10
127.610236
 20
23.600394
 11
127.610236
 21
15.600394
  0
TEXT
  8
5
 62
94
  6
CONTINUOUS
 10
122.589541
 20
33.250228
 40
4.000000
 41
1.000000
  1
１／１
  7
KANJI
 50
0.000000
 51
0.000000
  0
TEXT
  8
5
 62
94
  6
CONTINUOUS
 10
121.606097
 20
24.890957
 40
4.000000
 41
1.000000
  1
三角法
  7
KANJI
 50
0.000000
 51
0.000000
  0
TEXT
  8
5
 62
94
  6
DOT
 10
154.419537
 20
25.870571
 40
4.000000
 41
1.000000
  1
センサヘッド外形図
  7
KANJI
 50
0.000000
 51
0.000000
  0
LINE
  8
5
 62
94
  6
CONTINUOUS
 10
149.121186
 20
31.776406
 11
195.892840
 21
31.776406
  0
TEXT
  8
5
 62
94
  6
CONTINUOUS
 10
111.119218
 20
17.598748
 40
4.000000
 41
1.000000
  1
須藤
  7
KANJI
 50
0.000000
 51
0.000000
  0
TEXT
  8
5
 62
94
  6
CONTINUOUS
 10
87.148745
 20
25.637626
 40
4.000000
 41
0.500000
  1
2006/03/09
  7
KANJI
 50
0.000000
 51
0.000000
  0
TEXT
  8
5
 62
94
  6
CONTINUOUS
 10
131.119218
 20
17.598748
 40
4.000000
 41
1.000000
  1
須藤
  7
KANJI
 50
0.000000
 51
0.000000
  0
TEXT
  8
5
 62
94
  6
DOT
 10
148.573081
 20
17.393209
 40
4.000000
 41
1.000000
  1
０１５－８７７－Ａ１０１
  7
KANJI
 50
0.000000
 51
0.000000
  0
TEXT
  8
5
 62
94
  6
DOT
 10
154.278012
 20
32.928742
 40
4.000000
 41
0.571429
  1
FTH9-□R
  7
KANJI
 50
0.000000
 51
0.000000
  0
LINE
  8
1
 62
7
  6
DASHDOT
 10
24.411057
 20
200.000000
 11
49.256183
 21
200.000000
  0
LINE
  8
1
 62
7
  6
DASHDOT
 10
36.159527
 20
214.464107
 11
36.159527
 21
186.922611
  0
CIRCLE
  8
1
 62
7
  6
CONTINUOUS
 10
36.159527
 20
200.000000
 40
6.000000
  0
CIRCLE
  8
1
 62
7
  6
CONTINUOUS
 10
36.159527
 20
200.000000
 40
4.750000
  0
CIRCLE
  8
1
 62
7
  6
CONTINUOUS
 10
36.159527
 20
200.000000
 40
5.050000
  0
CIRCLE
  8
1
 62
7
  6
CONTINUOUS
 10
36.159527
 20
200.000000
 40
4.000000
  0
CIRCLE
  8
1
 62
7
  6
CONTINUOUS
 10
36.159527
 20
200.000000
 40
3.594000
  0
LINE
  8
1
 62
7
  6
CONTINUOUS
 10
90.000000
 20
204.750000
 11
90.000000
 21
195.250000
  0
LINE
  8
1
 62
7
  6
DASHDOT
 10
141.500000
 20
206.252929
 11
141.500000
 21
202.580014
  0
LINE
  8
1
 62
7
  6
DASHDOT
 10
149.000000
 20
206.252929
 11
149.000000
 21
202.580014
  0
LINE
  8
1
 62
7
  6
DASHDOT
 10
148.250000
 20
201.537088
 11
148.250000
 21
198.498999
  0
LINE
  8
1
 62
7
  6
DASHDOT
 10
141.500000
 20
199.142231
 11
141.500000
 21
196.166632
  0
LINE
  8
1
 62
7
  6
DASHDOT
 10
140.107769
 20
197.750000
 11
143.083368
 21
197.750000
  0
LINE
  8
1
 62
7
  6
CONTINUOUS
 10
142.499112
 20
197.764116
 11
142.498491
 21
197.839688
  0
LINE
  8
1
 62
7
  6
CONTINUOUS
 10
142.498491
 20
197.839688
 11
142.490270
 21
197.915006
  0
LINE
  8
1
 62
7
  6
CONTINUOUS
 10
142.490270
 20
197.915006
 11
142.474514
 21
197.989497
  0
LINE
  8
1
 62
7
  6
CONTINUOUS
 10
142.474514
 20
197.989497
 11
142.451340
 21
198.062592
  0
LINE
  8
1
 62
7
  6
CONTINUOUS
 10
142.451340
 20
198.062592
 11
142.420927
 21
198.133737
  0
LINE
  8
1
 62
7
  6
CONTINUOUS
 10
142.420927
 20
198.133737
 11
142.383505
 21
198.202390
  0
LINE
  8
1
 62
7
  6
CONTINUOUS
 10
142.383505
 20
198.202390
 11
142.339358
 21
198.268028
  0
LINE
  8
1
 62
7
  6
CONTINUOUS
 10
142.339358
 20
198.268028
 11
142.288824
 21
198.330151
  0
LINE
  8
1
 62
7
  6
CONTINUOUS
 10
142.288824
 20
198.330151
 11
142.232286
 21
198.388288
  0
LINE
  8
1
 62
7
  6
CONTINUOUS
 10
142.232286
 20
198.388288
 11
142.170175
 21
198.441994
  0
LINE
  8
1
 62
7
  6
CONTINUOUS
 10
142.170175
 20
198.441994
 11
142.102963
 21
198.490863
  0
LINE
  8
1
 62
7
  6
CONTINUOUS
 10
142.102963
 20
198.490863
 11
142.031163
 21
198.534521
  0
LINE
  8
1
 62
7
  6
CONTINUOUS
 10
142.031163
 20
198.534521
 11
141.955320
 21
198.572637
  0
LINE
  8
1
 62
7
  6
CONTINUOUS
 10
141.955320
 20
198.572637
 11
141.876012
 21
198.604920
  0
LINE
  8
1
 62
7
  6
CONTINUOUS
 10
141.876012
 20
198.604920
 11
141.793843
 21
198.631125
  0
LINE
  8
1
 62
7
  6
CONTINUOUS
 10
141.793843
 20
198.631125
 11
141.709436
 21
198.651052
  0
LINE
  8
1
 62
7
  6
CONTINUOUS
 10
141.709436
 20
198.651052
 11
141.623436
 21
198.664549
  0
LINE
  8
1
 62
7
  6
CONTINUOUS
 10
141.623436
 20
198.664549
 11
141.536497
 21
198.671515
  0
LINE
  8
1
 62
7
  6
CONTINUOUS
 10
141.536497
 20
198.671515
 11
141.449280
 21
198.671895
  0
LINE
  8
1
 62
7
  6
CONTINUOUS
 10
141.449280
 20
198.671895
 11
141.362449
 21
198.665688
  0
LINE
  8
1
 62
7
  6
CONTINUOUS
 10
141.362449
 20
198.665688
 11
141.276664
 21
198.652939
  0
LINE
  8
1
 62
7
  6
CONTINUOUS
 10
141.276664
 20
198.652939
 11
141.192580
 21
198.633747
  0
LINE
  8
1
 62
7
  6
CONTINUOUS
 10
141.192580
 20
198.633747
 11
141.110835
 21
198.608258
  0
LINE
  8
1
 62
7
  6
CONTINUOUS
 10
141.110835
 20
198.608258
 11
141.032052
 21
198.576664
  0
LINE
  8
1
 62
7
  6
CONTINUOUS
 10
141.032052
 20
198.576664
 11
140.956830
 21
198.539207
  0
LINE
  8
1
 62
7
  6
CONTINUOUS
 10
140.956830
 20
198.539207
 11
140.885742
 21
198.496173
  0
LINE
  8
1
 62
7
  6
CONTINUOUS
 10
140.885742
 20
198.496173
 11
140.819329
 21
198.447887
  0
LINE
  8
1
 62
7
  6
CONTINUOUS
 10
140.819329
 20
198.447887
 11
140.758096
 21
198.394718
  0
LINE
  8
1
 62
7
  6
CONTINUOUS
 10
140.758096
 20
198.394718
 11
140.702510
 21
198.337071
  0
LINE
  8
1
 62
7
  6
CONTINUOUS
 10
140.702510
 20
198.337071
 11
140.652992
 21
198.275384
  0
LINE
  8
1
 62
7
  6
CONTINUOUS
 10
140.652992
 20
198.275384
 11
140.609922
 21
198.210127
  0
LINE
  8
1
 62
7
  6
CONTINUOUS
 10
140.609922
 20
198.210127
 11
140.573625
 21
198.141795
  0
LINE
  8
1
 62
7
  6
CONTINUOUS
 10
140.573625
 20
198.141795
 11
140.544378
 21
198.070911
  0
LINE
  8
1
 62
7
  6
CONTINUOUS
 10
140.544378
 20
198.070911
 11
140.522405
 21
197.998012
  0
LINE
  8
1
 62
7
  6
CONTINUOUS
 10
140.522405
 20
197.998012
 11
140.507871
 21
197.923654
  0
LINE
  8
1
 62
7
  6
CONTINUOUS
 10
140.507871
 20
197.923654
 11
140.500888
 21
197.848402
  0
LINE
  8
1
 62
7
  6
CONTINUOUS
 10
140.500888
 20
197.848402
 11
140.501509
 21
197.772830
  0
LINE
  8
1
 62
7
  6
CONTINUOUS
 10
140.501509
 20
197.772830
 11
140.509730
 21
197.697512
  0
LINE
  8
1
 62
7
  6
CONTINUOUS
 10
140.509730
 20
197.697512
 11
140.525486
 21
197.623021
  0
LINE
  8
1
 62
7
  6
CONTINUOUS
 10
140.525486
 20
197.623021
 11
140.548660
 21
197.549925
  0
LINE
  8
1
 62
7
  6
CONTINUOUS
 10
140.548660
 20
197.549925
 11
140.579073
 21
197.478781
  0
LINE
  8
1
 62
7
  6
CONTINUOUS
 10
140.579073
 20
197.478781
 11
140.616495
 21
197.410128
  0
LINE
  8
1
 62
7
  6
CONTINUOUS
 10
140.616495
 20
197.410128
 11
140.660642
 21
197.344490
  0
LINE
  8
1
 62
7
  6
CONTINUOUS
 10
140.660642
 20
197.344490
 11
140.711176
 21
197.282367
  0
LINE
  8
1
 62
7
  6
CONTINUOUS
 10
140.711176
 20
197.282367
 11
140.767714
 21
197.224230
  0
LINE
  8
1
 62
7
  6
CONTINUOUS
 10
140.767714
 20
197.224230
 11
140.829825
 21
197.170523
  0
LINE
  8
1
 62
7
  6
CONTINUOUS
 10
140.829825
 20
197.170523
 11
140.897037
 21
197.121655
  0
LINE
  8
1
 62
7
  6
CONTINUOUS
 10
140.897037
 20
197.121655
 11
140.968837
 21
197.077997
  0
LINE
  8
1
 62
7
  6
CONTINUOUS
 10
140.968837
 20
197.077997
 11
141.044680
 21
197.039881
  0
LINE
  8
1
 62
7
  6
CONTINUOUS
 10
141.044680
 20
197.039881
 11
141.123988
 21
197.007598
  0
LINE
  8
1
 62
7
  6
CONTINUOUS
 10
141.123988
 20
197.007598
 11
141.206157
 21
196.981393
  0
LINE
  8
1
 62
7
  6
CONTINUOUS
 10
141.206157
 20
196.981393
 11
141.290564
 21
196.961466
  0
LINE
  8
1
 62
7
  6
CONTINUOUS
 10
141.290564
 20
196.961466
 11
141.376564
 21
196.947968
  0
LINE
  8
1
 62
7
  6
CONTINUOUS
 10
141.376564
 20
196.947968
 11
141.463503
 21
196.941003
  0
LINE
  8
1
 62
7
  6
CONTINUOUS
 10
141.463503
 20
196.941003
 11
141.550720
 21
196.940622
  0
LINE
  8
1
 62
7
  6
CONTINUOUS
 10
141.550720
 20
196.940622
 11
141.637551
 21
196.946830
  0
LINE
  8
1
 62
7
  6
CONTINUOUS
 10
141.637551
 20
196.946830
 11
141.723336
 21
196.959578
  0
LINE
  8
1
 62
7
  6
CONTINUOUS
 10
141.723336
 20
196.959578
 11
141.807420
 21
196.978770
  0
LINE
  8
1
 62
7
  6
CONTINUOUS
 10
141.807420
 20
196.978770
 11
141.889165
 21
197.004260
  0
LINE
  8
1
 62
7
  6
CONTINUOUS
 10
141.889165
 20
197.004260
 11
141.967948
 21
197.035854
  0
LINE
  8
1
 62
7
  6
CONTINUOUS
 10
141.967948
 20
197.035854
 11
142.043170
 21
197.073310
  0
LINE
  8
1
 62
7
  6
CONTINUOUS
 10
142.043170
 20
197.073310
 11
142.114258
 21
197.116345
  0
LINE
  8
1
 62
7
  6
CONTINUOUS
 10
142.114258
 20
197.116345
 11
142.180671
 21
197.164631
  0
LINE
  8
1
 62
7
  6
CONTINUOUS
 10
142.180671
 20
197.164631
 11
142.241904
 21
197.217800
  0
LINE
  8
1
 62
7
  6
CONTINUOUS
 10
142.241904
 20
197.217800
 11
142.297490
 21
197.275447
  0
LINE
  8
1
 62
7
  6
CONTINUOUS
 10
142.297490
 20
197.275447
 11
142.347008
 21
197.337134
  0
LINE
  8
1
 62
7
  6
CONTINUOUS
 10
142.347008
 20
197.337134
 11
142.390078
 21
197.402391
  0
LINE
  8
1
 62
7
  6
CONTINUOUS
 10
142.390078
 20
197.402391
 11
142.426375
 21
197.470722
  0
LINE
  8
1
 62
7
  6
CONTINUOUS
 10
142.426375
 20
197.470722
 11
142.455622
 21
197.541607
  0
LINE
  8
1
 62
7
  6
CONTINUOUS
 10
142.455622
 20
197.541607
 11
142.477595
 21
197.614506
  0
LINE
  8
1
 62
7
  6
CONTINUOUS
 10
142.477595
 20
197.614506
 11
142.492129
 21
197.688864
  0
LINE
  8
1
 62
7
  6
CONTINUOUS
 10
142.492129
 20
197.688864
 11
142.499112
 21
197.764116
  0
LINE
  8
1
 62
7
  6
CONTINUOUS
 10
142.299198
 20
197.750036
 11
142.298860
 21
197.810495
  0
LINE
  8
1
 62
7
  6
CONTINUOUS
 10
142.298860
 20
197.810495
 11
142.292441
 21
197.870766
  0
LINE
  8
1
 62
7
  6
CONTINUOUS
 10
142.292441
 20
197.870766
 11
142.279992
 21
197.930391
  0
LINE
  8
1
 62
7
  6
CONTINUOUS
 10
142.279992
 20
197.930391
 11
142.261606
 21
197.988916
  0
LINE
  8
1
 62
7
  6
CONTINUOUS
 10
142.261606
 20
197.988916
 11
142.237424
 21
198.045896
  0
LINE
  8
1
 62
7
  6
CONTINUOUS
 10
142.237424
 20
198.045896
 11
142.207630
 21
198.100896
  0
LINE
  8
1
 62
7
  6
CONTINUOUS
 10
142.207630
 20
198.100896
 11
142.172450
 21
198.153498
  0
LINE
  8
1
 62
7
  6
CONTINUOUS
 10
142.172450
 20
198.153498
 11
142.132153
 21
198.203303
  0
LINE
  8
1
 62
7
  6
CONTINUOUS
 10
142.132153
 20
198.203303
 11
142.087045
 21
198.249930
  0
LINE
  8
1
 62
7
  6
CONTINUOUS
 10
142.087045
 20
198.249930
 11
142.037468
 21
198.293025
  0
LINE
  8
1
 62
7
  6
CONTINUOUS
 10
142.037468
 20
198.293025
 11
141.983802
 21
198.332261
  0
LINE
  8
1
 62
7
  6
CONTINUOUS
 10
141.983802
 20
198.332261
 11
141.926453
 21
198.367337
  0
LINE
  8
1
 62
7
  6
CONTINUOUS
 10
141.926453
 20
198.367337
 11
141.865859
 21
198.397988
  0
LINE
  8
1
 62
7
  6
CONTINUOUS
 10
141.865859
 20
198.397988
 11
141.802480
 21
198.423981
  0
LINE
  8
1
 62
7
  6
CONTINUOUS
 10
141.802480
 20
198.423981
 11
141.736799
 21
198.445116
  0
LINE
  8
1
 62
7
  6
CONTINUOUS
 10
141.736799
 20
198.445116
 11
141.669316
 21
198.461235
  0
LINE
  8
1
 62
7
  6
CONTINUOUS
 10
141.669316
 20
198.461235
 11
141.600545
 21
198.472213
  0
LINE
  8
1
 62
7
  6
CONTINUOUS
 10
141.600545
 20
198.472213
 11
141.531008
 21
198.477967
  0
LINE
  8
1
 62
7
  6
CONTINUOUS
 10
141.531008
 20
198.477967
 11
141.461235
 21
198.478454
  0
LINE
  8
1
 62
7
  6
CONTINUOUS
 10
141.461235
 20
198.478454
 11
141.391758
 21
198.473670
  0
LINE
  8
1
 62
7
  6
CONTINUOUS
 10
141.391758
 20
198.473670
 11
141.323104
 21
198.463651
  0
LINE
  8
1
 62
7
  6
CONTINUOUS
 10
141.323104
 20
198.463651
 11
141.255796
 21
198.448473
  0
LINE
  8
1
 62
7
  6
CONTINUOUS
 10
141.255796
 20
198.448473
 11
141.190347
 21
198.428252
  0
LINE
  8
1
 62
7
  6
CONTINUOUS
 10
141.190347
 20
198.428252
 11
141.127255
 21
198.403142
  0
LINE
  8
1
 62
7
  6
CONTINUOUS
 10
141.127255
 20
198.403142
 11
141.066999
 21
198.373334
  0
LINE
  8
1
 62
7
  6
CONTINUOUS
 10
141.066999
 20
198.373334
 11
141.010039
 21
198.339055
  0
LINE
  8
1
 62
7
  6
CONTINUOUS
 10
141.010039
 20
198.339055
 11
140.956807
 21
198.300566
  0
LINE
  8
1
 62
7
  6
CONTINUOUS
 10
140.956807
 20
198.300566
 11
140.907710
 21
198.258159
  0
LINE
  8
1
 62
7
  6
CONTINUOUS
 10
140.907710
 20
198.258159
 11
140.863121
 21
198.212158
  0
LINE
  8
1
 62
7
  6
CONTINUOUS
 10
140.863121
 20
198.212158
 11
140.823378
 21
198.162912
  0
LINE
  8
1
 62
7
  6
CONTINUOUS
 10
140.823378
 20
198.162912
 11
140.788785
 21
198.110797
  0
LINE
  8
1
 62
7
  6
CONTINUOUS
 10
140.788785
 20
198.110797
 11
140.759605
 21
198.056208
  0
LINE
  8
1
 62
7
  6
CONTINUOUS
 10
140.759605
 20
198.056208
 11
140.736059
 21
197.999561
  0
LINE
  8
1
 62
7
  6
CONTINUOUS
 10
140.736059
 20
197.999561
 11
140.718328
 21
197.941289
  0
LINE
  8
1
 62
7
  6
CONTINUOUS
 10
140.718328
 20
197.941289
 11
140.706545
 21
197.881833
  0
LINE
  8
1
 62
7
  6
CONTINUOUS
 10
140.706545
 20
197.881833
 11
140.700802
 21
197.821646
  0
LINE
  8
1
 62
7
  6
CONTINUOUS
 10
140.700802
 20
197.821646
 11
140.701140
 21
197.761187
  0
LINE
  8
1
 62
7
  6
CONTINUOUS
 10
140.701140
 20
197.761187
 11
140.707559
 21
197.700916
  0
LINE
  8
1
 62
7
  6
CONTINUOUS
 10
140.707559
 20
197.700916
 11
140.720008
 21
197.641291
  0
LINE
  8
1
 62
7
  6
CONTINUOUS
 10
140.720008
 20
197.641291
 11
140.738394
 21
197.582766
  0
LINE
  8
1
 62
7
  6
CONTINUOUS
 10
140.738394
 20
197.582766
 11
140.762576
 21
197.525786
  0
LINE
  8
1
 62
7
  6
CONTINUOUS
 10
140.762576
 20
197.525786
 11
140.792370
 21
197.470786
  0
LINE
  8
1
 62
7
  6
CONTINUOUS
 10
140.792370
 20
197.470786
 11
140.827550
 21
197.418184
  0
LINE
  8
1
 62
7
  6
CONTINUOUS
 10
140.827550
 20
197.418184
 11
140.867847
 21
197.368379
  0
LINE
  8
1
 62
7
  6
CONTINUOUS
 10
140.867847
 20
197.368379
 11
140.912955
 21
197.321752
  0
LINE
  8
1
 62
7
  6
CONTINUOUS
 10
140.912955
 20
197.321752
 11
140.962532
 21
197.278657
  0
LINE
  8
1
 62
7
  6
CONTINUOUS
 10
140.962532
 20
197.278657
 11
141.016198
 21
197.239421
  0
LINE
  8
1
 62
7
  6
CONTINUOUS
 10
141.016198
 20
197.239421
 11
141.073547
 21
197.204345
  0
LINE
  8
1
 62
7
  6
CONTINUOUS
 10
141.073547
 20
197.204345
 11
141.134141
 21
197.173694
  0
LINE
  8
1
 62
7
  6
CONTINUOUS
 10
141.134141
 20
197.173694
 11
141.197520
 21
197.147701
  0
LINE
  8
1
 62
7
  6
CONTINUOUS
 10
141.197520
 20
197.147701
 11
141.263201
 21
197.126566
  0
LINE
  8
1
 62
7
  6
CONTINUOUS
 10
141.263201
 20
197.126566
 11
141.330684
 21
197.110447
  0
LINE
  8
1
 62
7
  6
CONTINUOUS
 10
141.330684
 20
197.110447
 11
141.399455
 21
197.099469
  0
LINE
  8
1
 62
7
  6
CONTINUOUS
 10
141.399455
 20
197.099469
 11
141.468992
 21
197.093715
  0
LINE
  8
1
 62
7
  6
CONTINUOUS
 10
141.468992
 20
197.093715
 11
141.538765
 21
197.093228
  0
LINE
  8
1
 62
7
  6
CONTINUOUS
 10
141.538765
 20
197.093228
 11
141.608242
 21
197.098012
  0
LINE
  8
1
 62
7
  6
CONTINUOUS
 10
141.608242
 20
197.098012
 11
141.676896
 21
197.108032
  0
LINE
  8
1
 62
7
  6
CONTINUOUS
 10
141.676896
 20
197.108032
 11
141.744204
 21
197.123209
  0
LINE
  8
1
 62
7
  6
CONTINUOUS
 10
141.744204
 20
197.123209
 11
141.809653
 21
197.143430
  0
LINE
  8
1
 62
7
  6
CONTINUOUS
 10
141.809653
 20
197.143430
 11
141.872745
 21
197.168540
  0
LINE
  8
1
 62
7
  6
CONTINUOUS
 10
141.872745
 20
197.168540
 11
141.933001
 21
197.198348
  0
LINE
  8
1
 62
7
  6
CONTINUOUS
 10
141.933001
 20
197.198348
 11
141.989961
 21
197.232627
  0
LINE
  8
1
 62
7
  6
CONTINUOUS
 10
141.989961
 20
197.232627
 11
142.043193
 21
197.271116
  0
LINE
  8
1
 62
7
  6
CONTINUOUS
 10
142.043193
 20
197.271116
 11
142.092290
 21
197.313523
  0
LINE
  8
1
 62
7
  6
CONTINUOUS
 10
142.092290
 20
197.313523
 11
142.136879
 21
197.359524
  0
LINE
  8
1
 62
7
  6
CONTINUOUS
 10
142.136879
 20
197.359524
 11
142.176622
 21
197.408770
  0
LINE
  8
1
 62
7
  6
CONTINUOUS
 10
142.176622
 20
197.408770
 11
142.211215
 21
197.460885
  0
LINE
  8
1
 62
7
  6
CONTINUOUS
 10
142.211215
 20
197.460885
 11
142.240395
 21
197.515474
  0
LINE
  8
1
 62
7
  6
CONTINUOUS
 10
142.240395
 20
197.515474
 11
142.263941
 21
197.572121
  0
LINE
  8
1
 62
7
  6
CONTINUOUS
 10
142.263941
 20
197.572121
 11
142.281672
 21
197.630393
  0
LINE
  8
1
 62
7
  6
CONTINUOUS
 10
142.281672
 20
197.630393
 11
142.293455
 21
197.689849
  0
LINE
  8
1
 62
7
  6
CONTINUOUS
 10
142.293455
 20
197.689849
 11
142.299198
 21
197.750036
  0
CIRCLE
  8
1
 62
7
  6
CONTINUOUS
 10
148.250000
 20
200.000000
 40
1.000000
  0
CIRCLE
  8
1
 62
7
  6
CONTINUOUS
 10
148.250000
 20
200.000000
 40
0.782631
  0
LINE
  8
1
 62
7
  6
DASHDOT
 10
149.000000
 20
206.252929
 11
149.000000
 21
202.580014
  0
LINE
  8
1
 62
7
  6
CONTINUOUS
 10
152.000000
 20
205.000000
 11
152.000000
 21
195.000000
  0
LINE
  8
1
 62
7
  6
CONTINUOUS
 10
138.000000
 20
195.250000
 11
138.000000
 21
195.040000
  0
LINE
  8
1
 62
7
  6
DASHDOT
 10
138.297343
 20
200.000000
 11
138.043873
 21
200.000000
  0
LINE
  8
1
 62
7
  6
CONTINUOUS
 10
137.000000
 20
206.000000
 11
138.000000
 21
205.000000
  0
LINE
  8
1
 62
7
  6
CONTINUOUS
 10
137.000000
 20
194.000000
 11
138.000000
 21
195.000000
  0
LINE
  8
1
 62
7
  6
CONTINUOUS
 10
138.000000
 20
205.000000
 11
152.000000
 21
205.000000
  0
LINE
  8
1
 62
7
  6
CONTINUOUS
 10
111.000000
 20
194.950000
 11
111.950000
 21
194.000000
  0
LINE
  8
1
 62
7
  6
CONTINUOUS
 10
90.000000
 20
195.250000
 11
111.000000
 21
195.250000
  0
LINE
  8
1
 62
7
  6
CONTINUOUS
 10
111.000000
 20
205.050000
 11
111.000000
 21
204.750000
  0
LINE
  8
1
 62
7
  6
CONTINUOUS
 10
111.000000
 20
205.050000
 11
111.950000
 21
206.000000
  0
LINE
  8
1
 62
7
  6
CONTINUOUS
 10
90.000000
 20
204.750000
 11
111.000000
 21
204.750000
  0
LINE
  8
1
 62
7
  6
CONTINUOUS
 10
111.000000
 20
194.950000
 11
138.000000
 21
194.950000
  0
LINE
  8
1
 62
7
  6
CONTINUOUS
 10
111.000000
 20
205.050000
 11
138.000000
 21
205.050000
  0
LINE
  8
1
 62
7
  6
CONTINUOUS
 10
111.950000
 20
206.000000
 11
137.000000
 21
206.000000
  0
LINE
  8
1
 62
7
  6
CONTINUOUS
 10
111.950000
 20
194.000000
 11
137.000000
 21
194.000000
  0
ARC
  8
1
 62
7
  6
DOT
 10
104.886734
 20
200.000569
 40
5.000000
 50
-36.869899
 51
36.869899
  0
ARC
  8
1
 62
7
  6
DOT
 10
112.886734
 20
200.000569
 40
5.000000
 50
143.130101
 51
-143.130101
  0
LINE
  8
1
 62
7
  6
DOT
 10
108.556607
 20
202.500569
 11
99.763949
 21
202.500569
  0
LINE
  8
1
 62
7
  6
DOT
 10
108.556607
 20
197.500569
 11
99.581247
 21
197.500569
  0
LINE
  8
1
 62
7
  6
DOT
 10
130.000000
 20
200.000000
 11
109.216861
 21
202.500569
  0
LINE
  8
1
 62
7
  6
DOT
 10
130.000000
 20
200.000000
 11
109.216861
 21
197.500569
  0
LINE
  8
1
 62
7
  6
CONTINUOUS
 10
111.000000
 20
194.950000
 11
111.000000
 21
204.750000
  0
LINE
  8
1
 62
7
  6
CONTINUOUS
 10
111.950000
 20
194.000000
 11
111.950000
 21
206.000000
  0
LINE
  8
1
 62
7
  6
CONTINUOUS
 10
152.000000
 20
195.000000
 11
138.000000
 21
195.000000
  0
LINE
  8
1
 62
7
  6
CONTINUOUS
 10
138.000000
 20
205.000000
 11
138.000000
 21
195.000000
  0
LINE
  8
1
 62
7
  6
CONTINUOUS
 10
137.000000
 20
194.000000
 11
137.000000
 21
206.000000
  0
DIMENSION
  8
2
 62
134
  6
CONTINUOUS
  2
*D1
 10
161.000000
 20
203.000000
 11
160.500000
 21
206.418876
 70
     0
  1
φ6
 13
161.000000
 23
203.000000
 14
161.000000
 24
197.000000
 50
-90.000000
  0
LINE
  8
1
 62
7
  6
CONTINUOUS
 10
153.000000
 20
203.000000
 11
154.000000
 21
203.000000
  0
LINE
  8
1
 62
7
  6
CONTINUOUS
 10
155.000000
 20
203.000000
 11
156.000000
 21
203.000000
  0
LINE
  8
1
 62
7
  6
CONTINUOUS
 10
157.000000
 20
203.000000
 11
158.000000
 21
203.000000
  0
LINE
  8
1
 62
7
  6
CONTINUOUS
 10
159.000000
 20
203.000000
 11
160.000000
 21
203.000000
  0
LINE
  8
1
 62
7
  6
CONTINUOUS
 10
161.000000
 20
203.000000
 11
162.000000
 21
203.000000
  0
LINE
  8
1
 62
7
  6
CONTINUOUS
 10
163.000000
 20
203.000000
 11
164.000000
 21
203.000000
  0
LINE
  8
1
 62
7
  6
CONTINUOUS
 10
165.000000
 20
203.000000
 11
166.000000
 21
203.000000
  0
LINE
  8
1
 62
7
  6
CONTINUOUS
 10
167.000000
 20
203.000000
 11
168.000000
 21
203.000000
  0
LINE
  8
1
 62
7
  6
CONTINUOUS
 10
169.000000
 20
203.000000
 11
170.000000
 21
203.000000
  0
LINE
  8
1
 62
7
  6
CONTINUOUS
 10
171.000000
 20
202.500000
 11
171.000000
 21
203.000000
  0
LINE
  8
1
 62
7
  6
CONTINUOUS
 10
154.000000
 20
197.000000
 11
155.000000
 21
197.000000
  0
LINE
  8
1
 62
7
  6
CONTINUOUS
 10
156.000000
 20
197.000000
 11
157.000000
 21
197.000000
  0
LINE
  8
1
 62
7
  6
CONTINUOUS
 10
158.000000
 20
197.000000
 11
159.000000
 21
197.000000
  0
LINE
  8
1
 62
7
  6
CONTINUOUS
 10
162.000000
 20
197.000000
 11
163.000000
 21
197.000000
  0
LINE
  8
1
 62
7
  6
CONTINUOUS
 10
164.000000
 20
197.000000
 11
165.000000
 21
197.000000
  0
LINE
  8
1
 62
7
  6
CONTINUOUS
 10
166.000000
 20
197.000000
 11
167.000000
 21
197.000000
  0
LINE
  8
1
 62
7
  6
CONTINUOUS
 10
168.000000
 20
197.000000
 11
169.000000
 21
197.000000
  0
LINE
  8
1
 62
7
  6
CONTINUOUS
 10
170.000000
 20
197.000000
 11
171.000000
 21
197.000000
  0
LINE
  8
1
 62
7
  6
CONTINUOUS
 10
153.000000
 20
203.000000
 11
154.000000
 21
197.000000
  0
LINE
  8
1
 62
7
  6
CONTINUOUS
 10
154.000000
 20
203.000000
 11
155.000000
 21
197.000000
  0
LINE
  8
1
 62
7
  6
CONTINUOUS
 10
155.000000
 20
203.000000
 11
156.000000
 21
197.000000
  0
LINE
  8
1
 62
7
  6
CONTINUOUS
 10
156.000000
 20
203.000000
 11
157.000000
 21
197.000000
  0
LINE
  8
1
 62
7
  6
CONTINUOUS
 10
157.000000
 20
203.000000
 11
158.000000
 21
197.000000
  0
LINE
  8
1
 62
7
  6
CONTINUOUS
 10
158.000000
 20
203.000000
 11
159.000000
 21
197.000000
  0
LINE
  8
1
 62
7
  6
CONTINUOUS
 10
159.000000
 20
203.000000
 11
160.000000
 21
197.000000
  0
LINE
  8
1
 62
7
  6
CONTINUOUS
 10
160.000000
 20
203.000000
 11
161.000000
 21
197.000000
  0
LINE
  8
1
 62
7
  6
CONTINUOUS
 10
161.000000
 20
203.000000
 11
162.000000
 21
197.000000
  0
LINE
  8
1
 62
7
  6
CONTINUOUS
 10
162.000000
 20
203.000000
 11
163.000000
 21
197.000000
  0
LINE
  8
1
 62
7
  6
CONTINUOUS
 10
163.000000
 20
203.000000
 11
164.000000
 21
197.000000
  0
LINE
  8
1
 62
7
  6
CONTINUOUS
 10
164.000000
 20
203.000000
 11
165.000000
 21
197.000000
  0
LINE
  8
1
 62
7
  6
CONTINUOUS
 10
165.000000
 20
203.000000
 11
166.000000
 21
197.000000
  0
LINE
  8
1
 62
7
  6
CONTINUOUS
 10
166.000000
 20
203.000000
 11
167.000000
 21
197.000000
  0
LINE
  8
1
 62
7
  6
CONTINUOUS
 10
167.000000
 20
203.000000
 11
168.000000
 21
197.000000
  0
LINE
  8
1
 62
7
  6
CONTINUOUS
 10
168.000000
 20
203.000000
 11
169.000000
 21
197.000000
  0
LINE
  8
1
 62
7
  6
CONTINUOUS
 10
169.000000
 20
203.000000
 11
170.000000
 21
197.000000
  0
LINE
  8
1
 62
7
  6
CONTINUOUS
 10
170.000000
 20
203.000000
 11
171.000000
 21
197.000000
  0
LINE
  8
1
 62
7
  6
CONTINUOUS
 10
171.000000
 20
202.500000
 11
171.000000
 21
197.000000
  0
LINE
  8
1
 62
7
  6
CONTINUOUS
 10
152.000000
 20
202.500000
 11
153.083333
 21
202.500000
  0
LINE
  8
1
 62
7
  6
CONTINUOUS
 10
154.083333
 20
202.500000
 11
155.083333
 21
202.500000
  0
LINE
  8
1
 62
7
  6
CONTINUOUS
 10
156.083333
 20
202.500000
 11
157.083333
 21
202.500000
  0
LINE
  8
1
 62
7
  6
CONTINUOUS
 10
158.083333
 20
202.500000
 11
159.083333
 21
202.500000
  0
LINE
  8
1
 62
7
  6
CONTINUOUS
 10
160.083333
 20
202.500000
 11
161.083333
 21
202.500000
  0
LINE
  8
1
 62
7
  6
CONTINUOUS
 10
162.083333
 20
202.500000
 11
163.083333
 21
202.500000
  0
LINE
  8
1
 62
7
  6
CONTINUOUS
 10
164.083333
 20
202.500000
 11
165.083333
 21
202.500000
  0
LINE
  8
1
 62
7
  6
CONTINUOUS
 10
166.083333
 20
202.500000
 11
167.083333
 21
202.500000
  0
LINE
  8
1
 62
7
  6
CONTINUOUS
 10
168.083333
 20
202.500000
 11
169.083333
 21
202.500000
  0
LINE
  8
1
 62
7
  6
CONTINUOUS
 10
170.083333
 20
202.500000
 11
171.000000
 21
202.500000
  0
LINE
  8
1
 62
7
  6
CONTINUOUS
 10
168.916667
 20
197.500000
 11
169.916667
 21
197.500000
  0
LINE
  8
1
 62
7
  6
CONTINUOUS
 10
166.916667
 20
197.500000
 11
167.916667
 21
197.500000
  0
LINE
  8
1
 62
7
  6
CONTINUOUS
 10
165.016240
 20
197.500000
 11
165.916667
 21
197.500000
  0
LINE
  8
1
 62
7
  6
CONTINUOUS
 10
162.916667
 20
197.500000
 11
163.916667
 21
197.500000
  0
LINE
  8
1
 62
7
  6
CONTINUOUS
 10
160.916667
 20
197.500000
 11
161.916667
 21
197.500000
  0
LINE
  8
1
 62
7
  6
CONTINUOUS
 10
158.916667
 20
197.500000
 11
159.916667
 21
197.500000
  0
LINE
  8
1
 62
7
  6
CONTINUOUS
 10
156.916667
 20
197.500000
 11
157.916667
 21
197.500000
  0
LINE
  8
1
 62
7
  6
CONTINUOUS
 10
154.916667
 20
197.500000
 11
155.916667
 21
197.500000
  0
LINE
  8
1
 62
7
  6
CONTINUOUS
 10
153.016240
 20
197.500000
 11
153.916667
 21
197.500000
  0
LINE
  8
1
 62
7
  6
CONTINUOUS
 10
152.000000
 20
202.500000
 11
153.100787
 21
196.996063
  0
LINE
  8
1
 62
7
  6
CONTINUOUS
 10
152.086618
 20
197.000000
 11
153.100000
 21
197.000000
  0
LINE
  8
1
 62
7
  6
CONTINUOUS
 10
152.991265
 20
197.500000
 11
153.000000
 21
197.500000
  0
LINE
  8
1
 62
7
  6
CONTINUOUS
 10
160.000000
 20
197.000000
 11
161.000000
 21
197.000000
  0
LINE
  8
2
 62
134
  6
CONTINUOUS
 10
90.000000
 20
179.053590
 11
90.000000
 21
193.250000
  0
LINE
  8
1
 62
7
  6
DASHDOT
 10
149.000000
 20
196.000021
 11
149.000000
 21
193.431760
  0
LINE
  8
1
 62
7
  6
DASHDOT
 10
121.579208
 20
200.000000
 11
181.881324
 21
200.000000
  0
DIMENSION
  8
2
 62
134
  6
CONTINUOUS
  2
*D2
 10
130.000000
 20
212.609025
 11
141.033192
 21
212.609025
 70
     0
  1
22
 13
130.000000
 23
202.000000
 14
152.000000
 24
207.000000
 50
0.000000
  0
LINE
  8
2
 62
134
  6
CONTINUOUS
 10
130.000000
 20
219.047252
 11
131.931852
 21
219.564890
  0
LINE
  8
2
 62
134
  6
CONTINUOUS
 10
131.931852
 20
219.564890
 11
131.931852
 21
218.529614
  0
LINE
  8
2
 62
134
  6
CONTINUOUS
 10
131.931852
 20
218.529614
 11
130.000000
 21
219.047252
  0
LINE
  8
2
 62
134
  6
CONTINUOUS
 10
130.000000
 20
221.047252
 11
130.000000
 21
202.000000
  0
LINE
  8
1
 62
7
  6
DOT
 10
90.000000
 20
204.000000
 11
97.000000
 21
204.000000
  0
LINE
  8
1
 62
7
  6
DOT
 10
90.000000
 20
203.594000
 11
97.985767
 21
203.594000
  0
LINE
  8
1
 62
7
  6
DOT
 10
90.000000
 20
196.000000
 11
97.000000
 21
196.000000
  0
LINE
  8
1
 62
7
  6
DOT
 10
90.000000
 20
196.406000
 11
97.985767
 21
196.406000
  0
LINE
  8
1
 62
7
  6
DASHDOT
 10
83.047174
 20
200.000000
 11
133.285714
 21
200.000000
  0
DIMENSION
  8
2
 62
134
  6
CONTINUOUS
  2
*D3
 10
145.905501
 20
195.000000
 11
145.905501
 21
189.018505
 70
     0
  1
φ10
 13
145.905501
 23
195.000000
 14
147.000000
 24
205.000000
 50
90.000000
  0
DIMENSION
  8
2
 62
134
  6
CONTINUOUS
  2
*D4
 10
90.000000
 20
174.587447
 11
121.594378
 21
174.587447
 70
     0
  1
62
 13
90.000000
 23
193.250000
 14
152.000000
 24
193.000000
 50
0.000000
  0
LINE
  8
2
 62
134
  6
CONTINUOUS
 10
90.000000
 20
174.587447
 11
88.068148
 21
174.069809
  0
LINE
  8
2
 62
134
  6
CONTINUOUS
 10
88.068148
 20
174.069809
 11
88.068148
 21
175.105085
  0
LINE
  8
2
 62
134
  6
CONTINUOUS
 10
88.068148
 20
175.105085
 11
90.000000
 21
174.587447
  0
LINE
  8
2
 62
134
  6
CONTINUOUS
 10
90.000000
 20
174.587447
 11
39.116267
 21
174.587447
  0
DIMENSION
  8
2
 62
134
  6
CONTINUOUS
  2
*D5
 10
90.000000
 20
181.080354
 11
99.671914
 21
181.080354
 70
     0
  1
21
 13
90.000000
 23
193.250000
 14
111.000000
 24
193.250000
 50
0.000000
  0
DIMENSION
  8
2
 62
134
  6
CONTINUOUS
  2
*D6
 10
111.000000
 20
181.080354
 11
123.712890
 21
181.080354
 70
     0
  1
27
 13
111.000000
 23
193.250000
 14
138.000000
 24
193.000000
 50
0.000000
  0
DIMENSION
  8
2
 62
134
  6
CONTINUOUS
  2
*D7
 10
138.000000
 20
181.080354
 11
144.868949
 21
181.080354
 70
     0
  1
14
 13
138.000000
 23
193.000000
 14
152.000000
 24
193.000000
 50
0.000000
  0
LINE
  8
1
 62
7
  6
DOT
 10
93.000000
 20
219.287648
 11
93.000000
 21
212.787648
  0
LINE
  8
1
 62
7
  6
DOT
 10
93.000000
 20
212.787648
 11
95.000000
 21
212.787648
  0
LINE
  8
1
 62
7
  6
DOT
 10
95.000000
 20
212.787648
 11
95.000000
 21
219.287648
  0
LINE
  8
1
 62
7
  6
DOT
 10
95.000000
 20
219.287648
 11
93.000000
 21
219.287648
  0
LINE
  8
1
 62
7
  6
DOT
 10
91.000000
 20
212.787648
 11
81.750000
 21
212.787648
  0
LINE
  8
1
 62
7
  6
DOT
 10
91.000000
 20
219.287648
 11
84.250000
 21
219.287648
  0
LINE
  8
1
 62
7
  6
DOT
 10
91.000000
 20
213.537648
 11
93.000000
 21
213.537648
  0
LINE
  8
1
 62
7
  6
DOT
 10
91.000000
 20
218.537648
 11
93.000000
 21
218.537648
  0
LINE
  8
1
 62
7
  6
DOT
 10
91.000000
 20
219.287648
 11
91.000000
 21
212.787648
  0
LINE
  8
1
 62
7
  6
DOT
 10
81.000000
 20
207.037648
 11
87.000000
 21
207.037648
  0
LINE
  8
1
 62
7
  6
DOT
 10
87.000000
 20
207.037648
 11
87.000000
 21
212.037648
  0
ARC
  8
1
 62
7
  6
DOT
 10
86.250000
 20
212.037648
 40
0.750000
 50
0.000000
 51
90.000000
  0
ARC
  8
1
 62
7
  6
DOT
 10
86.250000
 20
212.037648
 40
0.750000
 50
90.000000
 51
180.000000
  0
LINE
  8
1
 62
7
  6
DOT
 10
85.500000
 20
207.037648
 11
85.500000
 21
212.037648
  0
ARC
  8
1
 62
7
  6
DOT
 10
84.750000
 20
212.037648
 40
0.750000
 50
0.000000
 51
90.000000
  0
ARC
  8
1
 62
7
  6
DOT
 10
83.250000
 20
212.037648
 40
0.750000
 50
90.000000
 51
180.000000
  0
LINE
  8
1
 62
7
  6
DOT
 10
82.500000
 20
207.037648
 11
82.500000
 21
212.037648
  0
ARC
  8
1
 62
7
  6
DOT
 10
81.750000
 20
212.037648
 40
0.750000
 50
0.000000
 51
90.000000
  0
LINE
  8
1
 62
7
  6
DOT
 10
86.250000
 20
212.787648
 11
81.750000
 21
212.787648
  0
ARC
  8
1
 62
7
  6
DOT
 10
81.750000
 20
212.037648
 40
0.750000
 50
90.000000
 51
180.000000
  0
LINE
  8
1
 62
7
  6
DOT
 10
81.000000
 20
216.037648
 11
81.000000
 21
207.037648
  0
ARC
  8
1
 62
7
  6
DOT
 10
84.250000
 20
216.037648
 40
3.250000
 50
90.000000
 51
180.000000
  0
LINE
  8
1
 62
7
  6
DOT
 10
85.500000
 20
207.037648
 11
85.500000
 21
204.037646
  0
LINE
  8
1
 62
7
  6
DOT
 10
85.305588
 20
207.037648
 11
85.305588
 21
204.037648
  0
LINE
  8
1
 62
7
  6
DOT
 10
82.700000
 20
207.037648
 11
82.700000
 21
204.037648
  0
LINE
  8
1
 62
7
  6
DOT
 10
82.500000
 20
207.037648
 11
82.500000
 21
204.037648
  0
LINE
  8
1
 62
7
  6
DOT
 10
82.500000
 20
204.037648
 11
85.500000
 21
204.037648
  0
LINE
  8
1
 62
7
  6
DOT
 10
89.500000
 20
193.037648
 11
90.000000
 21
193.537648
  0
LINE
  8
1
 62
7
  6
DOT
 10
90.000000
 20
196.537648
 11
90.000000
 21
193.537648
  0
LINE
  8
1
 62
7
  6
DOT
 10
65.500000
 20
193.037648
 11
89.500000
 21
193.037648
  0
LINE
  8
1
 62
7
  6
DOT
 10
89.500000
 20
207.037648
 11
90.000000
 21
206.537648
  0
LINE
  8
1
 62
7
  6
DOT
 10
90.000000
 20
203.537648
 11
90.000000
 21
206.537648
  0
LINE
  8
1
 62
7
  6
DOT
 10
65.500000
 20
207.037648
 11
89.500000
 21
207.037648
  0
LINE
  8
1
 62
7
  6
DOT
 10
91.000000
 20
196.537648
 11
91.000000
 21
200.036540
  0
LINE
  8
1
 62
7
  6
DOT
 10
90.000000
 20
196.537648
 11
90.000000
 21
200.000000
  0
LINE
  8
1
 62
7
  6
DOT
 10
91.000000
 20
196.443648
 11
94.906000
 21
196.443648
  0
LINE
  8
1
 62
7
  6
DOT
 10
91.000000
 20
203.631648
 11
94.906000
 21
203.631648
  0
LINE
  8
1
 62
7
  6
DOT
 10
65.000000
 20
193.537648
 11
65.500000
 21
193.037648
  0
LINE
  8
1
 62
7
  6
DOT
 10
65.000000
 20
206.537648
 11
65.500000
 21
207.037648
  0
LINE
  8
1
 62
7
  6
DOT
 10
95.000000
 20
196.537648
 11
94.500000
 21
196.037648
  0
LINE
  8
1
 62
7
  6
DOT
 10
94.500000
 20
204.037648
 11
95.000000
 21
203.537648
  0
LINE
  8
1
 62
7
  6
DOT
 10
91.000000
 20
204.037648
 11
91.000000
 21
203.537648
  0
LINE
  8
1
 62
7
  6
DOT
 10
91.000000
 20
204.037648
 11
94.500000
 21
204.037648
  0
LINE
  8
1
 62
7
  6
DOT
 10
90.000000
 20
203.537648
 11
91.000000
 21
203.537648
  0
LINE
  8
1
 62
7
  6
DOT
 10
91.000000
 20
196.537648
 11
91.000000
 21
196.037648
  0
LINE
  8
1
 62
7
  6
DOT
 10
90.000000
 20
196.537648
 11
91.000000
 21
196.537648
  0
LINE
  8
1
 62
7
  6
DOT
 10
91.000000
 20
196.037648
 11
94.500000
 21
196.037648
  0
LINE
  8
1
 62
7
  6
DOT
 10
95.000000
 20
203.537648
 11
95.000000
 21
196.537648
  0
LINE
  8
1
 62
7
  6
DOT
 10
87.000000
 20
204.037648
 11
87.581939
 21
203.037648
  0
LINE
  8
1
 62
7
  6
DOT
 10
87.581939
 20
203.037648
 11
87.581939
 21
200.037648
  0
LINE
  8
1
 62
7
  6
DOT
 10
87.000000
 20
204.019439
 11
87.000000
 21
200.000000
  0
LINE
  8
1
 62
7
  6
DOT
 10
87.581939
 20
203.037648
 11
95.000000
 21
203.037648
  0
LINE
  8
1
 62
7
  6
DOT
 10
65.500000
 20
193.037648
 11
65.500000
 21
200.037648
  0
LINE
  8
1
 62
7
  6
DOT
 10
65.000000
 20
193.537648
 11
65.000000
 21
206.537648
  0
LINE
  8
1
 62
7
  6
DOT
 10
65.000000
 20
204.037648
 11
87.000000
 21
204.037648
  0
LINE
  8
1
 62
7
  6
DASHDOT
 10
62.296014
 20
200.037648
 11
95.657357
 21
200.037648
  0
LINE
  8
1
 62
7
  6
DASHDOT
 10
78.230132
 20
216.037648
 11
97.653972
 21
216.037648
  0
LINE
  8
1
 62
7
  6
DASHDOT
 10
84.000000
 20
220.907121
 11
84.000000
 21
200.209962
  0
LINE
  8
1
 62
7
  6
DOT
 10
91.000000
 20
217.537648
 11
85.500000
 21
217.537648
  0
LINE
  8
1
 62
7
  6
DOT
 10
85.500000
 20
217.537648
 11
85.500000
 21
214.537648
  0
LINE
  8
1
 62
7
  6
DOT
 10
85.500000
 20
214.537648
 11
91.000000
 21
214.537648
  0
DIMENSION
  8
2
 62
134
  6
CONTINUOUS
  2
*D8
 10
104.803891
 20
195.250000
 11
104.803891
 21
214.309465
 70
     0
  1
φ9.5
 13
104.803891
 23
195.250000
 14
104.803891
 24
204.750000
 50
90.000000
  0
TEXT
  8
2
 62
134
  6
CONTINUOUS
 10
102.403891
 20
217.309465
 40
2.000000
 41
0.500000
  1
+0.1
  7
KANJI
 50
90.000000
 51
30.000000
  0
TEXT
  8
2
 62
134
  6
CONTINUOUS
 10
104.803891
 20
217.309465
 40
2.000000
 41
0.500000
  1
-0.2
  7
KANJI
 50
90.000000
 51
30.000000
  0
TEXT
  8
2
 62
134
  6
CONTINUOUS
 10
126.048112
 20
211.898465
 40
4.000000
 41
0.500000
  1
M12P1.75
  7
KANJI
 50
90.000000
 51
0.000000
  0
LINE
  8
3
 62
214
  6
CONTINUOUS
 10
95.000000
 20
216.037648
 11
101.051894
 21
225.085676
  0
LINE
  8
3
 62
214
  6
CONTINUOUS
 10
101.051894
 20
225.085676
 11
80.875605
 21
225.085676
  0
TEXT
  8
3
 62
214
  6
CONTINUOUS
 10
80.875605
 20
225.006790
 40
4.000000
 41
0.714286
  1
φ4計装ｴｱｰ
  7
KANJI
 50
0.000000
 51
30.000000
  0
LINE
  8
3
 62
214
  6
CONTINUOUS
 10
95.000000
 20
216.037648
 11
95.643775
 21
217.931204
  0
LINE
  8
3
 62
214
  6
CONTINUOUS
 10
95.000000
 20
216.037648
 11
96.504303
 21
217.355628
  0
LINE
  8
3
 62
214
  6
CONTINUOUS
 10
95.643775
 20
217.931204
 11
96.504303
 21
217.355628
  0
LINE
  8
3
 62
214
  6
CONTINUOUS
 10
95.268510
 20
216.439090
 11
95.590397
 21
217.385868
  0
LINE
  8
3
 62
214
  6
CONTINUOUS
 10
95.268510
 20
216.439090
 11
96.020661
 21
217.098080
  0
LINE
  8
3
 62
214
  6
CONTINUOUS
 10
95.590397
 20
217.385868
 11
96.020661
 21
217.098080
  0
LINE
  8
3
 62
214
  6
CONTINUOUS
 10
125.816630
 20
203.568768
 11
130.482041
 21
229.766841
  0
LINE
  8
3
 62
214
  6
CONTINUOUS
 10
130.482041
 20
229.766841
 11
148.517531
 21
229.766841
  0
TEXT
  8
3
 62
214
  6
CONTINUOUS
 10
134.517531
 20
229.766841
 40
4.000000
 41
0.500000
  1
ｾﾝｻﾍｯﾄﾞ
  7
KANJI
 50
0.000000
 51
30.000000
  0
LINE
  8
3
 62
214
  6
CONTINUOUS
 10
125.816630
 20
203.568768
 11
125.645710
 21
205.561451
  0
LINE
  8
3
 62
214
  6
CONTINUOUS
 10
125.816630
 20
203.568768
 11
126.664950
 21
205.379942
  0
LINE
  8
3
 62
214
  6
CONTINUOUS
 10
125.645710
 20
205.561451
 11
126.664950
 21
205.379942
  0
LINE
  8
3
 62
214
  6
CONTINUOUS
 10
125.901305
 20
204.044250
 11
125.815845
 21
205.040591
  0
LINE
  8
3
 62
214
  6
CONTINUOUS
 10
125.901305
 20
204.044250
 11
126.325465
 21
204.949837
  0
LINE
  8
3
 62
214
  6
CONTINUOUS
 10
125.815845
 20
205.040591
 11
126.325465
 21
204.949837
  0
LINE
  8
3
 62
214
  6
CONTINUOUS
 10
130.000000
 20
219.047252
 11
185.654940
 21
219.047252
  0
TEXT
  8
3
 62
214
  6
CONTINUOUS
 10
164.544790
 20
219.047252
 40
4.000000
 41
0.583333
  1
ﾌｧｲﾊﾞ長
  7
KANJI
 50
0.000000
 51
30.000000
  0
LINE
  8
3
 62
214
  6
CONTINUOUS
 10
165.000000
 20
197.000000
 11
173.690755
 21
181.862520
  0
LINE
  8
3
 62
214
  6
CONTINUOUS
 10
173.690755
 20
181.862520
 11
187.662893
 21
181.862520
  0
TEXT
  8
3
 62
214
  6
CONTINUOUS
 10
177.662893
 20
181.955602
 40
4.000000
 41
0.500000
  1
ﾌｧｲﾊﾞ
  7
KANJI
 50
0.000000
 51
30.000000
  0
LINE
  8
3
 62
214
  6
CONTINUOUS
 10
165.000000
 20
197.000000
 11
166.410780
 21
195.582361
  0
LINE
  8
3
 62
214
  6
CONTINUOUS
 10
165.000000
 20
197.000000
 11
165.512952
 21
195.066899
  0
LINE
  8
3
 62
214
  6
CONTINUOUS
 10
166.410780
 20
195.582361
 11
165.512952
 21
195.066899
  0
LINE
  8
3
 62
214
  6
CONTINUOUS
 10
165.240467
 20
196.581158
 11
165.945857
 21
195.872338
  0
LINE
  8
3
 62
214
  6
CONTINUOUS
 10
165.240467
 20
196.581158
 11
165.496943
 21
195.614607
  0
LINE
  8
3
 62
214
  6
CONTINUOUS
 10
165.945857
 20
195.872338
 11
165.496943
 21
195.614607
  0
TEXT
  8
3
 62
214
  6
CONTINUOUS
 10
56.970360
 20
174.587447
 40
4.000000
 41
1.000000
  1
測定距離
  7
KANJI
 50
0.000000
 51
30.000000
  0
TEXT
  8
3
 62
214
  6
DOT
 10
90.338440
 20
162.161948
 40
4.000000
 41
1.000000
  1
重量１５ｇ
  7
KANJI
 50
0.000000
 51
0.000000
  0
DIMENSION
  8
3
 62
214
  6
CONTINUOUS
  2
*D9
 10
122.048112
 20
194.000000
 11
122.048112
 21
220.946201
 70
     0
  1
ﾍｯﾄﾞ取付ﾈｼﾞ
 13
125.339644
 23
194.000000
 14
124.745297
 24
206.000000
 50
90.000000
  0
LINE
  8
3
 62
214
  6
CONTINUOUS
 10
108.886734
 20
203.000569
 11
109.397360
 21
232.198722
  0
LINE
  8
3
 62
214
  6
CONTINUOUS
 10
109.397360
 20
232.198722
 11
118.644219
 21
232.198722
  0
TEXT
  8
3
 62
214
  6
CONTINUOUS
 10
110.644219
 20
232.198722
 40
4.000000
 41
0.500000
  1
ﾚﾝｽﾞ
  7
KANJI
 50
0.000000
 51
30.000000
  0
LINE
  8
3
 62
214
  6
CONTINUOUS
 10
108.886734
 20
203.000569
 11
108.402955
 21
204.941177
  0
LINE
  8
3
 62
214
  6
CONTINUOUS
 10
108.886734
 20
203.000569
 11
109.438073
 21
204.923074
  0
LINE
  8
3
 62
214
  6
CONTINUOUS
 10
108.402955
 20
204.941177
 11
109.438073
 21
204.923074
  0
LINE
  8
3
 62
214
  6
CONTINUOUS
 10
108.895179
 20
203.483458
 11
108.653289
 21
204.453762
  0
LINE
  8
3
 62
214
  6
CONTINUOUS
 10
108.895179
 20
203.483458
 11
109.170848
 21
204.444711
  0
LINE
  8
3
 62
214
  6
CONTINUOUS
 10
108.653289
 20
204.453762
 11
109.170848
 21
204.444711
  0
LINE
  8
3
 62
214
  6
CONTINUOUS
 10
76.430763
 20
207.037648
 11
74.447315
 21
217.685967
  0
LINE
  8
3
 62
214
  6
CONTINUOUS
 10
74.447315
 20
217.685967
 11
28.001964
 21
217.685967
  0
TEXT
  8
3
 62
214
  6
CONTINUOUS
 10
28.001964
 20
217.403361
 40
4.000000
 41
0.578947
  1
φ6丸ﾍｯﾄﾞ用ｴｱﾊﾟｰｼﾞﾌｰﾄﾞ
  7
KANJI
 50
0.000000
 51
30.000000
  0
LINE
  8
3
 62
214
  6
CONTINUOUS
 10
76.430763
 20
207.037648
 11
75.568119
 21
208.842044
  0
LINE
  8
3
 62
214
  6
CONTINUOUS
 10
76.430763
 20
207.037648
 11
76.585890
 21
209.031623
  0
LINE
  8
3
 62
214
  6
CONTINUOUS
 10
75.568119
 20
208.842044
 11
76.585890
 21
209.031623
  0
LINE
  8
3
 62
214
  6
CONTINUOUS
 10
76.342323
 20
207.512444
 11
75.911001
 21
208.414642
  0
LINE
  8
3
 62
214
  6
CONTINUOUS
 10
76.342323
 20
207.512444
 11
76.419887
 21
208.509431
  0
LINE
  8
3
 62
214
  6
CONTINUOUS
 10
75.911001
 20
208.414642
 11
76.419887
 21
208.509431
  0
TEXT
  8
3
 62
214
  6
CONTINUOUS
 10
50.001964
 20
213.446888
 40
4.000000
 41
0.500000
  1
ｵﾌﾟｼﾖﾝ
  7
KANJI
 50
0.000000
 51
0.000000
  0
ENDSEC
  0
EOF
