  0
SECTION
  2
HEADER
  9
$ACADVER
  1
AC1003
  9
$INSBASE
 10
0.000000
 20
0.000000
  9
$EXTMIN
 10
0.000000
 20
0.000000
  9
$EXTMAX
 10
297.000000
 20
210.000000
  9
$LIMMIN
 10
0.000000
 20
0.000000
  9
$LIMMAX
 10
297.000000
 20
210.000000
  9
$VIEWCTR
 10
148.500000
 20
105.000000
  9
$VIEWSIZE
 40
210.000000
  9
$PEXTMIN
 10
0.000000
 20
0.000000
 30
0.000000
  9
$PEXTMAX
 10
297.000000
 20
210.000000
 30
0.000000
  9
$SNAPMODE
 70
     0
  9
$SNAPUNIT
 10
1.000000
 20
1.000000
  9
$SNAPBASE
 10
0.000000
 20
0.000000
  9
$SNAPANG
 50
0.000000
  9
$SNAPISOPAIR
 70
     0
  9
$SNAPSTYLE
 70
     0
  9
$GRIDMODE
 70
     0
  9
$GRIDUNIT
 10
0.000000
 20
0.000000
  9
$ORTHOMODE
 70
     0
  9
$REGENMODE
 70
     1
  9
$FILLMODE
 70
     1
  9
$QTEXTMODE
 70
     0
  9
$DRAGMODE
 70
     2
  9
$LTSCALE
 40
0.250000
  9
$OSMODE
 70
     0
  9
$ATTMODE
 70
     1
  9
$TEXTSIZE
 40
0.200000
  9
$TRACEWID
 40
0.050000
  9
$TEXTSTYLE
  7
STANDARD
  9
$CLAYER
  8
0
  9
$CELTYPE
  6
BYLAYER
  9
$CECOLOR
 62
   256
  9
$DIMSCALE
 40
1.000000
  9
$DIMASZ
 40
1.000000
  9
$DIMEXO
 40
0.000000
  9
$DIMDLI
 40
0.500000
  9
$DIMRND
 40
0.000000
  9
$DIMDLE
 40
0.000000
  9
$DIMEXE
 40
0.000000
  9
$DIMTP
 40
0.000000
  9
$DIMTM
 40
0.000000
  9
$DIMTXT
 40
0.180000
  9
$DIMCEN
 40
0.000000
  9
$DIMTSZ
 40
0.000000
  9
$DIMTOL
 70
     0
  9
$DIMLIM
 70
     0
  9
$DIMTIH
 70
     1
  9
$DIMTOH
 70
     1
  9
$DIMSE1
 70
     0
  9
$DIMSE2
 70
     0
  9
$DIMTAD
 70
     0
  9
$DIMZIN
 70
     0
  9
$DIMBLK
  1

  9
$DIMASO
 70
     0
  9
$DIMSHO
 70
     0
  9
$DIMPOST
  1

  9
$DIMAPOST
  1

  9
$DIMALT
 70
     0
  9
$DIMALTD
 70
     0
  9
$DIMALTF
 40
25.400000
  9
$DIMLFAC
 40
1.000000
  9
$DIMTOFL
 70
     0
  9
$DIMTVP
 40
0.000000
  9
$DIMTIX
 70
     0
  9
$DIMSOXD
 70
     0
  9
$DIMSAH
 70
     0
  9
$DIMBLKL
  1

  9
$DIMBLKR
  1

  9
$LUNITS
 70
     2
  9
$LUPREC
 70
     2
  9
$AXISMODE
 70
     0
  9
$AXISUNIT
 10
1.000000
 20
1.000000
  9
$SKETCHINC
 40
0.000000
  9
$FILLETRAD
 40
0.000000
  9
$AUNITS
 70
     1
  9
$AUPREC
 70
     2
  9
$MENU
  1
ACAD
  9
$ELEVATION
 40
0.000000
  9
$THICKNESS
 40
0.000000
  9
$VIEWDIR
 10
0.000000
 20
0.000000
 30
1.000000
  9
$LIMCHECK
 70
     1
  9
$BLIPMODE
 70
     1
  9
$CHAMFERA
 40
0.000000
  9
$CHAMFERB
 40
0.000000
  9
$FASTZOOM
 70
     1
  9
$SKPOLY
 70
     0
  9
$TDCREATE
 40
0.000000
  9
$TDUPDATE
 40
0.000000
  9
$TDINDWG
 40
0.000000
  9
$TDUSRTIMER
 40
0.000000
  9
$USRTIMER
 70
     1
  9
$ANGBASE
 50
0.000000
  9
$ANGDIR
 70
     0
  9
$PDMODE
 70
     0
  9
$PDSIZE
 40
0.000000
  9
$PLINEWID
 40
0.000000
  9
$COORDS
 70
     2
  9
$USERI1
 70
     0
  9
$USERI2
 70
     0
  9
$USERI3
 70
     0
  9
$USERI4
 70
     0
  9
$USERI5
 70
     0
  9
$USERR1
 40
0.000000
  9
$USERR2
 40
0.000000
  9
$USERR3
 40
0.000000
  9
$USERR4
 40
0.000000
  9
$USERR5
 40
0.000000
  0
ENDSEC
  0
SECTION
  2
TABLES
  0
TABLE
  2
LTYPE
 70
     5
  0
LTYPE
  2
CONTINUOUS
 70
    64
  3
Solid line
 72
    65
 73
     0
 40
0.0
  0
LTYPE
  2
HIDDEN
 70
    64
  3
------------------------
 72
    65
 73
     2
 40
12.6
 49
8.4
 49
-4.2
  0
LTYPE
  2
DOT
 70
    64
  3
････････････････････････
 72
    65
 73
     2
 40
8.0
 49
6.0
 49
-2.0
  0
LTYPE
  2
DASHDOT
 70
    64
  3
--･--･--･--･--･--･--･--
 72
    65
 73
     4
 40
50.5
 49
30.0
 49
-9.0
 49
2.5
 49
-9.0
  0
LTYPE
  2
DIVIDE
 70
    64
  3
--･･--･･--･･--･･--･･--
 72
    65
 73
     6
 40
58.0
 49
30.0
 49
-9.0
 49
2.5
 49
-5.0
 49
2.5
 49
-9.0
  0
LTYPE
  2
ACAD_ISO06W100
 70
    64
  3
____ ... ____ ... ____
 72
    65
 73
     8
 40
37.5
 49
24.0
 49
-3.0
 49
0.5
 49
-3.0
 49
0.5
 49
-3.0
 49
0.5
 49
-3.0
  0
LTYPE
  2
ACAD_ISO14W100
 70
    64
  3
__ . . . __ . . . __ . . . 
 72
    65
 73
     8
 40
25.5
 49
12.0
 49
-3.0
 49
0.5
 49
-3.0
 49
0.5
 49
-3.0
 49
0.5
 49
-3.0
  0
ENDTAB
  0
TABLE
  2
LAYER
 70
4
  0
LAYER
  2
1
 70
64
 62
7
  6
CONTINUOUS
  0
LAYER
  2
2
 70
64
 62
134
  6
CONTINUOUS
  0
LAYER
  2
3
 70
64
 62
214
  6
CONTINUOUS
  0
LAYER
  2
5
 70
64
 62
94
  6
CONTINUOUS
  0
ENDTAB
  0
TABLE
  2
STYLE
 70
     2
  0
STYLE
  2
STANDARD
 70
    64
 40
0.0
 41
1.0
 50
0.0
 71
     0
 42
0.2
  3
TXT
  4

  0
STYLE
  2
KANJI
 70
    64
 40
0.0
 41
1.0
 50
0.0
 71
     0
 42
0.2
  3
TXT
  4
BIGFONT
  0
ENDTAB
  0
TABLE
  2
VIEW
 70
     0
  0
ENDTAB
  0
ENDSEC
  0
SECTION
  2
BLOCKS
  0
BLOCK
  8
2
 62
134
  6
CONTINUOUS
  2
*D1
 70
    65
 10
0.0
 20
0.0
  0
LINE
  8
2
 62
134
  6
CONTINUOUS
 10
249.053352
 20
170.106766
 11
275.553352
 21
170.106766
  0
LINE
  8
2
 62
134
  6
CONTINUOUS
 10
249.053352
 20
174.106766
 11
249.053352
 21
158.606240
  0
LINE
  8
2
 62
134
  6
CONTINUOUS
 10
275.553352
 20
174.106766
 11
275.553352
 21
158.606240
  0
LINE
  8
2
 62
134
  6
CONTINUOUS
 10
249.053352
 20
170.106766
 11
250.985204
 21
170.624404
  0
LINE
  8
2
 62
134
  6
CONTINUOUS
 10
249.053352
 20
170.106766
 11
250.985204
 21
169.589128
  0
LINE
  8
2
 62
134
  6
CONTINUOUS
 10
250.985204
 20
170.624404
 11
250.985204
 21
169.589128
  0
LINE
  8
2
 62
134
  6
CONTINUOUS
 10
249.536315
 20
170.106766
 11
250.502241
 21
170.365585
  0
LINE
  8
2
 62
134
  6
CONTINUOUS
 10
249.536315
 20
170.106766
 11
250.502241
 21
169.847947
  0
LINE
  8
2
 62
134
  6
CONTINUOUS
 10
250.502241
 20
170.365585
 11
250.502241
 21
169.847947
  0
LINE
  8
2
 62
134
  6
CONTINUOUS
 10
275.553352
 20
170.106766
 11
273.621500
 21
169.589128
  0
LINE
  8
2
 62
134
  6
CONTINUOUS
 10
275.553352
 20
170.106766
 11
273.621500
 21
170.624404
  0
LINE
  8
2
 62
134
  6
CONTINUOUS
 10
273.621500
 20
169.589128
 11
273.621500
 21
170.624404
  0
LINE
  8
2
 62
134
  6
CONTINUOUS
 10
275.070389
 20
170.106766
 11
274.104463
 21
169.847947
  0
LINE
  8
2
 62
134
  6
CONTINUOUS
 10
275.070389
 20
170.106766
 11
274.104463
 21
170.365585
  0
LINE
  8
2
 62
134
  6
CONTINUOUS
 10
274.104463
 20
169.847947
 11
274.104463
 21
170.365585
  0
TEXT
  8
2
 62
134
  6
CONTINUOUS
 10
258.085385
 20
170.106766
 40
4.000000
 41
0.500000
  1
26.5
  7
KANJI
 50
0.000000
 51
30.000000
  0
ENDBLK
  0
BLOCK
  8
2
 62
134
  6
CONTINUOUS
  2
*D2
 70
    65
 10
0.0
 20
0.0
  0
LINE
  8
2
 62
134
  6
CONTINUOUS
 10
61.289910
 20
58.736665
 11
81.289910
 21
58.736665
  0
LINE
  8
2
 62
134
  6
CONTINUOUS
 10
61.289910
 20
56.736665
 11
61.289910
 21
74.974201
  0
LINE
  8
2
 62
134
  6
CONTINUOUS
 10
81.289910
 20
56.736665
 11
81.289910
 21
74.974201
  0
LINE
  8
2
 62
134
  6
CONTINUOUS
 10
61.289910
 20
58.736665
 11
63.221762
 21
59.254303
  0
LINE
  8
2
 62
134
  6
CONTINUOUS
 10
61.289910
 20
58.736665
 11
63.221762
 21
58.219027
  0
LINE
  8
2
 62
134
  6
CONTINUOUS
 10
63.221762
 20
59.254303
 11
63.221762
 21
58.219027
  0
LINE
  8
2
 62
134
  6
CONTINUOUS
 10
61.772873
 20
58.736665
 11
62.738799
 21
58.995484
  0
LINE
  8
2
 62
134
  6
CONTINUOUS
 10
61.772873
 20
58.736665
 11
62.738799
 21
58.477846
  0
LINE
  8
2
 62
134
  6
CONTINUOUS
 10
62.738799
 20
58.995484
 11
62.738799
 21
58.477846
  0
LINE
  8
2
 62
134
  6
CONTINUOUS
 10
81.289910
 20
58.736665
 11
79.358059
 21
58.219027
  0
LINE
  8
2
 62
134
  6
CONTINUOUS
 10
81.289910
 20
58.736665
 11
79.358059
 21
59.254303
  0
LINE
  8
2
 62
134
  6
CONTINUOUS
 10
79.358059
 20
58.219027
 11
79.358059
 21
59.254303
  0
LINE
  8
2
 62
134
  6
CONTINUOUS
 10
80.806947
 20
58.736665
 11
79.841021
 21
58.477846
  0
LINE
  8
2
 62
134
  6
CONTINUOUS
 10
80.806947
 20
58.736665
 11
79.841021
 21
58.995484
  0
LINE
  8
2
 62
134
  6
CONTINUOUS
 10
79.841021
 20
58.477846
 11
79.841021
 21
58.995484
  0
TEXT
  8
2
 62
134
  6
CONTINUOUS
 10
69.606558
 20
58.736665
 40
4.000000
 41
0.500000
  1
20
  7
KANJI
 50
0.000000
 51
30.000000
  0
ENDBLK
  0
BLOCK
  8
2
 62
134
  6
CONTINUOUS
  2
*D3
 70
    65
 10
0.0
 20
0.0
  0
LINE
  8
2
 62
134
  6
CONTINUOUS
 10
46.589910
 20
58.736665
 11
69.289910
 21
58.736665
  0
LINE
  8
2
 62
134
  6
CONTINUOUS
 10
54.589910
 20
56.736665
 11
54.589910
 21
62.954201
  0
LINE
  8
2
 62
134
  6
CONTINUOUS
 10
61.289910
 20
56.736665
 11
61.289910
 21
76.204201
  0
LINE
  8
2
 62
134
  6
CONTINUOUS
 10
54.589910
 20
58.736665
 11
52.658059
 21
58.219027
  0
LINE
  8
2
 62
134
  6
CONTINUOUS
 10
54.589910
 20
58.736665
 11
52.658059
 21
59.254303
  0
LINE
  8
2
 62
134
  6
CONTINUOUS
 10
52.658059
 20
58.219027
 11
52.658059
 21
59.254303
  0
LINE
  8
2
 62
134
  6
CONTINUOUS
 10
54.106947
 20
58.736665
 11
53.141021
 21
58.477846
  0
LINE
  8
2
 62
134
  6
CONTINUOUS
 10
54.106947
 20
58.736665
 11
53.141021
 21
58.995484
  0
LINE
  8
2
 62
134
  6
CONTINUOUS
 10
53.141021
 20
58.477846
 11
53.141021
 21
58.995484
  0
LINE
  8
2
 62
134
  6
CONTINUOUS
 10
61.289910
 20
58.736665
 11
63.221762
 21
59.254303
  0
LINE
  8
2
 62
134
  6
CONTINUOUS
 10
61.289910
 20
58.736665
 11
63.221762
 21
58.219027
  0
LINE
  8
2
 62
134
  6
CONTINUOUS
 10
63.221762
 20
59.254303
 11
63.221762
 21
58.219027
  0
LINE
  8
2
 62
134
  6
CONTINUOUS
 10
61.772873
 20
58.736665
 11
62.738799
 21
58.995484
  0
LINE
  8
2
 62
134
  6
CONTINUOUS
 10
61.772873
 20
58.736665
 11
62.738799
 21
58.477846
  0
LINE
  8
2
 62
134
  6
CONTINUOUS
 10
62.738799
 20
58.995484
 11
62.738799
 21
58.477846
  0
TEXT
  8
2
 62
134
  6
CONTINUOUS
 10
55.318753
 20
58.736665
 40
4.000000
 41
0.500000
  1
6.7
  7
KANJI
 50
0.000000
 51
30.000000
  0
ENDBLK
  0
BLOCK
  8
2
 62
134
  6
CONTINUOUS
  2
*D4
 70
    65
 10
0.0
 20
0.0
  0
LINE
  8
2
 62
134
  6
CONTINUOUS
 10
54.589910
 20
105.715578
 11
66.789910
 21
105.715578
  0
LINE
  8
2
 62
134
  6
CONTINUOUS
 10
54.589910
 20
103.715578
 11
54.589910
 21
111.406240
  0
LINE
  8
2
 62
134
  6
CONTINUOUS
 10
66.789910
 20
103.715578
 11
66.789910
 21
111.406240
  0
LINE
  8
2
 62
134
  6
CONTINUOUS
 10
54.589910
 20
105.715578
 11
56.521762
 21
106.233216
  0
LINE
  8
2
 62
134
  6
CONTINUOUS
 10
54.589910
 20
105.715578
 11
56.521762
 21
105.197940
  0
LINE
  8
2
 62
134
  6
CONTINUOUS
 10
56.521762
 20
106.233216
 11
56.521762
 21
105.197940
  0
LINE
  8
2
 62
134
  6
CONTINUOUS
 10
55.072873
 20
105.715578
 11
56.038799
 21
105.974397
  0
LINE
  8
2
 62
134
  6
CONTINUOUS
 10
55.072873
 20
105.715578
 11
56.038799
 21
105.456759
  0
LINE
  8
2
 62
134
  6
CONTINUOUS
 10
56.038799
 20
105.974397
 11
56.038799
 21
105.456759
  0
LINE
  8
2
 62
134
  6
CONTINUOUS
 10
66.789910
 20
105.715578
 11
64.858059
 21
105.197940
  0
LINE
  8
2
 62
134
  6
CONTINUOUS
 10
66.789910
 20
105.715578
 11
64.858059
 21
106.233216
  0
LINE
  8
2
 62
134
  6
CONTINUOUS
 10
64.858059
 20
105.197940
 11
64.858059
 21
106.233216
  0
LINE
  8
2
 62
134
  6
CONTINUOUS
 10
66.306947
 20
105.715578
 11
65.341021
 21
105.456759
  0
LINE
  8
2
 62
134
  6
CONTINUOUS
 10
66.306947
 20
105.715578
 11
65.341021
 21
105.974397
  0
LINE
  8
2
 62
134
  6
CONTINUOUS
 10
65.341021
 20
105.456759
 11
65.341021
 21
105.974397
  0
TEXT
  8
2
 62
134
  6
CONTINUOUS
 10
56.689910
 20
105.715578
 40
4.000000
 41
0.500000
  1
12.2
  7
KANJI
 50
0.000000
 51
30.000000
  0
ENDBLK
  0
BLOCK
  8
2
 62
134
  6
CONTINUOUS
  2
*D5
 70
    65
 10
0.0
 20
0.0
  0
LINE
  8
2
 62
134
  6
CONTINUOUS
 10
66.789910
 20
105.715578
 11
86.789910
 21
105.715578
  0
LINE
  8
2
 62
134
  6
CONTINUOUS
 10
86.789910
 20
103.715578
 11
86.789910
 21
111.406240
  0
LINE
  8
2
 62
134
  6
CONTINUOUS
 10
66.789910
 20
105.715578
 11
68.721762
 21
106.233216
  0
LINE
  8
2
 62
134
  6
CONTINUOUS
 10
66.789910
 20
105.715578
 11
68.721762
 21
105.197940
  0
LINE
  8
2
 62
134
  6
CONTINUOUS
 10
68.721762
 20
106.233216
 11
68.721762
 21
105.197940
  0
LINE
  8
2
 62
134
  6
CONTINUOUS
 10
67.272873
 20
105.715578
 11
68.238799
 21
105.974397
  0
LINE
  8
2
 62
134
  6
CONTINUOUS
 10
67.272873
 20
105.715578
 11
68.238799
 21
105.456759
  0
LINE
  8
2
 62
134
  6
CONTINUOUS
 10
68.238799
 20
105.974397
 11
68.238799
 21
105.456759
  0
LINE
  8
2
 62
134
  6
CONTINUOUS
 10
86.789910
 20
105.715578
 11
84.858059
 21
105.197940
  0
LINE
  8
2
 62
134
  6
CONTINUOUS
 10
86.789910
 20
105.715578
 11
84.858059
 21
106.233216
  0
LINE
  8
2
 62
134
  6
CONTINUOUS
 10
84.858059
 20
105.197940
 11
84.858059
 21
106.233216
  0
LINE
  8
2
 62
134
  6
CONTINUOUS
 10
86.306947
 20
105.715578
 11
85.341021
 21
105.456759
  0
LINE
  8
2
 62
134
  6
CONTINUOUS
 10
86.306947
 20
105.715578
 11
85.341021
 21
105.974397
  0
LINE
  8
2
 62
134
  6
CONTINUOUS
 10
85.341021
 20
105.456759
 11
85.341021
 21
105.974397
  0
TEXT
  8
2
 62
134
  6
CONTINUOUS
 10
74.789910
 20
105.715578
 40
4.000000
 41
0.500000
  1
20
  7
KANJI
 50
0.000000
 51
30.000000
  0
ENDBLK
  0
BLOCK
  8
2
 62
134
  6
CONTINUOUS
  2
*D6
 70
    65
 10
0.0
 20
0.0
  0
LINE
  8
2
 62
134
  6
CONTINUOUS
 10
102.722058
 20
105.406240
 11
102.722058
 21
125.406240
  0
LINE
  8
2
 62
134
  6
CONTINUOUS
 10
106.722058
 20
113.406240
 11
99.589910
 21
113.406240
  0
LINE
  8
2
 62
134
  6
CONTINUOUS
 10
106.722058
 20
117.406240
 11
94.205415
 21
117.406240
  0
LINE
  8
2
 62
134
  6
CONTINUOUS
 10
102.722058
 20
113.406240
 11
103.239696
 21
111.474389
  0
LINE
  8
2
 62
134
  6
CONTINUOUS
 10
102.722058
 20
113.406240
 11
102.204419
 21
111.474389
  0
LINE
  8
2
 62
134
  6
CONTINUOUS
 10
103.239696
 20
111.474389
 11
102.204419
 21
111.474389
  0
LINE
  8
2
 62
134
  6
CONTINUOUS
 10
102.722058
 20
112.923277
 11
102.980877
 21
111.957352
  0
LINE
  8
2
 62
134
  6
CONTINUOUS
 10
102.722058
 20
112.923277
 11
102.463238
 21
111.957352
  0
LINE
  8
2
 62
134
  6
CONTINUOUS
 10
102.980877
 20
111.957352
 11
102.463238
 21
111.957352
  0
LINE
  8
2
 62
134
  6
CONTINUOUS
 10
102.722058
 20
117.406240
 11
102.204419
 21
119.338092
  0
LINE
  8
2
 62
134
  6
CONTINUOUS
 10
102.722058
 20
117.406240
 11
103.239696
 21
119.338092
  0
LINE
  8
2
 62
134
  6
CONTINUOUS
 10
102.204419
 20
119.338092
 11
103.239696
 21
119.338092
  0
LINE
  8
2
 62
134
  6
CONTINUOUS
 10
102.722058
 20
117.889203
 11
102.463238
 21
118.855129
  0
LINE
  8
2
 62
134
  6
CONTINUOUS
 10
102.722058
 20
117.889203
 11
102.980877
 21
118.855129
  0
LINE
  8
2
 62
134
  6
CONTINUOUS
 10
102.463238
 20
118.855129
 11
102.980877
 21
118.855129
  0
TEXT
  8
2
 62
134
  6
CONTINUOUS
 10
102.722058
 20
113.406240
 40
4.000000
 41
0.500000
  1
4
  7
KANJI
 50
90.000000
 51
30.000000
  0
ENDBLK
  0
BLOCK
  8
2
 62
134
  6
CONTINUOUS
  2
*D7
 70
    65
 10
0.0
 20
0.0
  0
LINE
  8
2
 62
134
  6
CONTINUOUS
 10
95.589910
 20
88.954970
 11
127.697750
 21
88.954970
  0
LINE
  8
2
 62
134
  6
CONTINUOUS
 10
95.589910
 20
90.954970
 11
95.589910
 21
87.133680
  0
LINE
  8
2
 62
134
  6
CONTINUOUS
 10
127.697750
 20
90.954970
 11
127.697750
 21
82.104201
  0
LINE
  8
2
 62
134
  6
CONTINUOUS
 10
95.589910
 20
88.954970
 11
97.521762
 21
89.472608
  0
LINE
  8
2
 62
134
  6
CONTINUOUS
 10
95.589910
 20
88.954970
 11
97.521762
 21
88.437332
  0
LINE
  8
2
 62
134
  6
CONTINUOUS
 10
97.521762
 20
89.472608
 11
97.521762
 21
88.437332
  0
LINE
  8
2
 62
134
  6
CONTINUOUS
 10
96.072873
 20
88.954970
 11
97.038799
 21
89.213789
  0
LINE
  8
2
 62
134
  6
CONTINUOUS
 10
96.072873
 20
88.954970
 11
97.038799
 21
88.696151
  0
LINE
  8
2
 62
134
  6
CONTINUOUS
 10
97.038799
 20
89.213789
 11
97.038799
 21
88.696151
  0
LINE
  8
2
 62
134
  6
CONTINUOUS
 10
127.697750
 20
88.954970
 11
125.765898
 21
88.437332
  0
LINE
  8
2
 62
134
  6
CONTINUOUS
 10
127.697750
 20
88.954970
 11
125.765898
 21
89.472608
  0
LINE
  8
2
 62
134
  6
CONTINUOUS
 10
125.765898
 20
88.437332
 11
125.765898
 21
89.472608
  0
LINE
  8
2
 62
134
  6
CONTINUOUS
 10
127.214787
 20
88.954970
 11
126.248861
 21
88.696151
  0
LINE
  8
2
 62
134
  6
CONTINUOUS
 10
127.214787
 20
88.954970
 11
126.248861
 21
89.213789
  0
LINE
  8
2
 62
134
  6
CONTINUOUS
 10
126.248861
 20
88.696151
 11
126.248861
 21
89.213789
  0
TEXT
  8
2
 62
134
  6
CONTINUOUS
 10
109.070826
 20
88.954970
 40
4.000000
 41
0.500000
  1
33
  7
KANJI
 50
0.000000
 51
30.000000
  0
ENDBLK
  0
BLOCK
  8
2
 62
134
  6
CONTINUOUS
  2
*D8
 70
    65
 10
0.0
 20
0.0
  0
LINE
  8
2
 62
134
  6
CONTINUOUS
 10
46.030948
 20
113.406240
 11
46.030948
 21
128.406240
  0
LINE
  8
2
 62
134
  6
CONTINUOUS
 10
42.030948
 20
113.406240
 11
50.589910
 21
113.406240
  0
LINE
  8
2
 62
134
  6
CONTINUOUS
 10
42.030948
 20
128.406240
 11
50.589910
 21
128.406240
  0
LINE
  8
2
 62
134
  6
CONTINUOUS
 10
46.030948
 20
113.406240
 11
45.513310
 21
115.338092
  0
LINE
  8
2
 62
134
  6
CONTINUOUS
 10
46.030948
 20
113.406240
 11
46.548586
 21
115.338092
  0
LINE
  8
2
 62
134
  6
CONTINUOUS
 10
45.513310
 20
115.338092
 11
46.548586
 21
115.338092
  0
LINE
  8
2
 62
134
  6
CONTINUOUS
 10
46.030948
 20
113.889203
 11
45.772129
 21
114.855129
  0
LINE
  8
2
 62
134
  6
CONTINUOUS
 10
46.030948
 20
113.889203
 11
46.289767
 21
114.855129
  0
LINE
  8
2
 62
134
  6
CONTINUOUS
 10
45.772129
 20
114.855129
 11
46.289767
 21
114.855129
  0
LINE
  8
2
 62
134
  6
CONTINUOUS
 10
46.030948
 20
128.406240
 11
46.548586
 21
126.474389
  0
LINE
  8
2
 62
134
  6
CONTINUOUS
 10
46.030948
 20
128.406240
 11
45.513310
 21
126.474389
  0
LINE
  8
2
 62
134
  6
CONTINUOUS
 10
46.548586
 20
126.474389
 11
45.513310
 21
126.474389
  0
LINE
  8
2
 62
134
  6
CONTINUOUS
 10
46.030948
 20
127.923277
 11
46.289767
 21
126.957352
  0
LINE
  8
2
 62
134
  6
CONTINUOUS
 10
46.030948
 20
127.923277
 11
45.772129
 21
126.957352
  0
LINE
  8
2
 62
134
  6
CONTINUOUS
 10
46.289767
 20
126.957352
 11
45.772129
 21
126.957352
  0
TEXT
  8
2
 62
134
  6
CONTINUOUS
 10
46.030948
 20
116.938793
 40
4.000000
 41
0.500000
  1
15
  7
KANJI
 50
90.000000
 51
30.000000
  0
ENDBLK
  0
BLOCK
  8
2
 62
134
  6
CONTINUOUS
  2
*D9
 70
    65
 10
0.0
 20
0.0
  0
LINE
  8
2
 62
134
  6
CONTINUOUS
 10
46.030948
 20
56.954201
 11
46.030948
 21
101.515998
  0
LINE
  8
2
 62
134
  6
CONTINUOUS
 10
44.030948
 20
64.954201
 11
52.589910
 21
64.954201
  0
LINE
  8
2
 62
134
  6
CONTINUOUS
 10
44.030948
 20
91.454201
 11
52.589910
 21
91.454201
  0
LINE
  8
2
 62
134
  6
CONTINUOUS
 10
46.030948
 20
64.954201
 11
46.548586
 21
63.022349
  0
LINE
  8
2
 62
134
  6
CONTINUOUS
 10
46.030948
 20
64.954201
 11
45.513310
 21
63.022349
  0
LINE
  8
2
 62
134
  6
CONTINUOUS
 10
46.548586
 20
63.022349
 11
45.513310
 21
63.022349
  0
LINE
  8
2
 62
134
  6
CONTINUOUS
 10
46.030948
 20
64.471238
 11
46.289767
 21
63.505312
  0
LINE
  8
2
 62
134
  6
CONTINUOUS
 10
46.030948
 20
64.471238
 11
45.772129
 21
63.505312
  0
LINE
  8
2
 62
134
  6
CONTINUOUS
 10
46.289767
 20
63.505312
 11
45.772129
 21
63.505312
  0
LINE
  8
2
 62
134
  6
CONTINUOUS
 10
46.030948
 20
91.454201
 11
45.513310
 21
93.386053
  0
LINE
  8
2
 62
134
  6
CONTINUOUS
 10
46.030948
 20
91.454201
 11
46.548586
 21
93.386053
  0
LINE
  8
2
 62
134
  6
CONTINUOUS
 10
45.513310
 20
93.386053
 11
46.548586
 21
93.386053
  0
LINE
  8
2
 62
134
  6
CONTINUOUS
 10
46.030948
 20
91.937164
 11
45.772129
 21
92.903090
  0
LINE
  8
2
 62
134
  6
CONTINUOUS
 10
46.030948
 20
91.937164
 11
46.289767
 21
92.903090
  0
LINE
  8
2
 62
134
  6
CONTINUOUS
 10
45.772129
 20
92.903090
 11
46.289767
 21
92.903090
  0
TEXT
  8
2
 62
134
  6
CONTINUOUS
 10
46.030948
 20
92.515998
 40
4.000000
 41
0.500000
  1
26.5
  7
KANJI
 50
90.000000
 51
30.000000
  0
ENDBLK
  0
BLOCK
  8
2
 62
134
  6
CONTINUOUS
  2
*D10
 70
    65
 10
0.0
 20
0.0
  0
LINE
  8
2
 62
134
  6
CONTINUOUS
 10
20.589910
 20
67.204201
 11
20.589910
 21
90.622765
  0
LINE
  8
2
 62
134
  6
CONTINUOUS
 10
18.589910
 20
75.204201
 11
20.589910
 21
75.204201
  0
LINE
  8
2
 62
134
  6
CONTINUOUS
 10
20.589910
 20
75.204201
 11
21.107548
 21
73.272349
  0
LINE
  8
2
 62
134
  6
CONTINUOUS
 10
20.589910
 20
75.204201
 11
20.072272
 21
73.272349
  0
LINE
  8
2
 62
134
  6
CONTINUOUS
 10
21.107548
 20
73.272349
 11
20.072272
 21
73.272349
  0
LINE
  8
2
 62
134
  6
CONTINUOUS
 10
20.589910
 20
74.721238
 11
20.848729
 21
73.755312
  0
LINE
  8
2
 62
134
  6
CONTINUOUS
 10
20.589910
 20
74.721238
 11
20.331091
 21
73.755312
  0
LINE
  8
2
 62
134
  6
CONTINUOUS
 10
20.848729
 20
73.755312
 11
20.331091
 21
73.755312
  0
LINE
  8
2
 62
134
  6
CONTINUOUS
 10
20.589910
 20
81.204201
 11
20.072272
 21
83.136053
  0
LINE
  8
2
 62
134
  6
CONTINUOUS
 10
20.589910
 20
81.204201
 11
21.107548
 21
83.136053
  0
LINE
  8
2
 62
134
  6
CONTINUOUS
 10
20.072272
 20
83.136053
 11
21.107548
 21
83.136053
  0
LINE
  8
2
 62
134
  6
CONTINUOUS
 10
20.589910
 20
81.687164
 11
20.331091
 21
82.653090
  0
LINE
  8
2
 62
134
  6
CONTINUOUS
 10
20.589910
 20
81.687164
 11
20.848729
 21
82.653090
  0
LINE
  8
2
 62
134
  6
CONTINUOUS
 10
20.331091
 20
82.653090
 11
20.848729
 21
82.653090
  0
TEXT
  8
2
 62
134
  6
CONTINUOUS
 10
20.589910
 20
83.622765
 40
4.000000
 41
0.750000
  1
φ6
  7
KANJI
 50
90.000000
 51
30.000000
  0
ENDBLK
  0
BLOCK
  8
2
 62
134
  6
CONTINUOUS
  2
*D11
 70
    65
 10
0.0
 20
0.0
  0
LINE
  8
2
 62
134
  6
CONTINUOUS
 10
36.322139
 20
65.204201
 11
36.322139
 21
95.000000
  0
LINE
  8
2
 62
134
  6
CONTINUOUS
 10
34.322139
 20
83.204201
 11
36.322139
 21
83.204201
  0
LINE
  8
2
 62
134
  6
CONTINUOUS
 10
36.322139
 20
73.204201
 11
36.839777
 21
71.272349
  0
LINE
  8
2
 62
134
  6
CONTINUOUS
 10
36.322139
 20
73.204201
 11
35.804500
 21
71.272349
  0
LINE
  8
2
 62
134
  6
CONTINUOUS
 10
36.839777
 20
71.272349
 11
35.804500
 21
71.272349
  0
LINE
  8
2
 62
134
  6
CONTINUOUS
 10
36.322139
 20
72.721238
 11
36.580958
 21
71.755312
  0
LINE
  8
2
 62
134
  6
CONTINUOUS
 10
36.322139
 20
72.721238
 11
36.063319
 21
71.755312
  0
LINE
  8
2
 62
134
  6
CONTINUOUS
 10
36.580958
 20
71.755312
 11
36.063319
 21
71.755312
  0
LINE
  8
2
 62
134
  6
CONTINUOUS
 10
36.322139
 20
83.204201
 11
35.804500
 21
85.136053
  0
LINE
  8
2
 62
134
  6
CONTINUOUS
 10
36.322139
 20
83.204201
 11
36.839777
 21
85.136053
  0
LINE
  8
2
 62
134
  6
CONTINUOUS
 10
35.804500
 20
85.136053
 11
36.839777
 21
85.136053
  0
LINE
  8
2
 62
134
  6
CONTINUOUS
 10
36.322139
 20
83.687164
 11
36.063319
 21
84.653090
  0
LINE
  8
2
 62
134
  6
CONTINUOUS
 10
36.322139
 20
83.687164
 11
36.580958
 21
84.653090
  0
LINE
  8
2
 62
134
  6
CONTINUOUS
 10
36.063319
 20
84.653090
 11
36.580958
 21
84.653090
  0
TEXT
  8
2
 62
134
  6
CONTINUOUS
 10
36.322139
 20
86.000000
 40
4.000000
 41
0.666667
  1
φ10
  7
KANJI
 50
90.000000
 51
30.000000
  0
ENDBLK
  0
BLOCK
  8
2
 62
134
  6
CONTINUOUS
  2
*D12
 70
    65
 10
0.0
 20
0.0
  0
LINE
  8
2
 62
134
  6
CONTINUOUS
 10
38.676023
 20
113.406240
 11
38.676023
 21
154.606240
  0
LINE
  8
2
 62
134
  6
CONTINUOUS
 10
34.676023
 20
113.406240
 11
50.589910
 21
113.406240
  0
LINE
  8
2
 62
134
  6
CONTINUOUS
 10
34.676023
 20
154.606240
 11
50.589910
 21
154.606240
  0
LINE
  8
2
 62
134
  6
CONTINUOUS
 10
38.676023
 20
113.406240
 11
38.158385
 21
115.338092
  0
LINE
  8
2
 62
134
  6
CONTINUOUS
 10
38.676023
 20
113.406240
 11
39.193661
 21
115.338092
  0
LINE
  8
2
 62
134
  6
CONTINUOUS
 10
38.158385
 20
115.338092
 11
39.193661
 21
115.338092
  0
LINE
  8
2
 62
134
  6
CONTINUOUS
 10
38.676023
 20
113.889203
 11
38.417204
 21
114.855129
  0
LINE
  8
2
 62
134
  6
CONTINUOUS
 10
38.676023
 20
113.889203
 11
38.934842
 21
114.855129
  0
LINE
  8
2
 62
134
  6
CONTINUOUS
 10
38.417204
 20
114.855129
 11
38.934842
 21
114.855129
  0
LINE
  8
2
 62
134
  6
CONTINUOUS
 10
38.676023
 20
154.606240
 11
39.193661
 21
152.674389
  0
LINE
  8
2
 62
134
  6
CONTINUOUS
 10
38.676023
 20
154.606240
 11
38.158385
 21
152.674389
  0
LINE
  8
2
 62
134
  6
CONTINUOUS
 10
39.193661
 20
152.674389
 11
38.158385
 21
152.674389
  0
LINE
  8
2
 62
134
  6
CONTINUOUS
 10
38.676023
 20
154.123277
 11
38.934842
 21
153.157352
  0
LINE
  8
2
 62
134
  6
CONTINUOUS
 10
38.676023
 20
154.123277
 11
38.417204
 21
153.157352
  0
LINE
  8
2
 62
134
  6
CONTINUOUS
 10
38.934842
 20
153.157352
 11
38.417204
 21
153.157352
  0
TEXT
  8
2
 62
134
  6
CONTINUOUS
 10
38.676023
 20
142.880458
 40
4.000000
 41
0.500000
  1
41.2
  7
KANJI
 50
90.000000
 51
30.000000
  0
ENDBLK
  0
BLOCK
  8
2
 62
134
  6
CONTINUOUS
  2
*D13
 70
    65
 10
0.0
 20
0.0
  0
LINE
  8
2
 62
134
  6
CONTINUOUS
 10
30.589910
 20
139.116066
 11
54.589910
 21
139.116066
  0
LINE
  8
2
 62
134
  6
CONTINUOUS
 10
30.589910
 20
141.116066
 11
30.589910
 21
135.406240
  0
LINE
  8
2
 62
134
  6
CONTINUOUS
 10
54.589910
 20
141.116066
 11
54.589910
 21
135.406240
  0
LINE
  8
2
 62
134
  6
CONTINUOUS
 10
30.589910
 20
139.116066
 11
32.521762
 21
139.633704
  0
LINE
  8
2
 62
134
  6
CONTINUOUS
 10
30.589910
 20
139.116066
 11
32.521762
 21
138.598428
  0
LINE
  8
2
 62
134
  6
CONTINUOUS
 10
32.521762
 20
139.633704
 11
32.521762
 21
138.598428
  0
LINE
  8
2
 62
134
  6
CONTINUOUS
 10
31.072873
 20
139.116066
 11
32.038799
 21
139.374885
  0
LINE
  8
2
 62
134
  6
CONTINUOUS
 10
31.072873
 20
139.116066
 11
32.038799
 21
138.857247
  0
LINE
  8
2
 62
134
  6
CONTINUOUS
 10
32.038799
 20
139.374885
 11
32.038799
 21
138.857247
  0
LINE
  8
2
 62
134
  6
CONTINUOUS
 10
54.589910
 20
139.116066
 11
52.658059
 21
138.598428
  0
LINE
  8
2
 62
134
  6
CONTINUOUS
 10
54.589910
 20
139.116066
 11
52.658059
 21
139.633704
  0
LINE
  8
2
 62
134
  6
CONTINUOUS
 10
52.658059
 20
138.598428
 11
52.658059
 21
139.633704
  0
LINE
  8
2
 62
134
  6
CONTINUOUS
 10
54.106947
 20
139.116066
 11
53.141021
 21
138.857247
  0
LINE
  8
2
 62
134
  6
CONTINUOUS
 10
54.106947
 20
139.116066
 11
53.141021
 21
139.374885
  0
LINE
  8
2
 62
134
  6
CONTINUOUS
 10
53.141021
 20
138.857247
 11
53.141021
 21
139.374885
  0
TEXT
  8
2
 62
134
  6
CONTINUOUS
 10
39.194744
 20
139.116066
 40
4.000000
 41
0.500000
  1
24
  7
KANJI
 50
0.000000
 51
30.000000
  0
ENDBLK
  0
BLOCK
  8
2
 62
134
  6
CONTINUOUS
  2
*D14
 70
    65
 10
0.0
 20
0.0
  0
LINE
  8
2
 62
134
  6
CONTINUOUS
 10
54.589910
 20
161.509385
 11
95.589910
 21
161.509385
  0
LINE
  8
2
 62
134
  6
CONTINUOUS
 10
54.589910
 20
163.509385
 11
54.589910
 21
156.606240
  0
LINE
  8
2
 62
134
  6
CONTINUOUS
 10
95.589910
 20
163.509385
 11
95.589910
 21
156.606240
  0
LINE
  8
2
 62
134
  6
CONTINUOUS
 10
54.589910
 20
161.509385
 11
56.521762
 21
162.027023
  0
LINE
  8
2
 62
134
  6
CONTINUOUS
 10
54.589910
 20
161.509385
 11
56.521762
 21
160.991747
  0
LINE
  8
2
 62
134
  6
CONTINUOUS
 10
56.521762
 20
162.027023
 11
56.521762
 21
160.991747
  0
LINE
  8
2
 62
134
  6
CONTINUOUS
 10
55.072873
 20
161.509385
 11
56.038799
 21
161.768204
  0
LINE
  8
2
 62
134
  6
CONTINUOUS
 10
55.072873
 20
161.509385
 11
56.038799
 21
161.250566
  0
LINE
  8
2
 62
134
  6
CONTINUOUS
 10
56.038799
 20
161.768204
 11
56.038799
 21
161.250566
  0
LINE
  8
2
 62
134
  6
CONTINUOUS
 10
95.589910
 20
161.509385
 11
93.658059
 21
160.991747
  0
LINE
  8
2
 62
134
  6
CONTINUOUS
 10
95.589910
 20
161.509385
 11
93.658059
 21
162.027023
  0
LINE
  8
2
 62
134
  6
CONTINUOUS
 10
93.658059
 20
160.991747
 11
93.658059
 21
162.027023
  0
LINE
  8
2
 62
134
  6
CONTINUOUS
 10
95.106947
 20
161.509385
 11
94.141021
 21
161.250566
  0
LINE
  8
2
 62
134
  6
CONTINUOUS
 10
95.106947
 20
161.509385
 11
94.141021
 21
161.768204
  0
LINE
  8
2
 62
134
  6
CONTINUOUS
 10
94.141021
 20
161.250566
 11
94.141021
 21
161.768204
  0
TEXT
  8
2
 62
134
  6
CONTINUOUS
 10
73.583801
 20
161.509385
 40
4.000000
 41
0.500000
  1
41
  7
KANJI
 50
0.000000
 51
30.000000
  0
ENDBLK
  0
BLOCK
  8
2
 62
134
  6
CONTINUOUS
  2
*D15
 70
    65
 10
0.0
 20
0.0
  0
LINE
  8
2
 62
134
  6
CONTINUOUS
 10
151.425971
 20
162.509385
 11
207.250927
 21
162.509385
  0
LINE
  8
2
 62
134
  6
CONTINUOUS
 10
151.425971
 20
164.509385
 11
151.425971
 21
148.906240
  0
LINE
  8
2
 62
134
  6
CONTINUOUS
 10
207.250927
 20
164.509385
 11
207.250927
 21
152.915404
  0
LINE
  8
2
 62
134
  6
CONTINUOUS
 10
151.425971
 20
162.509385
 11
153.357822
 21
163.027023
  0
LINE
  8
2
 62
134
  6
CONTINUOUS
 10
151.425971
 20
162.509385
 11
153.357822
 21
161.991747
  0
LINE
  8
2
 62
134
  6
CONTINUOUS
 10
153.357822
 20
163.027023
 11
153.357822
 21
161.991747
  0
LINE
  8
2
 62
134
  6
CONTINUOUS
 10
151.908934
 20
162.509385
 11
152.874859
 21
162.768204
  0
LINE
  8
2
 62
134
  6
CONTINUOUS
 10
151.908934
 20
162.509385
 11
152.874859
 21
162.250566
  0
LINE
  8
2
 62
134
  6
CONTINUOUS
 10
152.874859
 20
162.768204
 11
152.874859
 21
162.250566
  0
LINE
  8
2
 62
134
  6
CONTINUOUS
 10
207.250927
 20
162.509385
 11
205.319075
 21
161.991747
  0
LINE
  8
2
 62
134
  6
CONTINUOUS
 10
207.250927
 20
162.509385
 11
205.319075
 21
163.027023
  0
LINE
  8
2
 62
134
  6
CONTINUOUS
 10
205.319075
 20
161.991747
 11
205.319075
 21
163.027023
  0
LINE
  8
2
 62
134
  6
CONTINUOUS
 10
206.767964
 20
162.509385
 11
205.802038
 21
162.250566
  0
LINE
  8
2
 62
134
  6
CONTINUOUS
 10
206.767964
 20
162.509385
 11
205.802038
 21
162.768204
  0
LINE
  8
2
 62
134
  6
CONTINUOUS
 10
205.802038
 20
162.250566
 11
205.802038
 21
162.768204
  0
TEXT
  8
2
 62
134
  6
CONTINUOUS
 10
176.737771
 20
162.509385
 40
4.000000
 41
0.500000
  1
100
  7
KANJI
 50
0.000000
 51
30.000000
  0
ENDBLK
  0
BLOCK
  8
2
 62
134
  6
CONTINUOUS
  2
*D16
 70
    65
 10
0.0
 20
0.0
  0
LINE
  8
2
 62
134
  6
CONTINUOUS
 10
131.278661
 20
137.006240
 11
131.278661
 21
162.085643
  0
LINE
  8
2
 62
134
  6
CONTINUOUS
 10
131.278661
 20
145.006240
 11
131.796299
 21
143.074389
  0
LINE
  8
2
 62
134
  6
CONTINUOUS
 10
131.278661
 20
145.006240
 11
130.761022
 21
143.074389
  0
LINE
  8
2
 62
134
  6
CONTINUOUS
 10
131.796299
 20
143.074389
 11
130.761022
 21
143.074389
  0
LINE
  8
2
 62
134
  6
CONTINUOUS
 10
131.278661
 20
144.523277
 11
131.537480
 21
143.557352
  0
LINE
  8
2
 62
134
  6
CONTINUOUS
 10
131.278661
 20
144.523277
 11
131.019841
 21
143.557352
  0
LINE
  8
2
 62
134
  6
CONTINUOUS
 10
131.537480
 20
143.557352
 11
131.019841
 21
143.557352
  0
LINE
  8
2
 62
134
  6
CONTINUOUS
 10
131.278661
 20
148.806240
 11
130.761022
 21
150.738092
  0
LINE
  8
2
 62
134
  6
CONTINUOUS
 10
131.278661
 20
148.806240
 11
131.796299
 21
150.738092
  0
LINE
  8
2
 62
134
  6
CONTINUOUS
 10
130.761022
 20
150.738092
 11
131.796299
 21
150.738092
  0
LINE
  8
2
 62
134
  6
CONTINUOUS
 10
131.278661
 20
149.289203
 11
131.019841
 21
150.255129
  0
LINE
  8
2
 62
134
  6
CONTINUOUS
 10
131.278661
 20
149.289203
 11
131.537480
 21
150.255129
  0
LINE
  8
2
 62
134
  6
CONTINUOUS
 10
131.019841
 20
150.255129
 11
131.537480
 21
150.255129
  0
TEXT
  8
2
 62
134
  6
CONTINUOUS
 10
131.278661
 20
151.085643
 40
4.000000
 41
0.625000
  1
φ3.8
  7
KANJI
 50
90.000000
 51
30.000000
  0
ENDBLK
  0
BLOCK
  8
2
 62
134
  6
CONTINUOUS
  2
*D17
 70
    65
 10
0.0
 20
0.0
  0
LINE
  8
2
 62
134
  6
CONTINUOUS
 10
116.440454
 20
113.406240
 11
116.440454
 21
146.906240
  0
LINE
  8
2
 62
134
  6
CONTINUOUS
 10
118.440454
 20
113.406240
 11
97.589910
 21
113.406240
  0
LINE
  8
2
 62
134
  6
CONTINUOUS
 10
118.440454
 20
146.906240
 11
102.089910
 21
146.906240
  0
LINE
  8
2
 62
134
  6
CONTINUOUS
 10
116.440454
 20
113.406240
 11
115.922816
 21
115.338092
  0
LINE
  8
2
 62
134
  6
CONTINUOUS
 10
116.440454
 20
113.406240
 11
116.958092
 21
115.338092
  0
LINE
  8
2
 62
134
  6
CONTINUOUS
 10
115.922816
 20
115.338092
 11
116.958092
 21
115.338092
  0
LINE
  8
2
 62
134
  6
CONTINUOUS
 10
116.440454
 20
113.889203
 11
116.181635
 21
114.855129
  0
LINE
  8
2
 62
134
  6
CONTINUOUS
 10
116.440454
 20
113.889203
 11
116.699273
 21
114.855129
  0
LINE
  8
2
 62
134
  6
CONTINUOUS
 10
116.181635
 20
114.855129
 11
116.699273
 21
114.855129
  0
LINE
  8
2
 62
134
  6
CONTINUOUS
 10
116.440454
 20
146.906240
 11
116.958092
 21
144.974389
  0
LINE
  8
2
 62
134
  6
CONTINUOUS
 10
116.440454
 20
146.906240
 11
115.922816
 21
144.974389
  0
LINE
  8
2
 62
134
  6
CONTINUOUS
 10
116.958092
 20
144.974389
 11
115.922816
 21
144.974389
  0
LINE
  8
2
 62
134
  6
CONTINUOUS
 10
116.440454
 20
146.423277
 11
116.699273
 21
145.457352
  0
LINE
  8
2
 62
134
  6
CONTINUOUS
 10
116.440454
 20
146.423277
 11
116.181635
 21
145.457352
  0
LINE
  8
2
 62
134
  6
CONTINUOUS
 10
116.699273
 20
145.457352
 11
116.181635
 21
145.457352
  0
TEXT
  8
2
 62
134
  6
CONTINUOUS
 10
116.440454
 20
124.205837
 40
4.000000
 41
0.500000
  1
33.5
  7
KANJI
 50
90.000000
 51
30.000000
  0
ENDBLK
  0
BLOCK
  8
2
 62
134
  6
CONTINUOUS
  2
*D18
 70
    65
 10
0.0
 20
0.0
  0
LINE
  8
2
 62
134
  6
CONTINUOUS
 10
100.341030
 20
125.570421
 11
100.341030
 21
161.206240
  0
LINE
  8
2
 62
134
  6
CONTINUOUS
 10
100.341030
 20
140.606240
 11
100.858668
 21
138.674389
  0
LINE
  8
2
 62
134
  6
CONTINUOUS
 10
100.341030
 20
140.606240
 11
99.823392
 21
138.674389
  0
LINE
  8
2
 62
134
  6
CONTINUOUS
 10
100.858668
 20
138.674389
 11
99.823392
 21
138.674389
  0
LINE
  8
2
 62
134
  6
CONTINUOUS
 10
100.341030
 20
140.123277
 11
100.599849
 21
139.157352
  0
LINE
  8
2
 62
134
  6
CONTINUOUS
 10
100.341030
 20
140.123277
 11
100.082211
 21
139.157352
  0
LINE
  8
2
 62
134
  6
CONTINUOUS
 10
100.599849
 20
139.157352
 11
100.082211
 21
139.157352
  0
LINE
  8
2
 62
134
  6
CONTINUOUS
 10
100.341030
 20
153.206240
 11
99.823392
 21
155.138092
  0
LINE
  8
2
 62
134
  6
CONTINUOUS
 10
100.341030
 20
153.206240
 11
100.858668
 21
155.138092
  0
LINE
  8
2
 62
134
  6
CONTINUOUS
 10
99.823392
 20
155.138092
 11
100.858668
 21
155.138092
  0
LINE
  8
2
 62
134
  6
CONTINUOUS
 10
100.341030
 20
153.689203
 11
100.082211
 21
154.655129
  0
LINE
  8
2
 62
134
  6
CONTINUOUS
 10
100.341030
 20
153.689203
 11
100.599849
 21
154.655129
  0
LINE
  8
2
 62
134
  6
CONTINUOUS
 10
100.082211
 20
154.655129
 11
100.599849
 21
154.655129
  0
TEXT
  8
2
 62
134
  6
CONTINUOUS
 10
100.341030
 20
126.570421
 40
4.000000
 41
0.600000
  1
φ12.6
  7
KANJI
 50
90.000000
 51
30.000000
  0
ENDBLK
  0
BLOCK
  8
3
 62
214
  6
CONTINUOUS
  2
*D19
 70
    65
 10
0.0
 20
0.0
  0
LINE
  8
3
 62
214
  6
CONTINUOUS
 10
95.589910
 20
162.509385
 11
151.425971
 21
162.509385
  0
LINE
  8
3
 62
214
  6
CONTINUOUS
 10
95.589910
 20
164.509385
 11
95.589910
 21
146.906240
  0
LINE
  8
3
 62
214
  6
CONTINUOUS
 10
151.425971
 20
164.509385
 11
151.425971
 21
146.906240
  0
LINE
  8
3
 62
214
  6
CONTINUOUS
 10
95.589910
 20
162.509385
 11
97.521762
 21
163.027023
  0
LINE
  8
3
 62
214
  6
CONTINUOUS
 10
95.589910
 20
162.509385
 11
97.521762
 21
161.991747
  0
LINE
  8
3
 62
214
  6
CONTINUOUS
 10
97.521762
 20
163.027023
 11
97.521762
 21
161.991747
  0
LINE
  8
3
 62
214
  6
CONTINUOUS
 10
96.072873
 20
162.509385
 11
97.038799
 21
162.768204
  0
LINE
  8
3
 62
214
  6
CONTINUOUS
 10
96.072873
 20
162.509385
 11
97.038799
 21
162.250566
  0
LINE
  8
3
 62
214
  6
CONTINUOUS
 10
97.038799
 20
162.768204
 11
97.038799
 21
162.250566
  0
LINE
  8
3
 62
214
  6
CONTINUOUS
 10
151.425971
 20
162.509385
 11
149.494119
 21
161.991747
  0
LINE
  8
3
 62
214
  6
CONTINUOUS
 10
151.425971
 20
162.509385
 11
149.494119
 21
163.027023
  0
LINE
  8
3
 62
214
  6
CONTINUOUS
 10
149.494119
 20
161.991747
 11
149.494119
 21
163.027023
  0
LINE
  8
3
 62
214
  6
CONTINUOUS
 10
150.943008
 20
162.509385
 11
149.977082
 21
162.250566
  0
LINE
  8
3
 62
214
  6
CONTINUOUS
 10
150.943008
 20
162.509385
 11
149.977082
 21
162.768204
  0
LINE
  8
3
 62
214
  6
CONTINUOUS
 10
149.977082
 20
162.250566
 11
149.977082
 21
162.768204
  0
TEXT
  8
3
 62
214
  6
CONTINUOUS
 10
117.516262
 20
162.509385
 40
4.000000
 41
0.583333
  1
ｹｰﾌﾞﾙ長
  7
KANJI
 50
0.000000
 51
30.000000
  0
ENDBLK
  0
ENDSEC
  0
SECTION
  2
ENTITIES
  0
LINE
  8
5
 62
94
  6
CONTINUOUS
 10
285.000000
 20
195.000000
 11
10.000000
 21
195.000000
  0
LINE
  8
5
 62
94
  6
CONTINUOUS
 10
10.000000
 20
195.000000
 11
10.000000
 21
10.000000
  0
LINE
  8
5
 62
94
  6
CONTINUOUS
 10
10.000000
 20
10.000000
 11
285.000000
 21
10.000000
  0
LINE
  8
5
 62
94
  6
CONTINUOUS
 10
285.000000
 20
10.000000
 11
285.000000
 21
195.000000
  0
TEXT
  8
5
 62
94
  6
CONTINUOUS
 10
210.962748
 20
25.651490
 40
1.750000
 41
4.000000
  1
製図
  7
KANJI
 50
-90.000000
 51
0.000000
  0
TEXT
  8
5
 62
94
  6
CONTINUOUS
 10
230.795530
 20
25.487583
 40
1.750000
 41
4.000000
  1
図番
  7
KANJI
 50
-90.000000
 51
0.000000
  0
TEXT
  8
5
 62
94
  6
CONTINUOUS
 10
230.795530
 20
38.764073
 40
1.750000
 41
4.000000
  1
図　名
  7
KANJI
 50
-90.000000
 51
0.000000
  0
TEXT
  8
5
 62
94
  6
CONTINUOUS
 10
165.888245
 20
33.355132
 40
1.750000
 41
4.000000
  1
日付
  7
KANJI
 50
-90.000000
 51
0.000000
  0
TEXT
  8
5
 62
94
  6
CONTINUOUS
 10
200.964404
 20
33.519040
 40
1.750000
 41
4.000000
  1
図法
  7
KANJI
 50
-90.000000
 51
0.000000
  0
TEXT
  8
5
 62
94
  6
CONTINUOUS
 10
200.800497
 20
41.550497
 40
1.750000
 41
4.000000
  1
尺度
  7
KANJI
 50
-90.000000
 51
0.000000
  0
TEXT
  8
5
 62
94
  6
CONTINUOUS
 10
165.888245
 20
41.386589
 40
1.750000
 41
4.000000
  1
公差
  7
KANJI
 50
-90.000000
 51
0.000000
  0
TEXT
  8
5
 62
94
  6
CONTINUOUS
 10
165.888245
 20
25.487583
 40
1.750000
 41
4.000000
  1
承認
  7
KANJI
 50
-90.000000
 51
0.000000
  0
TEXT
  8
5
 62
94
  6
CONTINUOUS
 10
190.966060
 20
25.487583
 40
1.750000
 41
4.000000
  1
設計
  7
KANJI
 50
-90.000000
 51
0.000000
  0
TEXT
  8
5
 62
94
  6
CONTINUOUS
 10
184.409768
 20
11.555464
 40
4.500000
 41
1.888889
  1
ジャパンセンサー株式会社
  7
KANJI
 50
0.000000
 51
0.000000
  0
LINE
  8
5
 62
94
  6
CONTINUOUS
 10
165.000000
 20
42.000000
 11
285.000000
 21
42.000000
  0
LINE
  8
5
 62
94
  6
CONTINUOUS
 10
165.000000
 20
10.000000
 11
165.000000
 21
42.000000
  0
LINE
  8
5
 62
94
  6
CONTINUOUS
 10
285.000000
 20
18.000000
 11
165.000000
 21
18.000000
  0
LINE
  8
5
 62
94
  6
CONTINUOUS
 10
230.000000
 20
42.000000
 11
230.000000
 21
18.000000
  0
LINE
  8
5
 62
94
  6
CONTINUOUS
 10
285.000000
 20
26.000000
 11
165.000000
 21
26.000000
  0
LINE
  8
5
 62
94
  6
CONTINUOUS
 10
235.000000
 20
18.000000
 11
235.000000
 21
42.000000
  0
LINE
  8
5
 62
94
  6
CONTINUOUS
 10
205.000000
 20
42.000000
 11
205.000000
 21
26.000000
  0
LINE
  8
5
 62
94
  6
CONTINUOUS
 10
170.000000
 20
18.000000
 11
170.000000
 21
42.000000
  0
LINE
  8
5
 62
94
  6
CONTINUOUS
 10
165.000000
 20
34.000000
 11
230.000000
 21
34.000000
  0
LINE
  8
5
 62
94
  6
CONTINUOUS
 10
200.000000
 20
42.000000
 11
200.000000
 21
26.000000
  0
LINE
  8
5
 62
94
  6
CONTINUOUS
 10
190.000000
 20
18.000000
 11
190.000000
 21
26.000000
  0
LINE
  8
5
 62
94
  6
CONTINUOUS
 10
210.000000
 20
18.000000
 11
210.000000
 21
26.000000
  0
LINE
  8
5
 62
94
  6
CONTINUOUS
 10
195.000000
 20
26.000000
 11
195.000000
 21
18.000000
  0
LINE
  8
5
 62
94
  6
CONTINUOUS
 10
215.000000
 20
26.000000
 11
215.000000
 21
18.000000
  0
TEXT
  8
5
 62
94
  6
CONTINUOUS
 10
209.979305
 20
35.649834
 40
4.000000
 41
1.000000
  1
１／１
  7
KANJI
 50
0.000000
 51
0.000000
  0
TEXT
  8
5
 62
94
  6
CONTINUOUS
 10
208.995861
 20
27.290563
 40
4.000000
 41
1.000000
  1
三角法
  7
KANJI
 50
0.000000
 51
0.000000
  0
TEXT
  8
5
 62
94
  6
CONTINUOUS
 10
196.211093
 20
19.750828
 40
4.000000
 41
1.000000
  1
須藤
  7
KANJI
 50
0.810149
 51
0.000000
  0
TEXT
  8
5
 62
94
  6
CONTINUOUS
 10
216.207781
 20
19.914735
 40
4.000000
 41
1.000000
  1
須藤
  7
KANJI
 50
-0.112820
 51
0.000000
  0
LINE
  8
1
 62
7
  6
DASHDOT
 10
262.303348
 20
161.235491
 11
262.303348
 21
106.126875
  0
LINE
  8
1
 62
7
  6
DASHDOT
 10
269.303348
 20
118.934192
 11
269.303348
 21
113.744280
  0
LINE
  8
1
 62
7
  6
DASHDOT
 10
271.670806
 20
116.409002
 11
266.789817
 21
116.409002
  0
LINE
  8
1
 62
7
  6
DASHDOT
 10
258.133064
 20
151.406238
 11
252.742625
 21
151.406238
  0
LINE
  8
1
 62
7
  6
DASHDOT
 10
255.303348
 20
153.886329
 11
255.303348
 21
148.466272
  0
LINE
  8
1
 62
7
  6
DOT
 10
260.803348
 20
113.406242
 11
260.803348
 21
117.406242
  0
LINE
  8
1
 62
7
  6
DOT
 10
263.803348
 20
113.406242
 11
263.803348
 21
117.406242
  0
LINE
  8
1
 62
7
  6
DOT
 10
261.003348
 20
113.406242
 11
261.003348
 21
117.406240
  0
LINE
  8
1
 62
7
  6
DOT
 10
263.608936
 20
113.406242
 11
263.608936
 21
117.406240
  0
LINE
  8
1
 62
7
  6
DOT
 10
260.803348
 20
117.406242
 11
263.808936
 21
117.406242
  0
CIRCLE
  8
1
 62
7
  6
CONTINUOUS
 10
269.303348
 20
116.409002
 40
2.000000
  0
LINE
  8
1
 62
7
  6
CONTINUOUS
 10
268.303348
 20
116.609002
 11
268.303348
 21
116.209002
  0
LINE
  8
1
 62
7
  6
CONTINUOUS
 10
269.103348
 20
117.409002
 11
269.503348
 21
117.409002
  0
LINE
  8
1
 62
7
  6
CONTINUOUS
 10
270.303348
 20
116.609002
 11
270.303348
 21
116.209002
  0
LINE
  8
1
 62
7
  6
CONTINUOUS
 10
269.503348
 20
115.409002
 11
269.103348
 21
115.409002
  0
LINE
  8
1
 62
7
  6
CONTINUOUS
 10
269.503348
 20
115.609002
 11
269.503348
 21
115.409002
  0
LINE
  8
1
 62
7
  6
CONTINUOUS
 10
270.303348
 20
116.209002
 11
270.103348
 21
116.209002
  0
ARC
  8
1
 62
7
  6
CONTINUOUS
 10
270.103348
 20
115.609002
 40
0.600000
 50
90.000000
 51
180.000000
  0
LINE
  8
1
 62
7
  6
CONTINUOUS
 10
270.103348
 20
116.609002
 11
270.303348
 21
116.609002
  0
LINE
  8
1
 62
7
  6
CONTINUOUS
 10
269.503348
 20
117.409002
 11
269.503348
 21
117.209002
  0
ARC
  8
1
 62
7
  6
CONTINUOUS
 10
270.103348
 20
117.209002
 40
0.600000
 50
180.000000
 51
-90.000000
  0
LINE
  8
1
 62
7
  6
CONTINUOUS
 10
268.303348
 20
116.609002
 11
268.503348
 21
116.609002
  0
LINE
  8
1
 62
7
  6
CONTINUOUS
 10
269.103348
 20
117.209002
 11
269.103348
 21
117.409002
  0
ARC
  8
1
 62
7
  6
CONTINUOUS
 10
268.503348
 20
117.209002
 40
0.600000
 50
-90.000000
 51
0.000000
  0
LINE
  8
1
 62
7
  6
CONTINUOUS
 10
268.503348
 20
116.209002
 11
268.303348
 21
116.209002
  0
LINE
  8
1
 62
7
  6
CONTINUOUS
 10
269.103348
 20
115.409002
 11
269.103348
 21
115.609002
  0
ARC
  8
1
 62
7
  6
CONTINUOUS
 10
268.503348
 20
115.609002
 40
0.600000
 50
0.000000
 51
90.000000
  0
CIRCLE
  8
1
 62
7
  6
CONTINUOUS
 10
255.303348
 20
151.406238
 40
2.000000
  0
LINE
  8
1
 62
7
  6
CONTINUOUS
 10
254.303348
 20
151.606238
 11
254.303348
 21
151.206238
  0
LINE
  8
1
 62
7
  6
CONTINUOUS
 10
255.103348
 20
152.406238
 11
255.503348
 21
152.406238
  0
LINE
  8
1
 62
7
  6
CONTINUOUS
 10
256.303348
 20
151.606238
 11
256.303348
 21
151.206238
  0
LINE
  8
1
 62
7
  6
CONTINUOUS
 10
255.503348
 20
150.406238
 11
255.103348
 21
150.406238
  0
LINE
  8
1
 62
7
  6
CONTINUOUS
 10
255.503348
 20
150.606238
 11
255.503348
 21
150.406238
  0
LINE
  8
1
 62
7
  6
CONTINUOUS
 10
256.303348
 20
151.206238
 11
256.103348
 21
151.206238
  0
ARC
  8
1
 62
7
  6
CONTINUOUS
 10
256.103348
 20
150.606238
 40
0.600000
 50
90.000000
 51
180.000000
  0
LINE
  8
1
 62
7
  6
CONTINUOUS
 10
256.103348
 20
151.606238
 11
256.303348
 21
151.606238
  0
LINE
  8
1
 62
7
  6
CONTINUOUS
 10
255.503348
 20
152.406238
 11
255.503348
 21
152.206238
  0
ARC
  8
1
 62
7
  6
CONTINUOUS
 10
256.103348
 20
152.206238
 40
0.600000
 50
180.000000
 51
-90.000000
  0
LINE
  8
1
 62
7
  6
CONTINUOUS
 10
254.303348
 20
151.606238
 11
254.503348
 21
151.606238
  0
LINE
  8
1
 62
7
  6
CONTINUOUS
 10
255.103348
 20
152.206238
 11
255.103348
 21
152.406238
  0
ARC
  8
1
 62
7
  6
CONTINUOUS
 10
254.503348
 20
152.206238
 40
0.600000
 50
-90.000000
 51
0.000000
  0
LINE
  8
1
 62
7
  6
CONTINUOUS
 10
254.503348
 20
151.206238
 11
254.303348
 21
151.206238
  0
LINE
  8
1
 62
7
  6
CONTINUOUS
 10
255.103348
 20
150.406238
 11
255.103348
 21
150.606238
  0
ARC
  8
1
 62
7
  6
CONTINUOUS
 10
254.503348
 20
150.606238
 40
0.600000
 50
0.000000
 51
90.000000
  0
LINE
  8
1
 62
7
  6
DOT
 10
273.053348
 20
114.406241
 11
273.053348
 21
120.406241
  0
LINE
  8
1
 62
7
  6
DOT
 10
273.053348
 20
120.406241
 11
275.553348
 21
120.406241
  0
LINE
  8
1
 62
7
  6
DOT
 10
275.285398
 20
114.406241
 11
273.053348
 21
114.406241
  0
LINE
  8
1
 62
7
  6
DOT
 10
251.553352
 20
114.406241
 11
251.553352
 21
120.406241
  0
LINE
  8
1
 62
7
  6
DOT
 10
251.553352
 20
120.406241
 11
249.053352
 21
120.406241
  0
LINE
  8
1
 62
7
  6
DOT
 10
249.321301
 20
114.406241
 11
251.553352
 21
114.406241
  0
LINE
  8
1
 62
7
  6
DASHDOT
 10
246.737345
 20
117.406240
 11
277.412402
 21
117.406240
  0
LINE
  8
1
 62
7
  6
DOT
 10
251.553352
 20
115.656242
 11
273.053348
 21
115.656242
  0
DIMENSION
  8
2
 62
134
  6
CONTINUOUS
  2
*D1
 10
249.053352
 20
170.106766
 11
262.085385
 21
170.106766
 70
     0
  1
26.5
 13
249.053352
 23
158.606240
 14
275.553352
 24
158.606240
 50
0.000000
  0
ARC
  8
1
 62
7
  6
CONTINUOUS
 10
273.553348
 20
152.606240
 40
2.000000
 50
0.000000
 51
90.000000
  0
LINE
  8
1
 62
7
  6
CONTINUOUS
 10
251.053348
 20
154.606240
 11
273.553348
 21
154.606240
  0
ARC
  8
1
 62
7
  6
CONTINUOUS
 10
251.053348
 20
152.606240
 40
2.000000
 50
90.000000
 51
180.000000
  0
LINE
  8
1
 62
7
  6
CONTINUOUS
 10
275.553348
 20
152.606240
 11
275.553348
 21
115.406240
  0
ARC
  8
1
 62
7
  6
CONTINUOUS
 10
273.553348
 20
115.406240
 40
2.000000
 50
-90.000000
 51
0.000000
  0
LINE
  8
1
 62
7
  6
CONTINUOUS
 10
273.553348
 20
113.406240
 11
251.053348
 21
113.406240
  0
LINE
  8
1
 62
7
  6
CONTINUOUS
 10
249.053348
 20
115.406240
 11
249.053348
 21
152.606240
  0
ARC
  8
1
 62
7
  6
CONTINUOUS
 10
251.053348
 20
115.406240
 40
2.000000
 50
180.000000
 51
-90.000000
  0
LINE
  8
1
 62
7
  6
DOT
 10
251.553352
 20
119.156242
 11
273.053348
 21
119.156242
  0
TEXT
  8
5
 62
94
  6
CONTINUOUS
 10
237.187914
 20
20.406457
 40
4.000000
 41
1.000000
  1
０１５－８７７－Ａ００１
  7
KANJI
 50
0.000000
 51
0.000000
  0
LINE
  8
2
 62
134
  6
CONTINUOUS
 10
54.589910
 20
105.681165
 11
52.658059
 21
105.163527
  0
LINE
  8
2
 62
134
  6
CONTINUOUS
 10
52.658059
 20
105.163527
 11
52.658059
 21
106.198803
  0
LINE
  8
2
 62
134
  6
CONTINUOUS
 10
52.658059
 20
106.198803
 11
54.589910
 21
105.681165
  0
LINE
  8
1
 62
7
  6
DASHDOT
 10
86.588870
 20
128.406240
 11
74.053156
 21
128.406240
  0
LINE
  8
1
 62
7
  6
CONTINUOUS
 10
54.589910
 20
113.406240
 11
54.589910
 21
154.606240
  0
LINE
  8
1
 62
7
  6
CONTINUOUS
 10
93.889910
 20
114.406240
 11
93.889910
 21
113.406240
  0
LINE
  8
1
 62
7
  6
CONTINUOUS
 10
93.889910
 20
113.406240
 11
54.589910
 21
113.406240
  0
LINE
  8
1
 62
7
  6
CONTINUOUS
 10
93.889910
 20
114.406240
 11
93.889910
 21
154.606240
  0
LINE
  8
1
 62
7
  6
CONTINUOUS
 10
93.889910
 20
113.406240
 11
95.589910
 21
113.406240
  0
LINE
  8
1
 62
7
  6
CONTINUOUS
 10
95.589910
 20
113.406240
 11
95.589910
 21
154.606240
  0
LINE
  8
1
 62
7
  6
CONTINUOUS
 10
54.589910
 20
154.606240
 11
95.589910
 21
154.606240
  0
LINE
  8
1
 62
7
  6
CONTINUOUS
 10
54.589910
 20
91.454201
 11
54.589910
 21
64.954201
  0
LINE
  8
1
 62
7
  6
CONTINUOUS
 10
54.589910
 20
64.954201
 11
93.889910
 21
64.954201
  0
LINE
  8
1
 62
7
  6
CONTINUOUS
 10
93.889910
 20
64.954201
 11
93.889910
 21
91.454201
  0
LINE
  8
1
 62
7
  6
CONTINUOUS
 10
93.889910
 20
91.454201
 11
54.589910
 21
91.454201
  0
LINE
  8
1
 62
7
  6
CONTINUOUS
 10
93.889910
 20
91.454201
 11
93.889910
 21
64.954201
  0
LINE
  8
1
 62
7
  6
CONTINUOUS
 10
93.889910
 20
64.954201
 11
95.589910
 21
64.954201
  0
LINE
  8
1
 62
7
  6
CONTINUOUS
 10
95.589910
 20
64.954201
 11
95.589910
 21
91.454201
  0
LINE
  8
1
 62
7
  6
CONTINUOUS
 10
95.589910
 20
91.454201
 11
93.889910
 21
91.454201
  0
CIRCLE
  8
1
 62
7
  6
CONTINUOUS
 10
61.289910
 20
78.204201
 40
1.500000
  0
CIRCLE
  8
1
 62
7
  6
CONTINUOUS
 10
61.289910
 20
78.204201
 40
1.230000
  0
CIRCLE
  8
1
 62
7
  6
CONTINUOUS
 10
81.289910
 20
78.204201
 40
1.500000
  0
CIRCLE
  8
1
 62
7
  6
CONTINUOUS
 10
81.289910
 20
78.204201
 40
1.230000
  0
LINE
  8
1
 62
7
  6
DASHDOT
 10
81.289910
 20
80.205571
 11
81.289910
 21
76.288171
  0
LINE
  8
1
 62
7
  6
DASHDOT
 10
61.289910
 20
80.205571
 11
61.289910
 21
76.288171
  0
DIMENSION
  8
2
 62
134
  6
CONTINUOUS
  2
*D2
 10
61.289910
 20
58.736665
 11
71.606558
 21
58.736665
 70
     0
  1
20
 13
61.289910
 23
74.974201
 14
81.289910
 24
74.974201
 50
0.000000
  0
DIMENSION
  8
2
 62
134
  6
CONTINUOUS
  2
*D3
 10
54.589910
 20
58.736665
 11
58.318753
 21
58.736665
 70
     0
  1
6.7
 13
54.589910
 23
62.954201
 14
61.289910
 24
76.204201
 50
0.000000
  0
CIRCLE
  8
1
 62
7
  6
CONTINUOUS
 10
66.789910
 20
117.406239
 40
1.750000
  0
CIRCLE
  8
1
 62
7
  6
CONTINUOUS
 10
86.789910
 20
117.406240
 40
1.750000
  0
LINE
  8
1
 62
7
  6
DASHDOT
 10
86.789910
 20
113.308532
 11
86.789910
 21
121.397433
  0
LINE
  8
1
 62
7
  6
DASHDOT
 10
82.413358
 20
117.406240
 11
90.976767
 21
117.406240
  0
LINE
  8
1
 62
7
  6
DASHDOT
 10
66.789910
 20
113.308531
 11
66.789910
 21
121.123373
  0
CIRCLE
  8
1
 62
7
  6
CONTINUOUS
 10
66.789910
 20
117.406239
 40
3.000000
  0
CIRCLE
  8
1
 62
7
  6
CONTINUOUS
 10
86.789910
 20
117.406237
 40
3.000000
  0
DIMENSION
  8
2
 62
134
  6
CONTINUOUS
  2
*D4
 10
54.589910
 20
105.715578
 11
60.689910
 21
105.715578
 70
     0
  1
12.2
 13
54.589910
 23
111.406240
 14
66.789910
 24
111.406240
 50
0.000000
  0
DIMENSION
  8
2
 62
134
  6
CONTINUOUS
  2
*D5
 10
66.789910
 20
105.715578
 11
76.789910
 21
105.715578
 70
     0
  1
20
 13
66.789910
 23
105.715578
 14
86.789910
 24
111.406240
 50
0.000000
  0
LINE
  8
1
 62
7
  6
DASHDOT
 10
81.289910
 20
112.332216
 11
81.289910
 21
118.203922
  0
LINE
  8
2
 62
134
  6
CONTINUOUS
 10
88.053888
 20
116.195927
 11
106.967285
 21
101.808937
  0
LINE
  8
2
 62
134
  6
CONTINUOUS
 10
106.967285
 20
101.808937
 11
121.278326
 21
101.808937
  0
TEXT
  8
2
 62
134
  6
CONTINUOUS
 10
107.278326
 20
101.905772
 40
4.000000
 41
0.583333
  1
2-φ3.5
  7
KANJI
 50
0.000000
 51
30.000000
  0
LINE
  8
2
 62
134
  6
CONTINUOUS
 10
88.053888
 20
116.195927
 11
89.904845
 21
115.438325
  0
LINE
  8
2
 62
134
  6
CONTINUOUS
 10
88.053888
 20
116.195927
 11
89.278063
 21
114.614346
  0
LINE
  8
2
 62
134
  6
CONTINUOUS
 10
89.904845
 20
115.438325
 11
89.278063
 21
114.614346
  0
LINE
  8
2
 62
134
  6
CONTINUOUS
 10
88.438280
 20
115.903529
 11
89.363758
 21
115.524728
  0
LINE
  8
2
 62
134
  6
CONTINUOUS
 10
88.438280
 20
115.903529
 11
89.050367
 21
115.112739
  0
LINE
  8
2
 62
134
  6
CONTINUOUS
 10
89.363758
 20
115.524728
 11
89.050367
 21
115.112739
  0
DIMENSION
  8
2
 62
134
  6
CONTINUOUS
  2
*D6
 10
102.722058
 20
113.406240
 11
102.722058
 21
114.406240
 70
     0
  1
4
 13
99.589910
 23
113.406240
 14
94.205415
 24
117.406240
 50
90.000000
  0
LINE
  8
1
 62
7
  6
DASHDOT
 10
61.289910
 20
112.332216
 11
61.289910
 21
119.005340
  0
LINE
  8
1
 62
7
  6
DASHDOT
 10
63.410262
 20
117.406239
 11
71.176767
 21
117.406239
  0
LINE
  8
1
 62
7
  6
CONTINUOUS
 10
52.589910
 20
130.585690
 11
48.589910
 21
130.585690
  0
LINE
  8
1
 62
7
  6
CONTINUOUS
 10
52.589910
 20
130.585690
 11
52.589910
 21
128.406240
  0
LINE
  8
1
 62
7
  6
CONTINUOUS
 10
48.589910
 20
130.585690
 11
48.589910
 21
128.406240
  0
LINE
  8
1
 62
7
  6
CONTINUOUS
 10
30.589910
 20
123.406240
 11
30.589910
 21
133.406240
  0
LINE
  8
1
 62
7
  6
DASHDOT
 10
41.089910
 20
129.264009
 11
41.089910
 21
132.739608
  0
LINE
  8
1
 62
7
  6
CONTINUOUS
 10
30.589910
 20
133.406240
 11
49.789910
 21
133.406240
  0
CIRCLE
  8
1
 62
7
  6
CONTINUOUS
 10
34.339910
 20
128.406240
 40
1.000000
  0
CIRCLE
  8
1
 62
7
  6
CONTINUOUS
 10
34.339910
 20
128.406240
 40
0.782631
  0
LINE
  8
1
 62
7
  6
CONTINUOUS
 10
40.290712
 20
130.656204
 11
40.291051
 21
130.595745
  0
LINE
  8
1
 62
7
  6
CONTINUOUS
 10
40.291051
 20
130.595745
 11
40.297469
 21
130.535474
  0
LINE
  8
1
 62
7
  6
CONTINUOUS
 10
40.297469
 20
130.535474
 11
40.309918
 21
130.475849
  0
LINE
  8
1
 62
7
  6
CONTINUOUS
 10
40.309918
 20
130.475849
 11
40.328304
 21
130.417324
  0
LINE
  8
1
 62
7
  6
CONTINUOUS
 10
40.328304
 20
130.417324
 11
40.352486
 21
130.360345
  0
LINE
  8
1
 62
7
  6
CONTINUOUS
 10
40.352486
 20
130.360345
 11
40.382280
 21
130.305344
  0
LINE
  8
1
 62
7
  6
CONTINUOUS
 10
40.382280
 20
130.305344
 11
40.417460
 21
130.252742
  0
LINE
  8
1
 62
7
  6
CONTINUOUS
 10
40.417460
 20
130.252742
 11
40.457757
 21
130.202938
  0
LINE
  8
1
 62
7
  6
CONTINUOUS
 10
40.457757
 20
130.202938
 11
40.502866
 21
130.156310
  0
LINE
  8
1
 62
7
  6
CONTINUOUS
 10
40.502866
 20
130.156310
 11
40.552442
 21
130.113215
  0
LINE
  8
1
 62
7
  6
CONTINUOUS
 10
40.552442
 20
130.113215
 11
40.606109
 21
130.073980
  0
LINE
  8
1
 62
7
  6
CONTINUOUS
 10
40.606109
 20
130.073980
 11
40.663457
 21
130.038903
  0
LINE
  8
1
 62
7
  6
CONTINUOUS
 10
40.663457
 20
130.038903
 11
40.724052
 21
130.008252
  0
LINE
  8
1
 62
7
  6
CONTINUOUS
 10
40.724052
 20
130.008252
 11
40.787430
 21
129.982260
  0
LINE
  8
1
 62
7
  6
CONTINUOUS
 10
40.787430
 20
129.982260
 11
40.853111
 21
129.961124
  0
LINE
  8
1
 62
7
  6
CONTINUOUS
 10
40.853111
 20
129.961124
 11
40.920594
 21
129.945006
  0
LINE
  8
1
 62
7
  6
CONTINUOUS
 10
40.920594
 20
129.945006
 11
40.989365
 21
129.934028
  0
LINE
  8
1
 62
7
  6
CONTINUOUS
 10
40.989365
 20
129.934028
 11
41.058902
 21
129.928273
  0
LINE
  8
1
 62
7
  6
CONTINUOUS
 10
41.058902
 20
129.928273
 11
41.128675
 21
129.927786
  0
LINE
  8
1
 62
7
  6
CONTINUOUS
 10
41.128675
 20
129.927786
 11
41.198153
 21
129.932571
  0
LINE
  8
1
 62
7
  6
CONTINUOUS
 10
41.198153
 20
129.932571
 11
41.266806
 21
129.942590
  0
LINE
  8
1
 62
7
  6
CONTINUOUS
 10
41.266806
 20
129.942590
 11
41.334114
 21
129.957767
  0
LINE
  8
1
 62
7
  6
CONTINUOUS
 10
41.334114
 20
129.957767
 11
41.399563
 21
129.977988
  0
LINE
  8
1
 62
7
  6
CONTINUOUS
 10
41.399563
 20
129.977988
 11
41.462656
 21
130.003098
  0
LINE
  8
1
 62
7
  6
CONTINUOUS
 10
41.462656
 20
130.003098
 11
41.522911
 21
130.032906
  0
LINE
  8
1
 62
7
  6
CONTINUOUS
 10
41.522911
 20
130.032906
 11
41.579871
 21
130.067185
  0
LINE
  8
1
 62
7
  6
CONTINUOUS
 10
41.579871
 20
130.067185
 11
41.633103
 21
130.105674
  0
LINE
  8
1
 62
7
  6
CONTINUOUS
 10
41.633103
 20
130.105674
 11
41.682200
 21
130.148081
  0
LINE
  8
1
 62
7
  6
CONTINUOUS
 10
41.682200
 20
130.148081
 11
41.726790
 21
130.194082
  0
LINE
  8
1
 62
7
  6
CONTINUOUS
 10
41.726790
 20
130.194082
 11
41.766532
 21
130.243328
  0
LINE
  8
1
 62
7
  6
CONTINUOUS
 10
41.766532
 20
130.243328
 11
41.801125
 21
130.295444
  0
LINE
  8
1
 62
7
  6
CONTINUOUS
 10
41.801125
 20
130.295444
 11
41.830306
 21
130.350032
  0
LINE
  8
1
 62
7
  6
CONTINUOUS
 10
41.830306
 20
130.350032
 11
41.853851
 21
130.406679
  0
LINE
  8
1
 62
7
  6
CONTINUOUS
 10
41.853851
 20
130.406679
 11
41.871582
 21
130.464952
  0
LINE
  8
1
 62
7
  6
CONTINUOUS
 10
41.871582
 20
130.464952
 11
41.883365
 21
130.524408
  0
LINE
  8
1
 62
7
  6
CONTINUOUS
 10
41.883365
 20
130.524408
 11
41.889109
 21
130.584594
  0
LINE
  8
1
 62
7
  6
CONTINUOUS
 10
41.889109
 20
130.584594
 11
41.888770
 21
130.645053
  0
LINE
  8
1
 62
7
  6
CONTINUOUS
 10
41.888770
 20
130.645053
 11
41.882351
 21
130.705325
  0
LINE
  8
1
 62
7
  6
CONTINUOUS
 10
41.882351
 20
130.705325
 11
41.869902
 21
130.764950
  0
LINE
  8
1
 62
7
  6
CONTINUOUS
 10
41.869902
 20
130.764950
 11
41.851516
 21
130.823475
  0
LINE
  8
1
 62
7
  6
CONTINUOUS
 10
41.851516
 20
130.823475
 11
41.827335
 21
130.880454
  0
LINE
  8
1
 62
7
  6
CONTINUOUS
 10
41.827335
 20
130.880454
 11
41.797540
 21
130.935454
  0
LINE
  8
1
 62
7
  6
CONTINUOUS
 10
41.797540
 20
130.935454
 11
41.762361
 21
130.988057
  0
LINE
  8
1
 62
7
  6
CONTINUOUS
 10
41.762361
 20
130.988057
 11
41.722063
 21
131.037861
  0
LINE
  8
1
 62
7
  6
CONTINUOUS
 10
41.722063
 20
131.037861
 11
41.676955
 21
131.084488
  0
LINE
  8
1
 62
7
  6
CONTINUOUS
 10
41.676955
 20
131.084488
 11
41.627379
 21
131.127584
  0
LINE
  8
1
 62
7
  6
CONTINUOUS
 10
41.627379
 20
131.127584
 11
41.573712
 21
131.166819
  0
LINE
  8
1
 62
7
  6
CONTINUOUS
 10
41.573712
 20
131.166819
 11
41.516363
 21
131.201895
  0
LINE
  8
1
 62
7
  6
CONTINUOUS
 10
41.516363
 20
131.201895
 11
41.455769
 21
131.232547
  0
LINE
  8
1
 62
7
  6
CONTINUOUS
 10
41.455769
 20
131.232547
 11
41.392390
 21
131.258539
  0
LINE
  8
1
 62
7
  6
CONTINUOUS
 10
41.392390
 20
131.258539
 11
41.326710
 21
131.279675
  0
LINE
  8
1
 62
7
  6
CONTINUOUS
 10
41.326710
 20
131.279675
 11
41.259227
 21
131.295793
  0
LINE
  8
1
 62
7
  6
CONTINUOUS
 10
41.259227
 20
131.295793
 11
41.190455
 21
131.306771
  0
LINE
  8
1
 62
7
  6
CONTINUOUS
 10
41.190455
 20
131.306771
 11
41.120918
 21
131.312525
  0
LINE
  8
1
 62
7
  6
CONTINUOUS
 10
41.120918
 20
131.312525
 11
41.051146
 21
131.313012
  0
LINE
  8
1
 62
7
  6
CONTINUOUS
 10
41.051146
 20
131.313012
 11
40.981668
 21
131.308228
  0
LINE
  8
1
 62
7
  6
CONTINUOUS
 10
40.981668
 20
131.308228
 11
40.913014
 21
131.298209
  0
LINE
  8
1
 62
7
  6
CONTINUOUS
 10
40.913014
 20
131.298209
 11
40.845706
 21
131.283031
  0
LINE
  8
1
 62
7
  6
CONTINUOUS
 10
40.845706
 20
131.283031
 11
40.780257
 21
131.262810
  0
LINE
  8
1
 62
7
  6
CONTINUOUS
 10
40.780257
 20
131.262810
 11
40.717165
 21
131.237701
  0
LINE
  8
1
 62
7
  6
CONTINUOUS
 10
40.717165
 20
131.237701
 11
40.656909
 21
131.207893
  0
LINE
  8
1
 62
7
  6
CONTINUOUS
 10
40.656909
 20
131.207893
 11
40.599949
 21
131.173614
  0
LINE
  8
1
 62
7
  6
CONTINUOUS
 10
40.599949
 20
131.173614
 11
40.546718
 21
131.135124
  0
LINE
  8
1
 62
7
  6
CONTINUOUS
 10
40.546718
 20
131.135124
 11
40.497620
 21
131.092718
  0
LINE
  8
1
 62
7
  6
CONTINUOUS
 10
40.497620
 20
131.092718
 11
40.453031
 21
131.046716
  0
LINE
  8
1
 62
7
  6
CONTINUOUS
 10
40.453031
 20
131.046716
 11
40.413288
 21
130.997470
  0
LINE
  8
1
 62
7
  6
CONTINUOUS
 10
40.413288
 20
130.997470
 11
40.378695
 21
130.945355
  0
LINE
  8
1
 62
7
  6
CONTINUOUS
 10
40.378695
 20
130.945355
 11
40.349515
 21
130.890766
  0
LINE
  8
1
 62
7
  6
CONTINUOUS
 10
40.349515
 20
130.890766
 11
40.325969
 21
130.834120
  0
LINE
  8
1
 62
7
  6
CONTINUOUS
 10
40.325969
 20
130.834120
 11
40.308238
 21
130.775847
  0
LINE
  8
1
 62
7
  6
CONTINUOUS
 10
40.308238
 20
130.775847
 11
40.296456
 21
130.716391
  0
LINE
  8
1
 62
7
  6
CONTINUOUS
 10
40.296456
 20
130.716391
 11
40.290712
 21
130.656204
  0
LINE
  8
1
 62
7
  6
CONTINUOUS
 10
40.090799
 20
130.642124
 11
40.091420
 21
130.566552
  0
LINE
  8
1
 62
7
  6
CONTINUOUS
 10
40.091420
 20
130.566552
 11
40.099640
 21
130.491234
  0
LINE
  8
1
 62
7
  6
CONTINUOUS
 10
40.099640
 20
130.491234
 11
40.115396
 21
130.416744
  0
LINE
  8
1
 62
7
  6
CONTINUOUS
 10
40.115396
 20
130.416744
 11
40.138570
 21
130.343648
  0
LINE
  8
1
 62
7
  6
CONTINUOUS
 10
40.138570
 20
130.343648
 11
40.168983
 21
130.272503
  0
LINE
  8
1
 62
7
  6
CONTINUOUS
 10
40.168983
 20
130.272503
 11
40.206406
 21
130.203850
  0
LINE
  8
1
 62
7
  6
CONTINUOUS
 10
40.206406
 20
130.203850
 11
40.250552
 21
130.138213
  0
LINE
  8
1
 62
7
  6
CONTINUOUS
 10
40.250552
 20
130.138213
 11
40.301087
 21
130.076089
  0
LINE
  8
1
 62
7
  6
CONTINUOUS
 10
40.301087
 20
130.076089
 11
40.357624
 21
130.017953
  0
LINE
  8
1
 62
7
  6
CONTINUOUS
 10
40.357624
 20
130.017953
 11
40.419735
 21
129.964246
  0
LINE
  8
1
 62
7
  6
CONTINUOUS
 10
40.419735
 20
129.964246
 11
40.486947
 21
129.915377
  0
LINE
  8
1
 62
7
  6
CONTINUOUS
 10
40.486947
 20
129.915377
 11
40.558747
 21
129.871719
  0
LINE
  8
1
 62
7
  6
CONTINUOUS
 10
40.558747
 20
129.871719
 11
40.634590
 21
129.833604
  0
LINE
  8
1
 62
7
  6
CONTINUOUS
 10
40.634590
 20
129.833604
 11
40.713898
 21
129.801320
  0
LINE
  8
1
 62
7
  6
CONTINUOUS
 10
40.713898
 20
129.801320
 11
40.796068
 21
129.775116
  0
LINE
  8
1
 62
7
  6
CONTINUOUS
 10
40.796068
 20
129.775116
 11
40.880474
 21
129.755189
  0
LINE
  8
1
 62
7
  6
CONTINUOUS
 10
40.880474
 20
129.755189
 11
40.966474
 21
129.741691
  0
LINE
  8
1
 62
7
  6
CONTINUOUS
 10
40.966474
 20
129.741691
 11
41.053413
 21
129.734725
  0
LINE
  8
1
 62
7
  6
CONTINUOUS
 10
41.053413
 20
129.734725
 11
41.140630
 21
129.734345
  0
LINE
  8
1
 62
7
  6
CONTINUOUS
 10
41.140630
 20
129.734345
 11
41.227462
 21
129.740552
  0
LINE
  8
1
 62
7
  6
CONTINUOUS
 10
41.227462
 20
129.740552
 11
41.313246
 21
129.753301
  0
LINE
  8
1
 62
7
  6
CONTINUOUS
 10
41.313246
 20
129.753301
 11
41.397331
 21
129.772493
  0
LINE
  8
1
 62
7
  6
CONTINUOUS
 10
41.397331
 20
129.772493
 11
41.479076
 21
129.797983
  0
LINE
  8
1
 62
7
  6
CONTINUOUS
 10
41.479076
 20
129.797983
 11
41.557859
 21
129.829576
  0
LINE
  8
1
 62
7
  6
CONTINUOUS
 10
41.557859
 20
129.829576
 11
41.633081
 21
129.867033
  0
LINE
  8
1
 62
7
  6
CONTINUOUS
 10
41.633081
 20
129.867033
 11
41.704168
 21
129.910068
  0
LINE
  8
1
 62
7
  6
CONTINUOUS
 10
41.704168
 20
129.910068
 11
41.770582
 21
129.958353
  0
LINE
  8
1
 62
7
  6
CONTINUOUS
 10
41.770582
 20
129.958353
 11
41.831814
 21
130.011522
  0
LINE
  8
1
 62
7
  6
CONTINUOUS
 10
41.831814
 20
130.011522
 11
41.887401
 21
130.069169
  0
LINE
  8
1
 62
7
  6
CONTINUOUS
 10
41.887401
 20
130.069169
 11
41.936918
 21
130.130856
  0
LINE
  8
1
 62
7
  6
CONTINUOUS
 10
41.936918
 20
130.130856
 11
41.979989
 21
130.196114
  0
LINE
  8
1
 62
7
  6
CONTINUOUS
 10
41.979989
 20
130.196114
 11
42.016285
 21
130.264445
  0
LINE
  8
1
 62
7
  6
CONTINUOUS
 10
42.016285
 20
130.264445
 11
42.045532
 21
130.335330
  0
LINE
  8
1
 62
7
  6
CONTINUOUS
 10
42.045532
 20
130.335330
 11
42.067505
 21
130.408228
  0
LINE
  8
1
 62
7
  6
CONTINUOUS
 10
42.067505
 20
130.408228
 11
42.082039
 21
130.482587
  0
LINE
  8
1
 62
7
  6
CONTINUOUS
 10
42.082039
 20
130.482587
 11
42.089022
 21
130.557838
  0
LINE
  8
1
 62
7
  6
CONTINUOUS
 10
42.089022
 20
130.557838
 11
42.088401
 21
130.633411
  0
LINE
  8
1
 62
7
  6
CONTINUOUS
 10
42.088401
 20
130.633411
 11
42.080181
 21
130.708729
  0
LINE
  8
1
 62
7
  6
CONTINUOUS
 10
42.080181
 20
130.708729
 11
42.064424
 21
130.783219
  0
LINE
  8
1
 62
7
  6
CONTINUOUS
 10
42.064424
 20
130.783219
 11
42.041251
 21
130.856315
  0
LINE
  8
1
 62
7
  6
CONTINUOUS
 10
42.041251
 20
130.856315
 11
42.010837
 21
130.927460
  0
LINE
  8
1
 62
7
  6
CONTINUOUS
 10
42.010837
 20
130.927460
 11
41.973415
 21
130.996112
  0
LINE
  8
1
 62
7
  6
CONTINUOUS
 10
41.973415
 20
130.996112
 11
41.929268
 21
131.061750
  0
LINE
  8
1
 62
7
  6
CONTINUOUS
 10
41.929268
 20
131.061750
 11
41.878734
 21
131.123874
  0
LINE
  8
1
 62
7
  6
CONTINUOUS
 10
41.878734
 20
131.123874
 11
41.822196
 21
131.182010
  0
LINE
  8
1
 62
7
  6
CONTINUOUS
 10
41.822196
 20
131.182010
 11
41.760085
 21
131.235717
  0
LINE
  8
1
 62
7
  6
CONTINUOUS
 10
41.760085
 20
131.235717
 11
41.692874
 21
131.284585
  0
LINE
  8
1
 62
7
  6
CONTINUOUS
 10
41.692874
 20
131.284585
 11
41.621073
 21
131.328244
  0
LINE
  8
1
 62
7
  6
CONTINUOUS
 10
41.621073
 20
131.328244
 11
41.545231
 21
131.366359
  0
LINE
  8
1
 62
7
  6
CONTINUOUS
 10
41.545231
 20
131.366359
 11
41.465922
 21
131.398642
  0
LINE
  8
1
 62
7
  6
CONTINUOUS
 10
41.465922
 20
131.398642
 11
41.383753
 21
131.424847
  0
LINE
  8
1
 62
7
  6
CONTINUOUS
 10
41.383753
 20
131.424847
 11
41.299347
 21
131.444774
  0
LINE
  8
1
 62
7
  6
CONTINUOUS
 10
41.299347
 20
131.444774
 11
41.213347
 21
131.458272
  0
LINE
  8
1
 62
7
  6
CONTINUOUS
 10
41.213347
 20
131.458272
 11
41.126407
 21
131.465237
  0
LINE
  8
1
 62
7
  6
CONTINUOUS
 10
41.126407
 20
131.465237
 11
41.039190
 21
131.465618
  0
LINE
  8
1
 62
7
  6
CONTINUOUS
 10
41.039190
 20
131.465618
 11
40.952359
 21
131.459410
  0
LINE
  8
1
 62
7
  6
CONTINUOUS
 10
40.952359
 20
131.459410
 11
40.866575
 21
131.446662
  0
LINE
  8
1
 62
7
  6
CONTINUOUS
 10
40.866575
 20
131.446662
 11
40.782490
 21
131.427470
  0
LINE
  8
1
 62
7
  6
CONTINUOUS
 10
40.782490
 20
131.427470
 11
40.700745
 21
131.401980
  0
LINE
  8
1
 62
7
  6
CONTINUOUS
 10
40.700745
 20
131.401980
 11
40.621962
 21
131.370387
  0
LINE
  8
1
 62
7
  6
CONTINUOUS
 10
40.621962
 20
131.370387
 11
40.546740
 21
131.332930
  0
LINE
  8
1
 62
7
  6
CONTINUOUS
 10
40.546740
 20
131.332930
 11
40.475652
 21
131.289895
  0
LINE
  8
1
 62
7
  6
CONTINUOUS
 10
40.475652
 20
131.289895
 11
40.409239
 21
131.241609
  0
LINE
  8
1
 62
7
  6
CONTINUOUS
 10
40.409239
 20
131.241609
 11
40.348006
 21
131.188441
  0
LINE
  8
1
 62
7
  6
CONTINUOUS
 10
40.348006
 20
131.188441
 11
40.292420
 21
131.130793
  0
LINE
  8
1
 62
7
  6
CONTINUOUS
 10
40.292420
 20
131.130793
 11
40.242903
 21
131.069106
  0
LINE
  8
1
 62
7
  6
CONTINUOUS
 10
40.242903
 20
131.069106
 11
40.199832
 21
131.003849
  0
LINE
  8
1
 62
7
  6
CONTINUOUS
 10
40.199832
 20
131.003849
 11
40.163535
 21
130.935518
  0
LINE
  8
1
 62
7
  6
CONTINUOUS
 10
40.163535
 20
130.935518
 11
40.134289
 21
130.864633
  0
LINE
  8
1
 62
7
  6
CONTINUOUS
 10
40.134289
 20
130.864633
 11
40.112315
 21
130.791734
  0
LINE
  8
1
 62
7
  6
CONTINUOUS
 10
40.112315
 20
130.791734
 11
40.097781
 21
130.717376
  0
LINE
  8
1
 62
7
  6
CONTINUOUS
 10
40.097781
 20
130.717376
 11
40.090799
 21
130.642124
  0
LINE
  8
1
 62
7
  6
DASHDOT
 10
42.482141
 20
130.656240
 11
39.506543
 21
130.656240
  0
LINE
  8
1
 62
7
  6
DASHDOT
 10
34.339910
 20
126.869152
 11
34.339910
 21
129.907242
  0
LINE
  8
1
 62
7
  6
DASHDOT
 10
33.589910
 20
122.153312
 11
33.589910
 21
125.826226
  0
LINE
  8
1
 62
7
  6
DASHDOT
 10
41.089910
 20
122.153312
 11
41.089910
 21
125.826226
  0
LINE
  8
1
 62
7
  6
DASHDOT
 10
33.589910
 20
132.131355
 11
33.589910
 21
135.115342
  0
LINE
  8
1
 62
7
  6
CONTINUOUS
 10
49.789910
 20
133.406240
 11
54.589910
 21
133.406240
  0
LINE
  8
1
 62
7
  6
CONTINUOUS
 10
54.589910
 20
123.406240
 11
30.589910
 21
123.406240
  0
LINE
  8
1
 62
7
  6
CONTINUOUS
 10
52.589910
 20
126.226791
 11
48.589910
 21
126.226791
  0
LINE
  8
1
 62
7
  6
CONTINUOUS
 10
52.589910
 20
126.226791
 11
52.589910
 21
128.406240
  0
LINE
  8
1
 62
7
  6
CONTINUOUS
 10
48.589910
 20
126.226791
 11
48.589910
 21
128.406240
  0
LINE
  8
1
 62
7
  6
CONTINUOUS
 10
50.589910
 20
128.406240
 11
48.589910
 21
126.226791
  0
LINE
  8
1
 62
7
  6
CONTINUOUS
 10
50.589910
 20
128.406240
 11
52.589910
 21
126.226791
  0
LINE
  8
1
 62
7
  6
CONTINUOUS
 10
50.589910
 20
128.406240
 11
48.589910
 21
130.585690
  0
LINE
  8
1
 62
7
  6
CONTINUOUS
 10
50.589910
 20
128.406240
 11
52.589910
 21
130.585690
  0
LINE
  8
1
 62
7
  6
CONTINUOUS
 10
29.589910
 20
125.406240
 11
28.589910
 21
125.406240
  0
LINE
  8
1
 62
7
  6
CONTINUOUS
 10
27.589910
 20
125.406240
 11
26.589910
 21
125.406240
  0
LINE
  8
1
 62
7
  6
CONTINUOUS
 10
25.589910
 20
125.406240
 11
24.589910
 21
125.406240
  0
LINE
  8
1
 62
7
  6
CONTINUOUS
 10
23.589910
 20
125.406240
 11
22.589910
 21
125.406240
  0
LINE
  8
1
 62
7
  6
CONTINUOUS
 10
21.589910
 20
125.406240
 11
20.589910
 21
125.406240
  0
LINE
  8
1
 62
7
  6
CONTINUOUS
 10
19.589910
 20
125.406240
 11
18.589910
 21
125.406240
  0
LINE
  8
1
 62
7
  6
CONTINUOUS
 10
17.589910
 20
125.406240
 11
16.589910
 21
125.406240
  0
LINE
  8
1
 62
7
  6
CONTINUOUS
 10
15.589910
 20
125.406240
 11
14.589910
 21
125.406240
  0
LINE
  8
1
 62
7
  6
CONTINUOUS
 10
13.589910
 20
125.406240
 11
12.589910
 21
125.406240
  0
LINE
  8
1
 62
7
  6
CONTINUOUS
 10
11.589910
 20
125.906240
 11
11.589910
 21
125.406240
  0
LINE
  8
1
 62
7
  6
CONTINUOUS
 10
28.589910
 20
131.406240
 11
27.589910
 21
131.406240
  0
LINE
  8
1
 62
7
  6
CONTINUOUS
 10
26.589910
 20
131.406240
 11
25.589910
 21
131.406240
  0
LINE
  8
1
 62
7
  6
CONTINUOUS
 10
24.589910
 20
131.406240
 11
23.589910
 21
131.406240
  0
LINE
  8
1
 62
7
  6
CONTINUOUS
 10
20.589910
 20
131.406240
 11
19.589910
 21
131.406240
  0
LINE
  8
1
 62
7
  6
CONTINUOUS
 10
18.589910
 20
131.406240
 11
17.589910
 21
131.406240
  0
LINE
  8
1
 62
7
  6
CONTINUOUS
 10
16.589910
 20
131.406240
 11
15.589910
 21
131.406240
  0
LINE
  8
1
 62
7
  6
CONTINUOUS
 10
14.589910
 20
131.406240
 11
13.589910
 21
131.406240
  0
LINE
  8
1
 62
7
  6
CONTINUOUS
 10
12.589910
 20
131.406240
 11
11.589910
 21
131.406240
  0
LINE
  8
1
 62
7
  6
CONTINUOUS
 10
29.589910
 20
125.406240
 11
28.589910
 21
131.406240
  0
LINE
  8
1
 62
7
  6
CONTINUOUS
 10
28.589910
 20
125.406240
 11
27.589910
 21
131.406240
  0
LINE
  8
1
 62
7
  6
CONTINUOUS
 10
27.589910
 20
125.406240
 11
26.589910
 21
131.406240
  0
LINE
  8
1
 62
7
  6
CONTINUOUS
 10
26.589910
 20
125.406240
 11
25.589910
 21
131.406240
  0
LINE
  8
1
 62
7
  6
CONTINUOUS
 10
25.589910
 20
125.406240
 11
24.589910
 21
131.406240
  0
LINE
  8
1
 62
7
  6
CONTINUOUS
 10
24.589910
 20
125.406240
 11
23.589910
 21
131.406240
  0
LINE
  8
1
 62
7
  6
CONTINUOUS
 10
23.589910
 20
125.406240
 11
22.589910
 21
131.406240
  0
LINE
  8
1
 62
7
  6
CONTINUOUS
 10
22.589910
 20
125.406240
 11
21.589910
 21
131.406240
  0
LINE
  8
1
 62
7
  6
CONTINUOUS
 10
21.589910
 20
125.406240
 11
20.589910
 21
131.406240
  0
LINE
  8
1
 62
7
  6
CONTINUOUS
 10
20.589910
 20
125.406240
 11
19.589910
 21
131.406240
  0
LINE
  8
1
 62
7
  6
CONTINUOUS
 10
19.589910
 20
125.406240
 11
18.589910
 21
131.406240
  0
LINE
  8
1
 62
7
  6
CONTINUOUS
 10
18.589910
 20
125.406240
 11
17.589910
 21
131.406240
  0
LINE
  8
1
 62
7
  6
CONTINUOUS
 10
17.589910
 20
125.406240
 11
16.589910
 21
131.406240
  0
LINE
  8
1
 62
7
  6
CONTINUOUS
 10
16.589910
 20
125.406240
 11
15.589910
 21
131.406240
  0
LINE
  8
1
 62
7
  6
CONTINUOUS
 10
15.589910
 20
125.406240
 11
14.589910
 21
131.406240
  0
LINE
  8
1
 62
7
  6
CONTINUOUS
 10
14.589910
 20
125.406240
 11
13.589910
 21
131.406240
  0
LINE
  8
1
 62
7
  6
CONTINUOUS
 10
13.589910
 20
125.406240
 11
12.589910
 21
131.406240
  0
LINE
  8
1
 62
7
  6
CONTINUOUS
 10
12.589910
 20
125.406240
 11
11.589910
 21
131.406240
  0
LINE
  8
1
 62
7
  6
CONTINUOUS
 10
11.589910
 20
125.906240
 11
11.589910
 21
131.406240
  0
LINE
  8
1
 62
7
  6
CONTINUOUS
 10
30.589910
 20
125.906240
 11
29.506577
 21
125.906240
  0
LINE
  8
1
 62
7
  6
CONTINUOUS
 10
28.506577
 20
125.906240
 11
27.506577
 21
125.906240
  0
LINE
  8
1
 62
7
  6
CONTINUOUS
 10
26.506577
 20
125.906240
 11
25.506577
 21
125.906240
  0
LINE
  8
1
 62
7
  6
CONTINUOUS
 10
24.506577
 20
125.906240
 11
23.506577
 21
125.906240
  0
LINE
  8
1
 62
7
  6
CONTINUOUS
 10
22.506577
 20
125.906240
 11
21.506577
 21
125.906240
  0
LINE
  8
1
 62
7
  6
CONTINUOUS
 10
20.506577
 20
125.906240
 11
19.506577
 21
125.906240
  0
LINE
  8
1
 62
7
  6
CONTINUOUS
 10
18.506577
 20
125.906240
 11
17.506577
 21
125.906240
  0
LINE
  8
1
 62
7
  6
CONTINUOUS
 10
16.506577
 20
125.906240
 11
15.506577
 21
125.906240
  0
LINE
  8
1
 62
7
  6
CONTINUOUS
 10
14.506577
 20
125.906240
 11
13.506577
 21
125.906240
  0
LINE
  8
1
 62
7
  6
CONTINUOUS
 10
12.506577
 20
125.906240
 11
11.589910
 21
125.906240
  0
LINE
  8
1
 62
7
  6
CONTINUOUS
 10
13.673244
 20
130.906240
 11
12.673244
 21
130.906240
  0
LINE
  8
1
 62
7
  6
CONTINUOUS
 10
15.673244
 20
130.906240
 11
14.673244
 21
130.906240
  0
LINE
  8
1
 62
7
  6
CONTINUOUS
 10
17.573670
 20
130.906240
 11
16.673244
 21
130.906240
  0
LINE
  8
1
 62
7
  6
CONTINUOUS
 10
19.673244
 20
130.906240
 11
18.673244
 21
130.906240
  0
LINE
  8
1
 62
7
  6
CONTINUOUS
 10
21.673244
 20
130.906240
 11
20.673244
 21
130.906240
  0
LINE
  8
1
 62
7
  6
CONTINUOUS
 10
23.673244
 20
130.906240
 11
22.673244
 21
130.906240
  0
LINE
  8
1
 62
7
  6
CONTINUOUS
 10
25.673244
 20
130.906240
 11
24.673244
 21
130.906240
  0
LINE
  8
1
 62
7
  6
CONTINUOUS
 10
27.673244
 20
130.906240
 11
26.673244
 21
130.906240
  0
LINE
  8
1
 62
7
  6
CONTINUOUS
 10
29.573670
 20
130.906240
 11
28.673244
 21
130.906240
  0
LINE
  8
1
 62
7
  6
CONTINUOUS
 10
30.589910
 20
125.906240
 11
29.489123
 21
131.410177
  0
LINE
  8
1
 62
7
  6
CONTINUOUS
 10
30.503292
 20
131.406240
 11
29.489910
 21
131.406240
  0
LINE
  8
1
 62
7
  6
CONTINUOUS
 10
29.598645
 20
130.906240
 11
29.589910
 21
130.906240
  0
LINE
  8
1
 62
7
  6
CONTINUOUS
 10
22.589910
 20
131.406240
 11
21.589910
 21
131.406240
  0
LINE
  8
2
 62
134
  6
CONTINUOUS
 10
11.050463
 20
105.681165
 11
54.589910
 21
105.681165
  0
LINE
  8
1
 62
7
  6
CONTINUOUS
 10
149.965776
 20
80.104201
 11
127.697750
 21
80.104201
  0
LINE
  8
1
 62
7
  6
CONTINUOUS
 10
127.697750
 20
76.304201
 11
150.338693
 21
76.304201
  0
LINE
  8
1
 62
7
  6
CONTINUOUS
 10
96.185733
 20
84.204201
 11
96.185733
 21
72.204201
  0
LINE
  8
1
 62
7
  6
CONTINUOUS
 10
96.185733
 20
72.204201
 11
97.353825
 21
72.204201
  0
LINE
  8
1
 62
7
  6
CONTINUOUS
 10
97.353825
 20
72.204201
 11
97.353825
 21
84.204201
  0
LINE
  8
1
 62
7
  6
CONTINUOUS
 10
97.353825
 20
84.204201
 11
96.185733
 21
84.204201
  0
LINE
  8
1
 62
7
  6
CONTINUOUS
 10
95.589910
 20
83.954201
 11
96.185733
 21
83.954201
  0
LINE
  8
1
 62
7
  6
CONTINUOUS
 10
95.589910
 20
72.454201
 11
96.185733
 21
72.454201
  0
LINE
  8
1
 62
7
  6
CONTINUOUS
 10
98.358159
 20
84.504201
 11
98.358159
 21
71.904201
  0
LINE
  8
1
 62
7
  6
CONTINUOUS
 10
98.358159
 20
71.904201
 11
104.467243
 21
71.904201
  0
LINE
  8
1
 62
7
  6
CONTINUOUS
 10
104.467243
 20
71.904201
 11
104.467243
 21
84.504201
  0
LINE
  8
1
 62
7
  6
CONTINUOUS
 10
104.467243
 20
84.504201
 11
98.358159
 21
84.504201
  0
LINE
  8
1
 62
7
  6
CONTINUOUS
 10
104.467243
 20
84.504201
 11
111.485117
 21
84.504201
  0
LINE
  8
1
 62
7
  6
CONTINUOUS
 10
111.485117
 20
84.504201
 11
111.485117
 21
71.904201
  0
LINE
  8
1
 62
7
  6
CONTINUOUS
 10
111.485117
 20
71.904201
 11
104.467243
 21
71.904201
  0
LINE
  8
1
 62
7
  6
CONTINUOUS
 10
111.485117
 20
83.204201
 11
124.545668
 21
83.204201
  0
LINE
  8
1
 62
7
  6
CONTINUOUS
 10
124.545668
 20
83.204201
 11
124.545668
 21
73.204201
  0
LINE
  8
1
 62
7
  6
CONTINUOUS
 10
124.545668
 20
73.204201
 11
111.485117
 21
73.204201
  0
LINE
  8
1
 62
7
  6
CONTINUOUS
 10
127.697750
 20
81.454201
 11
127.697750
 21
74.954201
  0
LINE
  8
1
 62
7
  6
CONTINUOUS
 10
127.697750
 20
81.454201
 11
124.545668
 21
83.204201
  0
LINE
  8
1
 62
7
  6
CONTINUOUS
 10
127.697750
 20
74.954201
 11
124.545668
 21
73.204201
  0
LINE
  8
1
 62
7
  6
CONTINUOUS
 10
98.358159
 20
83.954201
 11
97.883033
 21
83.954201
  0
LINE
  8
1
 62
7
  6
CONTINUOUS
 10
97.883033
 20
83.954201
 11
97.883033
 21
72.454201
  0
LINE
  8
1
 62
7
  6
CONTINUOUS
 10
97.883033
 20
72.454201
 11
98.358159
 21
72.454201
  0
LINE
  8
1
 62
7
  6
CONTINUOUS
 10
97.353825
 20
82.704201
 11
97.883033
 21
82.704201
  0
LINE
  8
1
 62
7
  6
CONTINUOUS
 10
97.353825
 20
73.704201
 11
97.883033
 21
73.704201
  0
LINE
  8
1
 62
7
  6
CONTINUOUS
 10
105.403827
 20
84.504201
 11
105.403827
 21
71.904201
  0
LINE
  8
1
 62
7
  6
CONTINUOUS
 10
106.340411
 20
84.504201
 11
106.340411
 21
71.904201
  0
LINE
  8
1
 62
7
  6
CONTINUOUS
 10
107.276995
 20
84.504201
 11
107.276995
 21
71.904201
  0
LINE
  8
1
 62
7
  6
CONTINUOUS
 10
108.213578
 20
84.504201
 11
108.213578
 21
71.904201
  0
LINE
  8
1
 62
7
  6
CONTINUOUS
 10
109.150162
 20
84.504201
 11
109.150162
 21
71.904201
  0
LINE
  8
1
 62
7
  6
CONTINUOUS
 10
110.086746
 20
84.504201
 11
110.086746
 21
71.904201
  0
LINE
  8
1
 62
7
  6
CONTINUOUS
 10
111.023329
 20
84.504201
 11
111.023329
 21
71.904201
  0
DIMENSION
  8
2
 62
134
  6
CONTINUOUS
  2
*D7
 10
95.589910
 20
88.954970
 11
111.070826
 21
88.954970
 70
     0
  1
33
 13
95.589910
 23
87.133680
 14
127.697750
 24
82.104201
 50
0.000000
  0
LINE
  8
1
 62
7
  6
CONTINUOUS
 10
30.589910
 20
73.204201
 11
30.589910
 21
83.204201
  0
LINE
  8
1
 62
7
  6
DASHDOT
 10
41.089910
 20
79.061970
 11
41.089910
 21
82.537569
  0
LINE
  8
1
 62
7
  6
CONTINUOUS
 10
30.589910
 20
83.204201
 11
49.789910
 21
83.204201
  0
CIRCLE
  8
1
 62
7
  6
CONTINUOUS
 10
34.339910
 20
78.204201
 40
1.000000
  0
CIRCLE
  8
1
 62
7
  6
CONTINUOUS
 10
34.339910
 20
78.204201
 40
0.782631
  0
LINE
  8
1
 62
7
  6
CONTINUOUS
 10
40.290712
 20
80.454165
 11
40.291051
 21
80.393706
  0
LINE
  8
1
 62
7
  6
CONTINUOUS
 10
40.291051
 20
80.393706
 11
40.297469
 21
80.333435
  0
LINE
  8
1
 62
7
  6
CONTINUOUS
 10
40.297469
 20
80.333435
 11
40.309918
 21
80.273810
  0
LINE
  8
1
 62
7
  6
CONTINUOUS
 10
40.309918
 20
80.273810
 11
40.328304
 21
80.215285
  0
LINE
  8
1
 62
7
  6
CONTINUOUS
 10
40.328304
 20
80.215285
 11
40.352486
 21
80.158305
  0
LINE
  8
1
 62
7
  6
CONTINUOUS
 10
40.352486
 20
80.158305
 11
40.382280
 21
80.103305
  0
LINE
  8
1
 62
7
  6
CONTINUOUS
 10
40.382280
 20
80.103305
 11
40.417460
 21
80.050703
  0
LINE
  8
1
 62
7
  6
CONTINUOUS
 10
40.417460
 20
80.050703
 11
40.457757
 21
80.000898
  0
LINE
  8
1
 62
7
  6
CONTINUOUS
 10
40.457757
 20
80.000898
 11
40.502866
 21
79.954271
  0
LINE
  8
1
 62
7
  6
CONTINUOUS
 10
40.502866
 20
79.954271
 11
40.552442
 21
79.911176
  0
LINE
  8
1
 62
7
  6
CONTINUOUS
 10
40.552442
 20
79.911176
 11
40.606109
 21
79.871940
  0
LINE
  8
1
 62
7
  6
CONTINUOUS
 10
40.606109
 20
79.871940
 11
40.663457
 21
79.836864
  0
LINE
  8
1
 62
7
  6
CONTINUOUS
 10
40.663457
 20
79.836864
 11
40.724052
 21
79.806213
  0
LINE
  8
1
 62
7
  6
CONTINUOUS
 10
40.724052
 20
79.806213
 11
40.787430
 21
79.780220
  0
LINE
  8
1
 62
7
  6
CONTINUOUS
 10
40.787430
 20
79.780220
 11
40.853111
 21
79.759085
  0
LINE
  8
1
 62
7
  6
CONTINUOUS
 10
40.853111
 20
79.759085
 11
40.920594
 21
79.742966
  0
LINE
  8
1
 62
7
  6
CONTINUOUS
 10
40.920594
 20
79.742966
 11
40.989365
 21
79.731988
  0
LINE
  8
1
 62
7
  6
CONTINUOUS
 10
40.989365
 20
79.731988
 11
41.058902
 21
79.726234
  0
LINE
  8
1
 62
7
  6
CONTINUOUS
 10
41.058902
 20
79.726234
 11
41.128675
 21
79.725747
  0
LINE
  8
1
 62
7
  6
CONTINUOUS
 10
41.128675
 20
79.725747
 11
41.198153
 21
79.730531
  0
LINE
  8
1
 62
7
  6
CONTINUOUS
 10
41.198153
 20
79.730531
 11
41.266806
 21
79.740551
  0
LINE
  8
1
 62
7
  6
CONTINUOUS
 10
41.266806
 20
79.740551
 11
41.334114
 21
79.755728
  0
LINE
  8
1
 62
7
  6
CONTINUOUS
 10
41.334114
 20
79.755728
 11
41.399563
 21
79.775949
  0
LINE
  8
1
 62
7
  6
CONTINUOUS
 10
41.399563
 20
79.775949
 11
41.462656
 21
79.801059
  0
LINE
  8
1
 62
7
  6
CONTINUOUS
 10
41.462656
 20
79.801059
 11
41.522911
 21
79.830867
  0
LINE
  8
1
 62
7
  6
CONTINUOUS
 10
41.522911
 20
79.830867
 11
41.579871
 21
79.865146
  0
LINE
  8
1
 62
7
  6
CONTINUOUS
 10
41.579871
 20
79.865146
 11
41.633103
 21
79.903635
  0
LINE
  8
1
 62
7
  6
CONTINUOUS
 10
41.633103
 20
79.903635
 11
41.682200
 21
79.946042
  0
LINE
  8
1
 62
7
  6
CONTINUOUS
 10
41.682200
 20
79.946042
 11
41.726790
 21
79.992043
  0
LINE
  8
1
 62
7
  6
CONTINUOUS
 10
41.726790
 20
79.992043
 11
41.766532
 21
80.041289
  0
LINE
  8
1
 62
7
  6
CONTINUOUS
 10
41.766532
 20
80.041289
 11
41.801125
 21
80.093404
  0
LINE
  8
1
 62
7
  6
CONTINUOUS
 10
41.801125
 20
80.093404
 11
41.830306
 21
80.147993
  0
LINE
  8
1
 62
7
  6
CONTINUOUS
 10
41.830306
 20
80.147993
 11
41.853851
 21
80.204640
  0
LINE
  8
1
 62
7
  6
CONTINUOUS
 10
41.853851
 20
80.204640
 11
41.871582
 21
80.262912
  0
LINE
  8
1
 62
7
  6
CONTINUOUS
 10
41.871582
 20
80.262912
 11
41.883365
 21
80.322368
  0
LINE
  8
1
 62
7
  6
CONTINUOUS
 10
41.883365
 20
80.322368
 11
41.889109
 21
80.382555
  0
LINE
  8
1
 62
7
  6
CONTINUOUS
 10
41.889109
 20
80.382555
 11
41.888770
 21
80.443014
  0
LINE
  8
1
 62
7
  6
CONTINUOUS
 10
41.888770
 20
80.443014
 11
41.882351
 21
80.503285
  0
LINE
  8
1
 62
7
  6
CONTINUOUS
 10
41.882351
 20
80.503285
 11
41.869902
 21
80.562910
  0
LINE
  8
1
 62
7
  6
CONTINUOUS
 10
41.869902
 20
80.562910
 11
41.851516
 21
80.621435
  0
LINE
  8
1
 62
7
  6
CONTINUOUS
 10
41.851516
 20
80.621435
 11
41.827335
 21
80.678415
  0
LINE
  8
1
 62
7
  6
CONTINUOUS
 10
41.827335
 20
80.678415
 11
41.797540
 21
80.733415
  0
LINE
  8
1
 62
7
  6
CONTINUOUS
 10
41.797540
 20
80.733415
 11
41.762361
 21
80.786017
  0
LINE
  8
1
 62
7
  6
CONTINUOUS
 10
41.762361
 20
80.786017
 11
41.722063
 21
80.835822
  0
LINE
  8
1
 62
7
  6
CONTINUOUS
 10
41.722063
 20
80.835822
 11
41.676955
 21
80.882449
  0
LINE
  8
1
 62
7
  6
CONTINUOUS
 10
41.676955
 20
80.882449
 11
41.627379
 21
80.925544
  0
LINE
  8
1
 62
7
  6
CONTINUOUS
 10
41.627379
 20
80.925544
 11
41.573712
 21
80.964780
  0
LINE
  8
1
 62
7
  6
CONTINUOUS
 10
41.573712
 20
80.964780
 11
41.516363
 21
80.999856
  0
LINE
  8
1
 62
7
  6
CONTINUOUS
 10
41.516363
 20
80.999856
 11
41.455769
 21
81.030507
  0
LINE
  8
1
 62
7
  6
CONTINUOUS
 10
41.455769
 20
81.030507
 11
41.392390
 21
81.056500
  0
LINE
  8
1
 62
7
  6
CONTINUOUS
 10
41.392390
 20
81.056500
 11
41.326710
 21
81.077635
  0
LINE
  8
1
 62
7
  6
CONTINUOUS
 10
41.326710
 20
81.077635
 11
41.259227
 21
81.093754
  0
LINE
  8
1
 62
7
  6
CONTINUOUS
 10
41.259227
 20
81.093754
 11
41.190455
 21
81.104732
  0
LINE
  8
1
 62
7
  6
CONTINUOUS
 10
41.190455
 20
81.104732
 11
41.120918
 21
81.110486
  0
LINE
  8
1
 62
7
  6
CONTINUOUS
 10
41.120918
 20
81.110486
 11
41.051146
 21
81.110973
  0
LINE
  8
1
 62
7
  6
CONTINUOUS
 10
41.051146
 20
81.110973
 11
40.981668
 21
81.106189
  0
LINE
  8
1
 62
7
  6
CONTINUOUS
 10
40.981668
 20
81.106189
 11
40.913014
 21
81.096169
  0
LINE
  8
1
 62
7
  6
CONTINUOUS
 10
40.913014
 20
81.096169
 11
40.845706
 21
81.080992
  0
LINE
  8
1
 62
7
  6
CONTINUOUS
 10
40.845706
 20
81.080992
 11
40.780257
 21
81.060771
  0
LINE
  8
1
 62
7
  6
CONTINUOUS
 10
40.780257
 20
81.060771
 11
40.717165
 21
81.035661
  0
LINE
  8
1
 62
7
  6
CONTINUOUS
 10
40.717165
 20
81.035661
 11
40.656909
 21
81.005853
  0
LINE
  8
1
 62
7
  6
CONTINUOUS
 10
40.656909
 20
81.005853
 11
40.599949
 21
80.971574
  0
LINE
  8
1
 62
7
  6
CONTINUOUS
 10
40.599949
 20
80.971574
 11
40.546718
 21
80.933085
  0
LINE
  8
1
 62
7
  6
CONTINUOUS
 10
40.546718
 20
80.933085
 11
40.497620
 21
80.890678
  0
LINE
  8
1
 62
7
  6
CONTINUOUS
 10
40.497620
 20
80.890678
 11
40.453031
 21
80.844677
  0
LINE
  8
1
 62
7
  6
CONTINUOUS
 10
40.453031
 20
80.844677
 11
40.413288
 21
80.795431
  0
LINE
  8
1
 62
7
  6
CONTINUOUS
 10
40.413288
 20
80.795431
 11
40.378695
 21
80.743316
  0
LINE
  8
1
 62
7
  6
CONTINUOUS
 10
40.378695
 20
80.743316
 11
40.349515
 21
80.688727
  0
LINE
  8
1
 62
7
  6
CONTINUOUS
 10
40.349515
 20
80.688727
 11
40.325969
 21
80.632080
  0
LINE
  8
1
 62
7
  6
CONTINUOUS
 10
40.325969
 20
80.632080
 11
40.308238
 21
80.573808
  0
LINE
  8
1
 62
7
  6
CONTINUOUS
 10
40.308238
 20
80.573808
 11
40.296456
 21
80.514352
  0
LINE
  8
1
 62
7
  6
CONTINUOUS
 10
40.296456
 20
80.514352
 11
40.290712
 21
80.454165
  0
LINE
  8
1
 62
7
  6
CONTINUOUS
 10
40.090799
 20
80.440085
 11
40.091420
 21
80.364513
  0
LINE
  8
1
 62
7
  6
CONTINUOUS
 10
40.091420
 20
80.364513
 11
40.099640
 21
80.289195
  0
LINE
  8
1
 62
7
  6
CONTINUOUS
 10
40.099640
 20
80.289195
 11
40.115396
 21
80.214705
  0
LINE
  8
1
 62
7
  6
CONTINUOUS
 10
40.115396
 20
80.214705
 11
40.138570
 21
80.141609
  0
LINE
  8
1
 62
7
  6
CONTINUOUS
 10
40.138570
 20
80.141609
 11
40.168983
 21
80.070464
  0
LINE
  8
1
 62
7
  6
CONTINUOUS
 10
40.168983
 20
80.070464
 11
40.206406
 21
80.001811
  0
LINE
  8
1
 62
7
  6
CONTINUOUS
 10
40.206406
 20
80.001811
 11
40.250552
 21
79.936173
  0
LINE
  8
1
 62
7
  6
CONTINUOUS
 10
40.250552
 20
79.936173
 11
40.301087
 21
79.874050
  0
LINE
  8
1
 62
7
  6
CONTINUOUS
 10
40.301087
 20
79.874050
 11
40.357624
 21
79.815913
  0
LINE
  8
1
 62
7
  6
CONTINUOUS
 10
40.357624
 20
79.815913
 11
40.419735
 21
79.762207
  0
LINE
  8
1
 62
7
  6
CONTINUOUS
 10
40.419735
 20
79.762207
 11
40.486947
 21
79.713338
  0
LINE
  8
1
 62
7
  6
CONTINUOUS
 10
40.486947
 20
79.713338
 11
40.558747
 21
79.669680
  0
LINE
  8
1
 62
7
  6
CONTINUOUS
 10
40.558747
 20
79.669680
 11
40.634590
 21
79.631564
  0
LINE
  8
1
 62
7
  6
CONTINUOUS
 10
40.634590
 20
79.631564
 11
40.713898
 21
79.599281
  0
LINE
  8
1
 62
7
  6
CONTINUOUS
 10
40.713898
 20
79.599281
 11
40.796068
 21
79.573076
  0
LINE
  8
1
 62
7
  6
CONTINUOUS
 10
40.796068
 20
79.573076
 11
40.880474
 21
79.553149
  0
LINE
  8
1
 62
7
  6
CONTINUOUS
 10
40.880474
 20
79.553149
 11
40.966474
 21
79.539652
  0
LINE
  8
1
 62
7
  6
CONTINUOUS
 10
40.966474
 20
79.539652
 11
41.053413
 21
79.532686
  0
LINE
  8
1
 62
7
  6
CONTINUOUS
 10
41.053413
 20
79.532686
 11
41.140630
 21
79.532306
  0
LINE
  8
1
 62
7
  6
CONTINUOUS
 10
41.140630
 20
79.532306
 11
41.227462
 21
79.538513
  0
LINE
  8
1
 62
7
  6
CONTINUOUS
 10
41.227462
 20
79.538513
 11
41.313246
 21
79.551262
  0
LINE
  8
1
 62
7
  6
CONTINUOUS
 10
41.313246
 20
79.551262
 11
41.397331
 21
79.570454
  0
LINE
  8
1
 62
7
  6
CONTINUOUS
 10
41.397331
 20
79.570454
 11
41.479076
 21
79.595943
  0
LINE
  8
1
 62
7
  6
CONTINUOUS
 10
41.479076
 20
79.595943
 11
41.557859
 21
79.627537
  0
LINE
  8
1
 62
7
  6
CONTINUOUS
 10
41.557859
 20
79.627537
 11
41.633081
 21
79.664994
  0
LINE
  8
1
 62
7
  6
CONTINUOUS
 10
41.633081
 20
79.664994
 11
41.704168
 21
79.708028
  0
LINE
  8
1
 62
7
  6
CONTINUOUS
 10
41.704168
 20
79.708028
 11
41.770582
 21
79.756314
  0
LINE
  8
1
 62
7
  6
CONTINUOUS
 10
41.770582
 20
79.756314
 11
41.831814
 21
79.809483
  0
LINE
  8
1
 62
7
  6
CONTINUOUS
 10
41.831814
 20
79.809483
 11
41.887401
 21
79.867130
  0
LINE
  8
1
 62
7
  6
CONTINUOUS
 10
41.887401
 20
79.867130
 11
41.936918
 21
79.928817
  0
LINE
  8
1
 62
7
  6
CONTINUOUS
 10
41.936918
 20
79.928817
 11
41.979989
 21
79.994075
  0
LINE
  8
1
 62
7
  6
CONTINUOUS
 10
41.979989
 20
79.994075
 11
42.016285
 21
80.062406
  0
LINE
  8
1
 62
7
  6
CONTINUOUS
 10
42.016285
 20
80.062406
 11
42.045532
 21
80.133290
  0
LINE
  8
1
 62
7
  6
CONTINUOUS
 10
42.045532
 20
80.133290
 11
42.067505
 21
80.206189
  0
LINE
  8
1
 62
7
  6
CONTINUOUS
 10
42.067505
 20
80.206189
 11
42.082039
 21
80.280547
  0
LINE
  8
1
 62
7
  6
CONTINUOUS
 10
42.082039
 20
80.280547
 11
42.089022
 21
80.355799
  0
LINE
  8
1
 62
7
  6
CONTINUOUS
 10
42.089022
 20
80.355799
 11
42.088401
 21
80.431371
  0
LINE
  8
1
 62
7
  6
CONTINUOUS
 10
42.088401
 20
80.431371
 11
42.080181
 21
80.506689
  0
LINE
  8
1
 62
7
  6
CONTINUOUS
 10
42.080181
 20
80.506689
 11
42.064424
 21
80.581180
  0
LINE
  8
1
 62
7
  6
CONTINUOUS
 10
42.064424
 20
80.581180
 11
42.041251
 21
80.654276
  0
LINE
  8
1
 62
7
  6
CONTINUOUS
 10
42.041251
 20
80.654276
 11
42.010837
 21
80.725420
  0
LINE
  8
1
 62
7
  6
CONTINUOUS
 10
42.010837
 20
80.725420
 11
41.973415
 21
80.794073
  0
LINE
  8
1
 62
7
  6
CONTINUOUS
 10
41.973415
 20
80.794073
 11
41.929268
 21
80.859711
  0
LINE
  8
1
 62
7
  6
CONTINUOUS
 10
41.929268
 20
80.859711
 11
41.878734
 21
80.921834
  0
LINE
  8
1
 62
7
  6
CONTINUOUS
 10
41.878734
 20
80.921834
 11
41.822196
 21
80.979971
  0
LINE
  8
1
 62
7
  6
CONTINUOUS
 10
41.822196
 20
80.979971
 11
41.760085
 21
81.033678
  0
LINE
  8
1
 62
7
  6
CONTINUOUS
 10
41.760085
 20
81.033678
 11
41.692874
 21
81.082546
  0
LINE
  8
1
 62
7
  6
CONTINUOUS
 10
41.692874
 20
81.082546
 11
41.621073
 21
81.126204
  0
LINE
  8
1
 62
7
  6
CONTINUOUS
 10
41.621073
 20
81.126204
 11
41.545231
 21
81.164320
  0
LINE
  8
1
 62
7
  6
CONTINUOUS
 10
41.545231
 20
81.164320
 11
41.465922
 21
81.196603
  0
LINE
  8
1
 62
7
  6
CONTINUOUS
 10
41.465922
 20
81.196603
 11
41.383753
 21
81.222808
  0
LINE
  8
1
 62
7
  6
CONTINUOUS
 10
41.383753
 20
81.222808
 11
41.299347
 21
81.242735
  0
LINE
  8
1
 62
7
  6
CONTINUOUS
 10
41.299347
 20
81.242735
 11
41.213347
 21
81.256233
  0
LINE
  8
1
 62
7
  6
CONTINUOUS
 10
41.213347
 20
81.256233
 11
41.126407
 21
81.263198
  0
LINE
  8
1
 62
7
  6
CONTINUOUS
 10
41.126407
 20
81.263198
 11
41.039190
 21
81.263579
  0
LINE
  8
1
 62
7
  6
CONTINUOUS
 10
41.039190
 20
81.263579
 11
40.952359
 21
81.257371
  0
LINE
  8
1
 62
7
  6
CONTINUOUS
 10
40.952359
 20
81.257371
 11
40.866575
 21
81.244623
  0
LINE
  8
1
 62
7
  6
CONTINUOUS
 10
40.866575
 20
81.244623
 11
40.782490
 21
81.225431
  0
LINE
  8
1
 62
7
  6
CONTINUOUS
 10
40.782490
 20
81.225431
 11
40.700745
 21
81.199941
  0
LINE
  8
1
 62
7
  6
CONTINUOUS
 10
40.700745
 20
81.199941
 11
40.621962
 21
81.168347
  0
LINE
  8
1
 62
7
  6
CONTINUOUS
 10
40.621962
 20
81.168347
 11
40.546740
 21
81.130891
  0
LINE
  8
1
 62
7
  6
CONTINUOUS
 10
40.546740
 20
81.130891
 11
40.475652
 21
81.087856
  0
LINE
  8
1
 62
7
  6
CONTINUOUS
 10
40.475652
 20
81.087856
 11
40.409239
 21
81.039570
  0
LINE
  8
1
 62
7
  6
CONTINUOUS
 10
40.409239
 20
81.039570
 11
40.348006
 21
80.986401
  0
LINE
  8
1
 62
7
  6
CONTINUOUS
 10
40.348006
 20
80.986401
 11
40.292420
 21
80.928754
  0
LINE
  8
1
 62
7
  6
CONTINUOUS
 10
40.292420
 20
80.928754
 11
40.242903
 21
80.867067
  0
LINE
  8
1
 62
7
  6
CONTINUOUS
 10
40.242903
 20
80.867067
 11
40.199832
 21
80.801810
  0
LINE
  8
1
 62
7
  6
CONTINUOUS
 10
40.199832
 20
80.801810
 11
40.163535
 21
80.733479
  0
LINE
  8
1
 62
7
  6
CONTINUOUS
 10
40.163535
 20
80.733479
 11
40.134289
 21
80.662594
  0
LINE
  8
1
 62
7
  6
CONTINUOUS
 10
40.134289
 20
80.662594
 11
40.112315
 21
80.589695
  0
LINE
  8
1
 62
7
  6
CONTINUOUS
 10
40.112315
 20
80.589695
 11
40.097781
 21
80.515337
  0
LINE
  8
1
 62
7
  6
CONTINUOUS
 10
40.097781
 20
80.515337
 11
40.090799
 21
80.440085
  0
LINE
  8
1
 62
7
  6
DASHDOT
 10
42.482141
 20
80.454201
 11
39.506543
 21
80.454201
  0
LINE
  8
1
 62
7
  6
DASHDOT
 10
34.339910
 20
76.667113
 11
34.339910
 21
79.705202
  0
LINE
  8
1
 62
7
  6
DASHDOT
 10
33.589910
 20
71.951272
 11
33.589910
 21
75.624187
  0
LINE
  8
1
 62
7
  6
DASHDOT
 10
41.089910
 20
71.951272
 11
41.089910
 21
75.624187
  0
LINE
  8
1
 62
7
  6
DASHDOT
 10
33.589910
 20
81.929316
 11
33.589910
 21
84.913303
  0
LINE
  8
1
 62
7
  6
CONTINUOUS
 10
49.789910
 20
83.204201
 11
54.589910
 21
83.204201
  0
LINE
  8
1
 62
7
  6
CONTINUOUS
 10
54.589910
 20
73.204201
 11
30.589910
 21
73.204201
  0
LINE
  8
1
 62
7
  6
CONTINUOUS
 10
29.589910
 20
75.204201
 11
28.589910
 21
75.204201
  0
LINE
  8
1
 62
7
  6
CONTINUOUS
 10
27.589910
 20
75.204201
 11
26.589910
 21
75.204201
  0
LINE
  8
1
 62
7
  6
CONTINUOUS
 10
25.589910
 20
75.204201
 11
24.589910
 21
75.204201
  0
LINE
  8
1
 62
7
  6
CONTINUOUS
 10
23.589910
 20
75.204201
 11
22.589910
 21
75.204201
  0
LINE
  8
1
 62
7
  6
CONTINUOUS
 10
21.589910
 20
75.204201
 11
20.589910
 21
75.204201
  0
LINE
  8
1
 62
7
  6
CONTINUOUS
 10
19.589910
 20
75.204201
 11
18.589910
 21
75.204201
  0
LINE
  8
1
 62
7
  6
CONTINUOUS
 10
17.589910
 20
75.204201
 11
16.589910
 21
75.204201
  0
LINE
  8
1
 62
7
  6
CONTINUOUS
 10
15.589910
 20
75.204201
 11
14.589910
 21
75.204201
  0
LINE
  8
1
 62
7
  6
CONTINUOUS
 10
13.589910
 20
75.204201
 11
12.589910
 21
75.204201
  0
LINE
  8
1
 62
7
  6
CONTINUOUS
 10
11.589910
 20
75.704201
 11
11.589910
 21
75.204201
  0
LINE
  8
1
 62
7
  6
CONTINUOUS
 10
28.589910
 20
81.204201
 11
27.589910
 21
81.204201
  0
LINE
  8
1
 62
7
  6
CONTINUOUS
 10
26.589910
 20
81.204201
 11
25.589910
 21
81.204201
  0
LINE
  8
1
 62
7
  6
CONTINUOUS
 10
24.589910
 20
81.204201
 11
23.589910
 21
81.204201
  0
LINE
  8
1
 62
7
  6
CONTINUOUS
 10
20.589910
 20
81.204201
 11
19.589910
 21
81.204201
  0
LINE
  8
1
 62
7
  6
CONTINUOUS
 10
18.589910
 20
81.204201
 11
17.589910
 21
81.204201
  0
LINE
  8
1
 62
7
  6
CONTINUOUS
 10
16.589910
 20
81.204201
 11
15.589910
 21
81.204201
  0
LINE
  8
1
 62
7
  6
CONTINUOUS
 10
14.589910
 20
81.204201
 11
13.589910
 21
81.204201
  0
LINE
  8
1
 62
7
  6
CONTINUOUS
 10
12.589910
 20
81.204201
 11
11.589910
 21
81.204201
  0
LINE
  8
1
 62
7
  6
CONTINUOUS
 10
29.589910
 20
75.204201
 11
28.589910
 21
81.204201
  0
LINE
  8
1
 62
7
  6
CONTINUOUS
 10
28.589910
 20
75.204201
 11
27.589910
 21
81.204201
  0
LINE
  8
1
 62
7
  6
CONTINUOUS
 10
27.589910
 20
75.204201
 11
26.589910
 21
81.204201
  0
LINE
  8
1
 62
7
  6
CONTINUOUS
 10
26.589910
 20
75.204201
 11
25.589910
 21
81.204201
  0
LINE
  8
1
 62
7
  6
CONTINUOUS
 10
25.589910
 20
75.204201
 11
24.589910
 21
81.204201
  0
LINE
  8
1
 62
7
  6
CONTINUOUS
 10
24.589910
 20
75.204201
 11
23.589910
 21
81.204201
  0
LINE
  8
1
 62
7
  6
CONTINUOUS
 10
23.589910
 20
75.204201
 11
22.589910
 21
81.204201
  0
LINE
  8
1
 62
7
  6
CONTINUOUS
 10
22.589910
 20
75.204201
 11
21.589910
 21
81.204201
  0
LINE
  8
1
 62
7
  6
CONTINUOUS
 10
21.589910
 20
75.204201
 11
20.589910
 21
81.204201
  0
LINE
  8
1
 62
7
  6
CONTINUOUS
 10
20.589910
 20
75.204201
 11
19.589910
 21
81.204201
  0
LINE
  8
1
 62
7
  6
CONTINUOUS
 10
19.589910
 20
75.204201
 11
18.589910
 21
81.204201
  0
LINE
  8
1
 62
7
  6
CONTINUOUS
 10
18.589910
 20
75.204201
 11
17.589910
 21
81.204201
  0
LINE
  8
1
 62
7
  6
CONTINUOUS
 10
17.589910
 20
75.204201
 11
16.589910
 21
81.204201
  0
LINE
  8
1
 62
7
  6
CONTINUOUS
 10
16.589910
 20
75.204201
 11
15.589910
 21
81.204201
  0
LINE
  8
1
 62
7
  6
CONTINUOUS
 10
15.589910
 20
75.204201
 11
14.589910
 21
81.204201
  0
LINE
  8
1
 62
7
  6
CONTINUOUS
 10
14.589910
 20
75.204201
 11
13.589910
 21
81.204201
  0
LINE
  8
1
 62
7
  6
CONTINUOUS
 10
13.589910
 20
75.204201
 11
12.589910
 21
81.204201
  0
LINE
  8
1
 62
7
  6
CONTINUOUS
 10
12.589910
 20
75.204201
 11
11.589910
 21
81.204201
  0
LINE
  8
1
 62
7
  6
CONTINUOUS
 10
11.589910
 20
75.704201
 11
11.589910
 21
81.204201
  0
LINE
  8
1
 62
7
  6
CONTINUOUS
 10
30.589910
 20
75.704201
 11
29.506577
 21
75.704201
  0
LINE
  8
1
 62
7
  6
CONTINUOUS
 10
28.506577
 20
75.704201
 11
27.506577
 21
75.704201
  0
LINE
  8
1
 62
7
  6
CONTINUOUS
 10
26.506577
 20
75.704201
 11
25.506577
 21
75.704201
  0
LINE
  8
1
 62
7
  6
CONTINUOUS
 10
24.506577
 20
75.704201
 11
23.506577
 21
75.704201
  0
LINE
  8
1
 62
7
  6
CONTINUOUS
 10
22.506577
 20
75.704201
 11
21.506577
 21
75.704201
  0
LINE
  8
1
 62
7
  6
CONTINUOUS
 10
20.506577
 20
75.704201
 11
19.506577
 21
75.704201
  0
LINE
  8
1
 62
7
  6
CONTINUOUS
 10
18.506577
 20
75.704201
 11
17.506577
 21
75.704201
  0
LINE
  8
1
 62
7
  6
CONTINUOUS
 10
16.506577
 20
75.704201
 11
15.506577
 21
75.704201
  0
LINE
  8
1
 62
7
  6
CONTINUOUS
 10
14.506577
 20
75.704201
 11
13.506577
 21
75.704201
  0
LINE
  8
1
 62
7
  6
CONTINUOUS
 10
12.506577
 20
75.704201
 11
11.589910
 21
75.704201
  0
LINE
  8
1
 62
7
  6
CONTINUOUS
 10
13.673244
 20
80.704201
 11
12.673244
 21
80.704201
  0
LINE
  8
1
 62
7
  6
CONTINUOUS
 10
15.673244
 20
80.704201
 11
14.673244
 21
80.704201
  0
LINE
  8
1
 62
7
  6
CONTINUOUS
 10
17.573670
 20
80.704201
 11
16.673244
 21
80.704201
  0
LINE
  8
1
 62
7
  6
CONTINUOUS
 10
19.673244
 20
80.704201
 11
18.673244
 21
80.704201
  0
LINE
  8
1
 62
7
  6
CONTINUOUS
 10
21.673244
 20
80.704201
 11
20.673244
 21
80.704201
  0
LINE
  8
1
 62
7
  6
CONTINUOUS
 10
23.673244
 20
80.704201
 11
22.673244
 21
80.704201
  0
LINE
  8
1
 62
7
  6
CONTINUOUS
 10
25.673244
 20
80.704201
 11
24.673244
 21
80.704201
  0
LINE
  8
1
 62
7
  6
CONTINUOUS
 10
27.673244
 20
80.704201
 11
26.673244
 21
80.704201
  0
LINE
  8
1
 62
7
  6
CONTINUOUS
 10
29.573670
 20
80.704201
 11
28.673244
 21
80.704201
  0
LINE
  8
1
 62
7
  6
CONTINUOUS
 10
30.589910
 20
75.704201
 11
29.489123
 21
81.208138
  0
LINE
  8
1
 62
7
  6
CONTINUOUS
 10
30.503292
 20
81.204201
 11
29.489910
 21
81.204201
  0
LINE
  8
1
 62
7
  6
CONTINUOUS
 10
29.598645
 20
80.704201
 11
29.589910
 21
80.704201
  0
LINE
  8
1
 62
7
  6
CONTINUOUS
 10
22.589910
 20
81.204201
 11
21.589910
 21
81.204201
  0
LINE
  8
1
 62
7
  6
DASHDOT
 10
5.477809
 20
78.204201
 11
152.949110
 21
78.204201
  0
DIMENSION
  8
2
 62
134
  6
CONTINUOUS
  2
*D8
 10
46.030948
 20
113.406240
 11
46.030948
 21
118.938793
 70
     0
  1
15
 13
50.589910
 23
113.406240
 14
50.589910
 24
128.406240
 50
90.000000
  0
DIMENSION
  8
2
 62
134
  6
CONTINUOUS
  2
*D9
 10
46.030948
 20
64.954201
 11
46.030948
 21
96.515998
 70
     0
  1
26.5
 13
52.589910
 23
64.954201
 14
52.589910
 24
91.454201
 50
90.000000
  0
DIMENSION
  8
2
 62
134
  6
CONTINUOUS
  2
*D10
 10
20.589910
 20
75.204201
 11
20.589910
 21
86.622765
 70
     0
  1
φ6
 13
20.589910
 23
75.204201
 14
20.589910
 24
81.204201
 50
90.000000
  0
DIMENSION
  8
2
 62
134
  6
CONTINUOUS
  2
*D11
 10
36.322139
 20
73.204201
 11
36.322139
 21
90.000000
 70
     0
  1
φ10
 13
36.322139
 23
73.204201
 14
36.322139
 24
83.204201
 50
90.000000
  0
DIMENSION
  8
2
 62
134
  6
CONTINUOUS
  2
*D12
 10
38.676023
 20
113.406240
 11
38.676023
 21
146.880458
 70
     0
  1
41.2
 13
50.589910
 23
113.406240
 14
50.589910
 24
154.606240
 50
90.000000
  0
DIMENSION
  8
2
 62
134
  6
CONTINUOUS
  2
*D13
 10
30.589910
 20
139.116066
 11
44.194744
 21
139.116066
 70
     0
  1
24
 13
30.589910
 23
135.406240
 14
54.589910
 24
135.406240
 50
0.000000
  0
TEXT
  8
2
 62
134
  6
CONTINUOUS
 10
43.194744
 20
139.116066
 40
4.000000
 41
0.750000
  1
±1
  7
KANJI
 50
0.000000
 51
30.000000
  0
TEXT
  8
5
 62
94
  6
CONTINUOUS
 10
239.646523
 20
35.322020
 40
4.000000
 41
0.617647
  1
FTA9-□□R RS232C出力
  7
KANJI
 50
0.000000
 51
0.000000
  0
DIMENSION
  8
2
 62
134
  6
CONTINUOUS
  2
*D14
 10
54.589910
 20
161.509385
 11
75.583801
 21
161.509385
 70
     0
  1
41
 13
54.589910
 23
156.606240
 14
95.589910
 24
156.606240
 50
0.000000
  0
TEXT
  8
5
 62
94
  6
CONTINUOUS
 10
239.974338
 20
28.437914
 40
4.000000
 41
1.000000
  1
温度変換器　外形図
  7
KANJI
 50
0.000000
 51
0.000000
  0
LINE
  8
3
 62
214
  6
CONTINUOUS
 10
79.737131
 20
151.358619
 11
88.031785
 21
169.330369
  0
LINE
  8
3
 62
214
  6
CONTINUOUS
 10
88.031785
 20
169.330369
 11
109.683798
 21
169.330369
  0
TEXT
  8
3
 62
214
  6
CONTINUOUS
 10
89.683798
 20
169.527861
 40
4.000000
 41
1.000000
  1
温度変換器
  7
KANJI
 50
0.000000
 51
30.000000
  0
LINE
  8
3
 62
214
  6
CONTINUOUS
 10
79.737131
 20
151.358619
 11
80.076695
 21
153.329583
  0
LINE
  8
3
 62
214
  6
CONTINUOUS
 10
79.737131
 20
151.358619
 11
81.016683
 21
152.895742
  0
LINE
  8
3
 62
214
  6
CONTINUOUS
 10
80.076695
 20
153.329583
 11
81.016683
 21
152.895742
  0
LINE
  8
3
 62
214
  6
CONTINUOUS
 10
79.939520
 20
151.797130
 11
80.109302
 21
152.782612
  0
LINE
  8
3
 62
214
  6
CONTINUOUS
 10
79.939520
 20
151.797130
 11
80.579297
 21
152.565691
  0
LINE
  8
3
 62
214
  6
CONTINUOUS
 10
80.109302
 20
152.782612
 11
80.579297
 21
152.565691
  0
TEXT
  8
3
 62
214
  6
CONTINUOUS
 10
181.694118
 20
70.152941
 40
4.000000
 41
0.642857
  1
重量 ；約50g(ﾍｯﾄﾞ、ﾌｧｲﾊﾞ、ｹｰﾌﾞﾙ除く)
  7
KANJI
 50
0.000000
 51
0.000000
  0
LINE
  8
3
 62
214
  6
CONTINUOUS
 10
18.589910
 20
131.406240
 11
25.376188
 21
158.796492
  0
LINE
  8
3
 62
214
  6
CONTINUOUS
 10
25.376188
 20
158.796492
 11
40.627040
 21
158.796492
  0
TEXT
  8
3
 62
214
  6
CONTINUOUS
 10
30.627040
 20
158.796492
 40
4.000000
 41
0.500000
  1
ﾌｧｲﾊﾞ
  7
KANJI
 50
0.000000
 51
30.000000
  0
LINE
  8
3
 62
214
  6
CONTINUOUS
 10
18.589910
 20
131.406240
 11
18.552057
 21
133.405882
  0
LINE
  8
3
 62
214
  6
CONTINUOUS
 10
18.589910
 20
131.406240
 11
19.556949
 21
133.156907
  0
LINE
  8
3
 62
214
  6
CONTINUOUS
 10
18.552057
 20
133.405882
 11
19.556949
 21
133.156907
  0
LINE
  8
3
 62
214
  6
CONTINUOUS
 10
18.706058
 20
131.875029
 11
18.687132
 21
132.874850
  0
LINE
  8
3
 62
214
  6
CONTINUOUS
 10
18.706058
 20
131.875029
 11
19.189578
 21
132.750362
  0
LINE
  8
3
 62
214
  6
CONTINUOUS
 10
18.687132
 20
132.874850
 11
19.189578
 21
132.750362
  0
LINE
  8
3
 62
214
  6
CONTINUOUS
 10
82.348711
 20
77.141685
 11
93.114796
 21
60.143357
  0
LINE
  8
3
 62
214
  6
CONTINUOUS
 10
93.114796
 20
60.143357
 11
112.134929
 21
60.143357
  0
TEXT
  8
3
 62
214
  6
CONTINUOUS
 10
94.134929
 20
60.016756
 40
4.000000
 41
0.642857
  1
2-M3深さ4
  7
KANJI
 50
0.000000
 51
30.000000
  0
LINE
  8
3
 62
214
  6
CONTINUOUS
 10
82.348711
 20
77.141685
 11
83.819690
 21
75.786613
  0
LINE
  8
3
 62
214
  6
CONTINUOUS
 10
82.348711
 20
77.141685
 11
82.945080
 21
75.232669
  0
LINE
  8
3
 62
214
  6
CONTINUOUS
 10
83.819690
 20
75.786613
 11
82.945080
 21
75.232669
  0
LINE
  8
3
 62
214
  6
CONTINUOUS
 10
82.607130
 20
76.733674
 11
83.342619
 21
76.056138
  0
LINE
  8
3
 62
214
  6
CONTINUOUS
 10
82.607130
 20
76.733674
 11
82.905314
 21
75.779166
  0
LINE
  8
3
 62
214
  6
CONTINUOUS
 10
83.342619
 20
76.056138
 11
82.905314
 21
75.779166
  0
TEXT
  8
3
 62
214
  6
CONTINUOUS
 10
106.835495
 20
97.669421
 40
4.000000
 41
0.625000
  1
φ6ｻﾞｸﾞﾘ深さ2.5
  7
KANJI
 50
0.000000
 51
0.000000
  0
TEXT
  8
3
 62
214
  6
CONTINUOUS
 10
28.839309
 20
105.681165
 40
4.000000
 41
0.583333
  1
ﾌｧｲﾊﾞ長
  7
KANJI
 50
0.000000
 51
30.000000
  0
TEXT
  8
3
 62
214
  6
CONTINUOUS
 10
110.636172
 20
106.436286
 40
4.000000
 41
1.000000
  1
取付穴
  7
KANJI
 50
0.000000
 51
0.000000
  0
TEXT
  8
3
 62
214
  6
CONTINUOUS
 10
97.951731
 20
55.327617
 40
4.000000
 41
0.700000
  1
取付ﾈｼﾞ
  7
KANJI
 50
0.000000
 51
0.000000
  0
LINE
  8
1
 62
7
  6
DASHDOT
 10
4.248595
 20
128.406240
 11
64.226729
 21
128.406240
  0
TEXT
  8
5
 62
94
  6
CONTINUOUS
 10
172.772351
 20
27.782285
 40
4.000000
 41
0.500000
  1
2009/09/15
  7
KANJI
 50
-0.091868
 51
0.000000
  0
LINE
  8
1
 62
7
  6
CONTINUOUS
 10
161.425971
 20
148.506240
 11
151.425971
 21
148.506240
  0
LINE
  8
1
 62
7
  6
CONTINUOUS
 10
161.425971
 20
147.706240
 11
151.425971
 21
147.706240
  0
LINE
  8
1
 62
7
  6
CONTINUOUS
 10
161.425971
 20
146.906240
 11
151.425971
 21
146.906240
  0
LINE
  8
1
 62
7
  6
CONTINUOUS
 10
161.425971
 20
146.106240
 11
151.425971
 21
146.106240
  0
LINE
  8
1
 62
7
  6
CONTINUOUS
 10
161.425971
 20
145.306240
 11
151.425971
 21
145.306240
  0
LINE
  8
1
 62
7
  6
CONTINUOUS
 10
140.425971
 20
149.406240
 11
140.425971
 21
144.406240
  0
LINE
  8
1
 62
7
  6
CONTINUOUS
 10
140.425971
 20
144.406240
 11
161.425971
 21
144.406240
  0
LINE
  8
1
 62
7
  6
CONTINUOUS
 10
161.425971
 20
144.406240
 11
161.425971
 21
149.406240
  0
LINE
  8
1
 62
7
  6
CONTINUOUS
 10
161.425971
 20
149.406240
 11
140.425971
 21
149.406240
  0
LINE
  8
1
 62
7
  6
CONTINUOUS
 10
151.425971
 20
144.706240
 11
151.425971
 21
149.106240
  0
LINE
  8
1
 62
7
  6
CONTINUOUS
 10
161.425971
 20
149.056240
 11
161.425971
 21
144.756240
  0
LINE
  8
1
 62
7
  6
CONTINUOUS
 10
207.425238
 20
144.889466
 11
208.858028
 21
144.764113
  0
LINE
  8
1
 62
7
  6
CONTINUOUS
 10
207.076615
 20
140.904687
 11
208.509405
 21
140.779334
  0
ARC
  8
1
 62
7
  6
CONTINUOUS
 10
211.235706
 20
142.548453
 40
3.250000
 50
-147.020128
 51
137.020128
  0
LINE
  8
1
 62
7
  6
CONTINUOUS
 10
207.451385
 20
145.188324
 11
192.508464
 21
146.495660
  0
LINE
  8
1
 62
7
  6
CONTINUOUS
 10
192.508464
 20
146.495660
 11
192.107548
 21
141.913164
  0
LINE
  8
1
 62
7
  6
CONTINUOUS
 10
192.107548
 20
141.913164
 11
207.050469
 21
140.605828
  0
LINE
  8
1
 62
7
  6
CONTINUOUS
 10
207.050469
 20
140.605828
 11
207.451385
 21
145.188324
  0
LINE
  8
1
 62
7
  6
DASHDOT
 10
217.581112
 20
141.993302
 11
159.388133
 21
147.084528
  0
LINE
  8
1
 62
7
  6
CONTINUOUS
 10
192.351584
 20
144.702510
 11
161.469549
 21
147.404338
  0
LINE
  8
1
 62
7
  6
CONTINUOUS
 10
192.264428
 20
143.706315
 11
161.382393
 21
146.408143
  0
LINE
  8
1
 62
7
  6
CONTINUOUS
 10
206.376197
 20
136.932416
 11
207.765451
 21
136.560166
  0
LINE
  8
1
 62
7
  6
CONTINUOUS
 10
205.340921
 20
133.068713
 11
206.730175
 21
132.696463
  0
ARC
  8
1
 62
7
  6
CONTINUOUS
 10
209.722262
 20
133.965288
 40
3.250000
 50
-157.020128
 51
127.020128
  0
LINE
  8
1
 62
7
  6
CONTINUOUS
 10
206.453842
 20
137.222194
 11
191.964955
 21
141.104479
  0
LINE
  8
1
 62
7
  6
CONTINUOUS
 10
191.964955
 20
141.104479
 11
190.774387
 21
136.661220
  0
LINE
  8
1
 62
7
  6
CONTINUOUS
 10
190.774387
 20
136.661220
 11
205.263275
 21
132.778935
  0
LINE
  8
1
 62
7
  6
CONTINUOUS
 10
205.263275
 20
132.778935
 11
206.453842
 21
137.222194
  0
LINE
  8
1
 62
7
  6
DASHDOT
 10
215.874866
 20
132.316703
 11
159.450052
 21
147.435686
  0
LINE
  8
1
 62
7
  6
CONTINUOUS
 10
191.499081
 20
139.365813
 11
161.555380
 21
147.389203
  0
LINE
  8
1
 62
7
  6
CONTINUOUS
 10
191.240262
 20
138.399887
 11
161.296561
 21
146.423277
  0
LINE
  8
1
 62
7
  6
CONTINUOUS
 10
207.076615
 20
152.907794
 11
208.509405
 21
153.033147
  0
LINE
  8
1
 62
7
  6
CONTINUOUS
 10
207.425238
 20
148.923015
 11
208.858028
 21
149.048368
  0
ARC
  8
1
 62
7
  6
CONTINUOUS
 10
211.235706
 20
151.264027
 40
3.250000
 50
-137.020128
 51
147.020128
  0
LINE
  8
1
 62
7
  6
CONTINUOUS
 10
207.050469
 20
153.206652
 11
192.107548
 21
151.899316
  0
LINE
  8
1
 62
7
  6
CONTINUOUS
 10
192.107548
 20
151.899316
 11
192.508464
 21
147.316821
  0
LINE
  8
1
 62
7
  6
CONTINUOUS
 10
192.508464
 20
147.316821
 11
207.451385
 21
148.624157
  0
LINE
  8
1
 62
7
  6
CONTINUOUS
 10
207.451385
 20
148.624157
 11
207.050469
 21
153.206652
  0
LINE
  8
1
 62
7
  6
DASHDOT
 10
217.581112
 20
151.819179
 11
159.388133
 21
146.727953
  0
LINE
  8
1
 62
7
  6
CONTINUOUS
 10
192.264428
 20
150.106166
 11
161.382393
 21
147.404338
  0
LINE
  8
1
 62
7
  6
CONTINUOUS
 10
192.351584
 20
149.109971
 11
161.469549
 21
146.408143
  0
LINE
  8
1
 62
7
  6
CONTINUOUS
 10
205.340921
 20
160.743768
 11
206.730175
 21
161.116018
  0
LINE
  8
1
 62
7
  6
CONTINUOUS
 10
206.376197
 20
156.880065
 11
207.765451
 21
157.252314
  0
ARC
  8
1
 62
7
  6
CONTINUOUS
 10
209.722262
 20
159.847193
 40
3.250000
 50
-127.020128
 51
157.020128
  0
LINE
  8
1
 62
7
  6
CONTINUOUS
 10
205.263275
 20
161.033546
 11
190.774387
 21
157.151260
  0
LINE
  8
1
 62
7
  6
CONTINUOUS
 10
190.774387
 20
157.151260
 11
191.964955
 21
152.708001
  0
LINE
  8
1
 62
7
  6
CONTINUOUS
 10
191.964955
 20
152.708001
 11
206.453842
 21
156.590287
  0
LINE
  8
1
 62
7
  6
CONTINUOUS
 10
206.453842
 20
156.590287
 11
205.263275
 21
161.033546
  0
LINE
  8
1
 62
7
  6
DASHDOT
 10
215.874866
 20
161.495778
 11
159.450052
 21
146.376794
  0
LINE
  8
1
 62
7
  6
CONTINUOUS
 10
191.240262
 20
155.412594
 11
161.296561
 21
147.389203
  0
LINE
  8
1
 62
7
  6
CONTINUOUS
 10
191.499081
 20
154.446668
 11
161.555380
 21
146.423277
  0
TEXT
  8
2
 62
134
  6
CONTINUOUS
 10
183.854689
 20
144.069824
 40
4.000000
 41
0.500000
  1
ｼﾛ
  7
KANJI
 50
-5.000000
 51
0.000000
  0
TEXT
  8
2
 62
134
  6
CONTINUOUS
 10
183.606070
 20
148.693604
 40
4.000000
 41
0.500000
  1
ﾐﾄﾞﾘ
  7
KANJI
 50
5.000000
 51
0.000000
  0
TEXT
  8
2
 62
134
  6
CONTINUOUS
 10
184.578954
 20
153.290180
 40
4.000000
 41
0.500000
  1
ｸﾛ
  7
KANJI
 50
15.000000
 51
0.000000
  0
TEXT
  8
2
 62
134
  6
CONTINUOUS
 10
183.155052
 20
136.439689
 40
4.000000
 41
0.500000
  1
ｱｶ
  7
KANJI
 50
-15.000000
 51
0.000000
  0
TEXT
  8
1
 62
7
  6
DASHDOT
 10
219.667768
 20
159.873284
 40
4.000000
 41
0.600000
  1
1：GND
  7
KANJI
 50
0.000000
 51
0.000000
  0
TEXT
  8
1
 62
7
  6
DASHDOT
 10
219.577709
 20
149.716246
 40
4.000000
 41
0.541667
  1
2：RS232C RXD
  7
KANJI
 50
0.000000
 51
0.000000
  0
TEXT
  8
1
 62
7
  6
DASHDOT
 10
219.451888
 20
140.144180
 40
4.000000
 41
0.541667
  1
3：RS232C TXD
  7
KANJI
 50
0.000000
 51
0.000000
  0
TEXT
  8
1
 62
7
  6
DASHDOT
 10
219.487649
 20
129.894971
 40
4.000000
 41
0.583333
  1
4：DC+4.7～27V
  7
KANJI
 50
0.000000
 51
0.000000
  0
CIRCLE
  8
1
 62
7
  6
CONTINUOUS
 10
209.722262
 20
159.847193
 40
1.500000
  0
CIRCLE
  8
1
 62
7
  6
CONTINUOUS
 10
211.235706
 20
151.264027
 40
1.500000
  0
CIRCLE
  8
1
 62
7
  6
CONTINUOUS
 10
211.235706
 20
142.548453
 40
1.500000
  0
CIRCLE
  8
1
 62
7
  6
CONTINUOUS
 10
209.722262
 20
133.965288
 40
1.500000
  0
DIMENSION
  8
2
 62
134
  6
CONTINUOUS
  2
*D15
 10
151.425971
 20
162.509385
 11
179.737771
 21
162.509385
 70
     0
  1
100
 13
151.425971
 23
148.906240
 14
207.250927
 24
152.915404
 50
0.000000
  0
LINE
  8
1
 62
7
  6
CONTINUOUS
 10
151.425971
 20
149.056240
 11
161.425971
 21
149.056240
  0
LINE
  8
1
 62
7
  6
CONTINUOUS
 10
161.425971
 20
144.756240
 11
151.425971
 21
144.756240
  0
LINE
  8
1
 62
7
  6
DASHDOT
 10
161.425971
 20
146.906240
 11
124.499060
 21
146.906240
  0
LINE
  8
1
 62
7
  6
CONTINUOUS
 10
110.089910
 20
149.406240
 11
110.089910
 21
144.406240
  0
LINE
  8
1
 62
7
  6
CONTINUOUS
 10
96.185733
 20
152.906240
 11
96.185733
 21
140.906240
  0
LINE
  8
1
 62
7
  6
CONTINUOUS
 10
96.185733
 20
140.906240
 11
97.353825
 21
140.906240
  0
LINE
  8
1
 62
7
  6
CONTINUOUS
 10
97.353825
 20
140.906240
 11
97.353825
 21
152.906240
  0
LINE
  8
1
 62
7
  6
CONTINUOUS
 10
97.353825
 20
152.906240
 11
96.185733
 21
152.906240
  0
LINE
  8
1
 62
7
  6
CONTINUOUS
 10
95.589910
 20
152.656240
 11
96.185733
 21
152.656240
  0
LINE
  8
1
 62
7
  6
CONTINUOUS
 10
95.589910
 20
141.156240
 11
96.185733
 21
141.156240
  0
LINE
  8
1
 62
7
  6
CONTINUOUS
 10
98.358159
 20
153.206240
 11
98.358159
 21
140.606240
  0
LINE
  8
1
 62
7
  6
CONTINUOUS
 10
98.358159
 20
140.606240
 11
104.467243
 21
140.606240
  0
LINE
  8
1
 62
7
  6
CONTINUOUS
 10
104.467243
 20
140.606240
 11
104.467243
 21
153.206240
  0
LINE
  8
1
 62
7
  6
CONTINUOUS
 10
104.467243
 20
153.206240
 11
98.358159
 21
153.206240
  0
LINE
  8
1
 62
7
  6
CONTINUOUS
 10
104.467243
 20
153.206240
 11
111.485117
 21
153.206240
  0
LINE
  8
1
 62
7
  6
CONTINUOUS
 10
111.485117
 20
153.206240
 11
111.485117
 21
140.606240
  0
LINE
  8
1
 62
7
  6
CONTINUOUS
 10
111.485117
 20
140.606240
 11
104.467243
 21
140.606240
  0
LINE
  8
1
 62
7
  6
CONTINUOUS
 10
111.485117
 20
151.906240
 11
124.545668
 21
151.906240
  0
LINE
  8
1
 62
7
  6
CONTINUOUS
 10
124.545668
 20
151.906240
 11
124.545668
 21
141.906240
  0
LINE
  8
1
 62
7
  6
CONTINUOUS
 10
124.545668
 20
141.906240
 11
111.485117
 21
141.906240
  0
LINE
  8
1
 62
7
  6
CONTINUOUS
 10
127.697750
 20
150.156240
 11
127.697750
 21
143.656240
  0
LINE
  8
1
 62
7
  6
CONTINUOUS
 10
127.697750
 20
150.156240
 11
124.545668
 21
151.906240
  0
LINE
  8
1
 62
7
  6
CONTINUOUS
 10
127.697750
 20
143.656240
 11
124.545668
 21
141.906240
  0
LINE
  8
1
 62
7
  6
CONTINUOUS
 10
98.358159
 20
152.656240
 11
97.883033
 21
152.656240
  0
LINE
  8
1
 62
7
  6
CONTINUOUS
 10
97.883033
 20
152.656240
 11
97.883033
 21
141.156240
  0
LINE
  8
1
 62
7
  6
CONTINUOUS
 10
97.883033
 20
141.156240
 11
98.358159
 21
141.156240
  0
LINE
  8
1
 62
7
  6
CONTINUOUS
 10
97.353825
 20
151.406240
 11
97.883033
 21
151.406240
  0
LINE
  8
1
 62
7
  6
CONTINUOUS
 10
97.353825
 20
142.406240
 11
97.883033
 21
142.406240
  0
LINE
  8
1
 62
7
  6
CONTINUOUS
 10
105.403827
 20
153.206240
 11
105.403827
 21
140.606240
  0
LINE
  8
1
 62
7
  6
CONTINUOUS
 10
106.340411
 20
153.206240
 11
106.340411
 21
140.606240
  0
LINE
  8
1
 62
7
  6
CONTINUOUS
 10
107.276995
 20
153.206240
 11
107.276995
 21
140.606240
  0
LINE
  8
1
 62
7
  6
CONTINUOUS
 10
108.213578
 20
153.206240
 11
108.213578
 21
140.606240
  0
LINE
  8
1
 62
7
  6
CONTINUOUS
 10
109.150162
 20
153.206240
 11
109.150162
 21
140.606240
  0
LINE
  8
1
 62
7
  6
CONTINUOUS
 10
110.086746
 20
153.206240
 11
110.086746
 21
140.606240
  0
LINE
  8
1
 62
7
  6
CONTINUOUS
 10
111.023329
 20
153.206240
 11
111.023329
 21
140.606240
  0
LINE
  8
1
 62
7
  6
DASHDOT
 10
89.841304
 20
146.906240
 11
144.151040
 21
146.906240
  0
LINE
  8
1
 62
7
  6
CONTINUOUS
 10
135.120275
 20
149.714745
 11
133.675856
 21
143.937071
  0
LINE
  8
1
 62
7
  6
CONTINUOUS
 10
134.071352
 20
149.757734
 11
132.622634
 21
143.962864
  0
LINE
  8
1
 62
7
  6
CONTINUOUS
 10
151.425971
 20
148.806240
 11
134.893148
 21
148.806240
  0
LINE
  8
1
 62
7
  6
CONTINUOUS
 10
133.943148
 20
145.006240
 11
151.425971
 21
145.006240
  0
LINE
  8
1
 62
7
  6
CONTINUOUS
 10
133.833478
 20
148.806240
 11
127.697750
 21
148.806240
  0
LINE
  8
1
 62
7
  6
CONTINUOUS
 10
127.697750
 20
145.006240
 11
132.883478
 21
145.006240
  0
DIMENSION
  8
2
 62
134
  6
CONTINUOUS
  2
*D16
 10
131.278661
 20
145.006240
 11
131.278661
 21
156.085643
 70
     0
  1
φ3.8
 13
131.278661
 23
145.006240
 14
131.278661
 24
148.806240
 50
90.000000
  0
DIMENSION
  8
2
 62
134
  6
CONTINUOUS
  2
*D17
 10
116.440454
 20
113.406240
 11
116.440454
 21
128.205837
 70
     0
  1
33.5
 13
97.589910
 23
113.406240
 14
102.089910
 24
146.906240
 50
90.000000
  0
DIMENSION
  8
2
 62
134
  6
CONTINUOUS
  2
*D18
 10
100.341030
 20
140.606240
 11
100.341030
 21
132.570421
 70
     0
  1
φ12.6
 13
100.341030
 23
140.606240
 14
100.341030
 24
153.206240
 50
90.000000
  0
LINE
  8
3
 62
214
  6
CONTINUOUS
 10
120.104294
 20
141.906240
 11
127.817642
 21
126.327555
  0
LINE
  8
3
 62
214
  6
CONTINUOUS
 10
127.817642
 20
126.327555
 11
140.559436
 21
126.327555
  0
TEXT
  8
3
 62
214
  6
CONTINUOUS
 10
132.559436
 20
126.070443
 40
4.000000
 41
0.500000
  1
ｺﾈｸﾀ
  7
KANJI
 50
0.000000
 51
30.000000
  0
LINE
  8
3
 62
214
  6
CONTINUOUS
 10
120.104294
 20
141.906240
 11
121.425373
 21
140.404657
  0
LINE
  8
3
 62
214
  6
CONTINUOUS
 10
120.104294
 20
141.906240
 11
120.497590
 21
139.945292
  0
LINE
  8
3
 62
214
  6
CONTINUOUS
 10
121.425373
 20
140.404657
 11
120.497590
 21
139.945292
  0
LINE
  8
3
 62
214
  6
CONTINUOUS
 10
120.318591
 20
141.473424
 11
120.979130
 21
140.722632
  0
LINE
  8
3
 62
214
  6
CONTINUOUS
 10
120.318591
 20
141.473424
 11
120.515239
 21
140.492950
  0
LINE
  8
3
 62
214
  6
CONTINUOUS
 10
120.979130
 20
140.722632
 11
120.515239
 21
140.492950
  0
LINE
  8
3
 62
214
  6
CONTINUOUS
 10
136.226105
 20
145.006240
 11
149.553043
 21
126.811154
  0
LINE
  8
3
 62
214
  6
CONTINUOUS
 10
149.553043
 20
126.811154
 11
173.479213
 21
126.811154
  0
TEXT
  8
3
 62
214
  6
CONTINUOUS
 10
155.479213
 20
127.077692
 40
4.000000
 41
0.642857
  1
接続ｹｰﾌﾞﾙ
  7
KANJI
 50
0.000000
 51
30.000000
  0
LINE
  8
3
 62
214
  6
CONTINUOUS
 10
136.226105
 20
145.006240
 11
137.785236
 21
143.753599
  0
LINE
  8
3
 62
214
  6
CONTINUOUS
 10
136.226105
 20
145.006240
 11
136.950031
 21
143.141855
  0
LINE
  8
3
 62
214
  6
CONTINUOUS
 10
137.785236
 20
143.753599
 11
136.950031
 21
143.141855
  0
LINE
  8
3
 62
214
  6
CONTINUOUS
 10
136.511488
 20
144.616612
 11
137.291053
 21
143.990291
  0
LINE
  8
3
 62
214
  6
CONTINUOUS
 10
136.511488
 20
144.616612
 11
136.873451
 21
143.684420
  0
LINE
  8
3
 62
214
  6
CONTINUOUS
 10
137.291053
 20
143.990291
 11
136.873451
 21
143.684420
  0
DIMENSION
  8
3
 62
214
  6
CONTINUOUS
  2
*D19
 10
95.589910
 20
162.509385
 11
124.516262
 21
162.509385
 70
     0
  1
ｹｰﾌﾞﾙ長
 13
95.589910
 23
146.906240
 14
151.425971
 24
146.906240
 50
0.000000
  0
LINE
  8
3
 62
214
  6
CONTINUOUS
 10
209.722262
 20
130.715288
 11
181.957685
 21
115.543956
  0
LINE
  8
3
 62
214
  6
CONTINUOUS
 10
181.957685
 20
115.543956
 11
157.167349
 21
115.543956
  0
TEXT
  8
3
 62
214
  6
CONTINUOUS
 10
157.167349
 20
115.543956
 40
4.000000
 41
0.750000
  1
4-M3圧着端子
  7
KANJI
 50
0.000000
 51
30.000000
  0
LINE
  8
3
 62
214
  6
CONTINUOUS
 10
209.722262
 20
130.715288
 11
208.275205
 21
129.334699
  0
LINE
  8
3
 62
214
  6
CONTINUOUS
 10
209.722262
 20
130.715288
 11
207.778779
 21
130.243192
  0
LINE
  8
3
 62
214
  6
CONTINUOUS
 10
208.275205
 20
129.334699
 11
207.778779
 21
130.243192
  0
LINE
  8
3
 62
214
  6
CONTINUOUS
 10
209.298444
 20
130.483702
 11
208.574916
 21
129.793408
  0
LINE
  8
3
 62
214
  6
CONTINUOUS
 10
209.298444
 20
130.483702
 11
208.326703
 21
130.247654
  0
LINE
  8
3
 62
214
  6
CONTINUOUS
 10
208.574916
 20
129.793408
 11
208.326703
 21
130.247654
  0
CIRCLE
  8
1
 62
7
  6
CONTINUOUS
 10
262.303348
 20
146.906240
 40
4.500000
  0
CIRCLE
  8
1
 62
7
  6
CONTINUOUS
 10
262.303348
 20
146.906240
 40
6.048062
  0
LINE
  8
1
 62
7
  6
DASHDOT
 10
255.040578
 20
146.906240
 11
270.273398
 21
146.906240
  0
CIRCLE
  8
1
 62
7
  6
CONTINUOUS
 10
262.303348
 20
146.906240
 40
3.172423
  0
ENDSEC
  0
EOF
