  0
SECTION
  2
HEADER
  9
$ACADVER
  1
AC1004
  9
$INSBASE
 10
0.000000
 20
0.000000
  9
$EXTMIN
 10
0.000000
 20
0.000000
  9
$EXTMAX
 10
297.000000
 20
210.000000
  9
$LIMMIN
 10
0.000000
 20
0.000000
  9
$LIMMAX
 10
297.000000
 20
210.000000
  9
$VIEWCTR
 10
148.500000
 20
105.000000
  9
$VIEWSIZE
 40
210.000000
  9
$PEXTMIN
 10
0.000000
 20
0.000000
 30
0.000000
  9
$PEXTMAX
 10
297.000000
 20
210.000000
 30
0.000000
  9
$SNAPMODE
 70
     0
  9
$SNAPUNIT
 10
1.000000
 20
1.000000
  9
$SNAPBASE
 10
0.000000
 20
0.000000
  9
$SNAPANG
 50
0.000000
  9
$SNAPISOPAIR
 70
     0
  9
$SNAPSTYLE
 70
     0
  9
$GRIDMODE
 70
     0
  9
$GRIDUNIT
 10
0.000000
 20
0.000000
  9
$ORTHOMODE
 70
     0
  9
$REGENMODE
 70
     1
  9
$FILLMODE
 70
     1
  9
$QTEXTMODE
 70
     0
  9
$DRAGMODE
 70
     2
  9
$LTSCALE
 40
0.250000
  9
$OSMODE
 70
     0
  9
$ATTMODE
 70
     1
  9
$TEXTSIZE
 40
2.500000
  9
$TRACEWID
 40
0.050000
  9
$TEXTSTYLE
  7
STANDARD
  9
$CLAYER
  8
0
  9
$CELTYPE
  6
BYLAYER
  9
$CECOLOR
 62
   256
  9
$DIMSCALE
 40
1.000000
  9
$DIMASZ
 40
1.000000
  9
$DIMEXO
 40
0.000000
  9
$DIMDLI
 40
0.500000
  9
$DIMRND
 40
0.000000
  9
$DIMDLE
 40
0.000000
  9
$DIMEXE
 40
0.000000
  9
$DIMTP
 40
0.000000
  9
$DIMTM
 40
0.000000
  9
$DIMTXT
 40
4.000000
  9
$DIMCEN
 40
0.000000
  9
$DIMTSZ
 40
0.000000
  9
$DIMTOL
 70
     0
  9
$DIMLIM
 70
     0
  9
$DIMTIH
 70
     1
  9
$DIMTOH
 70
     1
  9
$DIMSE1
 70
     0
  9
$DIMSE2
 70
     0
  9
$DIMTAD
 70
     0
  9
$DIMZIN
 70
     0
  9
$DIMBLK
  1

  9
$DIMASO
 70
     0
  9
$DIMSHO
 70
     0
  9
$DIMPOST
  1

  9
$DIMAPOST
  1

  9
$DIMALT
 70
     0
  9
$DIMALTD
 70
     0
  9
$DIMALTF
 40
25.400000
  9
$DIMLFAC
 40
1.000000
  9
$DIMTOFL
 70
     0
  9
$DIMTVP
 40
0.000000
  9
$DIMTIX
 70
     0
  9
$DIMSOXD
 70
     0
  9
$DIMSAH
 70
     0
  9
$DIMBLKL
  1

  9
$DIMBLKR
  1

  9
$LUNITS
 70
     2
  9
$LUPREC
 70
     2
  9
$AXISMODE
 70
     0
  9
$AXISUNIT
 10
1.000000
 20
1.000000
  9
$SKETCHINC
 40
0.000000
  9
$FILLETRAD
 40
0.000000
  9
$AUNITS
 70
     1
  9
$AUPREC
 70
     2
  9
$MENU
  1
ACAD
  9
$ELEVATION
 40
0.000000
  9
$THICKNESS
 40
0.000000
  9
$VIEWDIR
 10
0.000000
 20
0.000000
 30
1.000000
  9
$LIMCHECK
 70
     1
  9
$BLIPMODE
 70
     1
  9
$CHAMFERA
 40
0.000000
  9
$CHAMFERB
 40
0.000000
  9
$FASTZOOM
 70
     1
  9
$SKPOLY
 70
     0
  9
$TDCREATE
 40
0.000000
  9
$TDUPDATE
 40
0.000000
  9
$TDINDWG
 40
0.000000
  9
$TDUSRTIMER
 40
0.000000
  9
$USRTIMER
 70
     1
  9
$ANGBASE
 50
0.000000
  9
$ANGDIR
 70
     0
  9
$PDMODE
 70
     0
  9
$PDSIZE
 40
0.000000
  9
$PLINEWID
 40
0.000000
  9
$COORDS
 70
     2
  9
$USERI1
 70
     0
  9
$USERI2
 70
     0
  9
$USERI3
 70
     0
  9
$USERI4
 70
     0
  9
$USERI5
 70
     0
  9
$USERR1
 40
0.000000
  9
$USERR2
 40
0.000000
  9
$USERR3
 40
0.000000
  9
$USERR4
 40
0.000000
  9
$USERR5
 40
0.000000
  0
ENDSEC
  0
SECTION
  2
TABLES
  0
TABLE
  2
LTYPE
 70
     5
  0
LTYPE
  2
CONTINUOUS
 70
    64
  3
Solid line
 72
    65
 73
     0
 40
0.0
  0
LTYPE
  2
HIDDEN
 70
    64
  3
------------------------
 72
    65
 73
     2
 40
12.6
 49
8.4
 49
-4.2
  0
LTYPE
  2
DOT
 70
    64
  3
････････････････････････
 72
    65
 73
     2
 40
8.0
 49
6.0
 49
-2.0
  0
LTYPE
  2
DASHDOT
 70
    64
  3
--･--･--･--･--･--･--･--
 72
    65
 73
     4
 40
50.5
 49
30.0
 49
-9.0
 49
2.5
 49
-9.0
  0
LTYPE
  2
DIVIDE
 70
    64
  3
--･･--･･--･･--･･--･･--
 72
    65
 73
     6
 40
58.0
 49
30.0
 49
-9.0
 49
2.5
 49
-5.0
 49
2.5
 49
-9.0
  0
LTYPE
  2
ACAD_ISO06W100
 70
    64
  3
____ ... ____ ... ____
 72
    65
 73
     8
 40
37.5
 49
24.0
 49
-3.0
 49
0.5
 49
-3.0
 49
0.5
 49
-3.0
 49
0.5
 49
-3.0
  0
LTYPE
  2
ACAD_ISO14W100
 70
    64
  3
__ . . . __ . . . __ . . . 
 72
    65
 73
     8
 40
25.5
 49
12.0
 49
-3.0
 49
0.5
 49
-3.0
 49
0.5
 49
-3.0
 49
0.5
 49
-3.0
  0
ENDTAB
  0
TABLE
  2
LAYER
 70
6
  0
LAYER
  2
1
 70
64
 62
7
  6
CONTINUOUS
  0
LAYER
  2
2
 70
64
 62
134
  6
CONTINUOUS
  0
LAYER
  2
3
 70
64
 62
214
  6
CONTINUOUS
  0
LAYER
  2
5
 70
64
 62
94
  6
CONTINUOUS
  0
LAYER
  2
6
 70
64
 62
14
  6
CONTINUOUS
  0
LAYER
  2
8
 70
64
 62
6
  6
CONTINUOUS
  0
ENDTAB
  0
TABLE
  2
STYLE
 70
     2
  0
STYLE
  2
STANDARD
 70
    64
 40
0.0
 41
1.0
 50
0.0
 71
     0
 42
0.2
  3
TXT
  4

  0
STYLE
  2
KANJI
 70
    64
 40
0.0
 41
1.0
 50
0.0
 71
     0
 42
0.2
  3
TXT
  4
BIGFONT
  0
ENDTAB
  0
TABLE
  2
VIEW
 70
     0
  0
ENDTAB
  0
ENDSEC
  0
SECTION
  2
BLOCKS
  0
BLOCK
  8
2
 62
134
  6
CONTINUOUS
  2
*D1
 70
    65
 10
0.0
 20
0.0
  0
LINE
  8
2
 62
134
  6
CONTINUOUS
 10
114.019120
 20
169.273468
 11
135.904747
 21
169.273468
  0
LINE
  8
2
 62
134
  6
CONTINUOUS
 10
122.019120
 20
171.273468
 11
122.019120
 21
154.806240
  0
LINE
  8
2
 62
134
  6
CONTINUOUS
 10
126.519120
 20
171.273468
 11
126.519120
 21
154.806240
  0
LINE
  8
2
 62
134
  6
CONTINUOUS
 10
122.019120
 20
169.273468
 11
120.087268
 21
168.755830
  0
LINE
  8
2
 62
134
  6
CONTINUOUS
 10
122.019120
 20
169.273468
 11
120.087268
 21
169.791106
  0
LINE
  8
2
 62
134
  6
CONTINUOUS
 10
120.087268
 20
168.755830
 11
120.087268
 21
169.791106
  0
LINE
  8
2
 62
134
  6
CONTINUOUS
 10
121.536157
 20
169.273468
 11
120.570231
 21
169.014649
  0
LINE
  8
2
 62
134
  6
CONTINUOUS
 10
121.536157
 20
169.273468
 11
120.570231
 21
169.532287
  0
LINE
  8
2
 62
134
  6
CONTINUOUS
 10
120.570231
 20
169.014649
 11
120.570231
 21
169.532287
  0
LINE
  8
2
 62
134
  6
CONTINUOUS
 10
126.519120
 20
169.273468
 11
128.450971
 21
169.791106
  0
LINE
  8
2
 62
134
  6
CONTINUOUS
 10
126.519120
 20
169.273468
 11
128.450971
 21
168.755830
  0
LINE
  8
2
 62
134
  6
CONTINUOUS
 10
128.450971
 20
169.791106
 11
128.450971
 21
168.755830
  0
LINE
  8
2
 62
134
  6
CONTINUOUS
 10
127.002083
 20
169.273468
 11
127.968008
 21
169.532287
  0
LINE
  8
2
 62
134
  6
CONTINUOUS
 10
127.002083
 20
169.273468
 11
127.968008
 21
169.014649
  0
LINE
  8
2
 62
134
  6
CONTINUOUS
 10
127.968008
 20
169.532287
 11
127.968008
 21
169.014649
  0
TEXT
  8
2
 62
134
  6
CONTINUOUS
 10
128.904747
 20
169.273468
 40
4.000000
 41
0.500000
  1
4.5
  7
KANJI
 50
0.000000
 51
30.000000
  0
ENDBLK
  0
BLOCK
  8
2
 62
134
  6
CONTINUOUS
  2
*D2
 70
    65
 10
0.0
 20
0.0
  0
LINE
  8
2
 62
134
  6
CONTINUOUS
 10
81.019120
 20
169.273468
 11
122.019120
 21
169.273468
  0
LINE
  8
2
 62
134
  6
CONTINUOUS
 10
81.019120
 20
171.273468
 11
81.019120
 21
156.606240
  0
LINE
  8
2
 62
134
  6
CONTINUOUS
 10
122.019120
 20
171.273468
 11
122.019120
 21
156.606240
  0
LINE
  8
2
 62
134
  6
CONTINUOUS
 10
81.019120
 20
169.273468
 11
82.950971
 21
169.791106
  0
LINE
  8
2
 62
134
  6
CONTINUOUS
 10
81.019120
 20
169.273468
 11
82.950971
 21
168.755830
  0
LINE
  8
2
 62
134
  6
CONTINUOUS
 10
82.950971
 20
169.791106
 11
82.950971
 21
168.755830
  0
LINE
  8
2
 62
134
  6
CONTINUOUS
 10
81.502083
 20
169.273468
 11
82.468008
 21
169.532287
  0
LINE
  8
2
 62
134
  6
CONTINUOUS
 10
81.502083
 20
169.273468
 11
82.468008
 21
169.014649
  0
LINE
  8
2
 62
134
  6
CONTINUOUS
 10
82.468008
 20
169.532287
 11
82.468008
 21
169.014649
  0
LINE
  8
2
 62
134
  6
CONTINUOUS
 10
122.019120
 20
169.273468
 11
120.087268
 21
168.755830
  0
LINE
  8
2
 62
134
  6
CONTINUOUS
 10
122.019120
 20
169.273468
 11
120.087268
 21
169.791106
  0
LINE
  8
2
 62
134
  6
CONTINUOUS
 10
120.087268
 20
168.755830
 11
120.087268
 21
169.791106
  0
LINE
  8
2
 62
134
  6
CONTINUOUS
 10
121.536157
 20
169.273468
 11
120.570231
 21
169.014649
  0
LINE
  8
2
 62
134
  6
CONTINUOUS
 10
121.536157
 20
169.273468
 11
120.570231
 21
169.532287
  0
LINE
  8
2
 62
134
  6
CONTINUOUS
 10
120.570231
 20
169.014649
 11
120.570231
 21
169.532287
  0
TEXT
  8
2
 62
134
  6
CONTINUOUS
 10
98.786448
 20
169.273468
 40
4.000000
 41
0.500000
  1
41
  7
KANJI
 50
0.000000
 51
30.000000
  0
ENDBLK
  0
BLOCK
  8
2
 62
134
  6
CONTINUOUS
  2
*D3
 70
    65
 10
0.0
 20
0.0
  0
LINE
  8
2
 62
134
  6
CONTINUOUS
 10
81.019120
 20
105.715578
 11
93.219120
 21
105.715578
  0
LINE
  8
2
 62
134
  6
CONTINUOUS
 10
81.019120
 20
103.715578
 11
81.019120
 21
111.406240
  0
LINE
  8
2
 62
134
  6
CONTINUOUS
 10
93.219120
 20
103.715578
 11
93.219120
 21
111.406240
  0
LINE
  8
2
 62
134
  6
CONTINUOUS
 10
81.019120
 20
105.715578
 11
82.950971
 21
106.233216
  0
LINE
  8
2
 62
134
  6
CONTINUOUS
 10
81.019120
 20
105.715578
 11
82.950971
 21
105.197940
  0
LINE
  8
2
 62
134
  6
CONTINUOUS
 10
82.950971
 20
106.233216
 11
82.950971
 21
105.197940
  0
LINE
  8
2
 62
134
  6
CONTINUOUS
 10
81.502083
 20
105.715578
 11
82.468008
 21
105.974397
  0
LINE
  8
2
 62
134
  6
CONTINUOUS
 10
81.502083
 20
105.715578
 11
82.468008
 21
105.456759
  0
LINE
  8
2
 62
134
  6
CONTINUOUS
 10
82.468008
 20
105.974397
 11
82.468008
 21
105.456759
  0
LINE
  8
2
 62
134
  6
CONTINUOUS
 10
93.219120
 20
105.715578
 11
91.287268
 21
105.197940
  0
LINE
  8
2
 62
134
  6
CONTINUOUS
 10
93.219120
 20
105.715578
 11
91.287268
 21
106.233216
  0
LINE
  8
2
 62
134
  6
CONTINUOUS
 10
91.287268
 20
105.197940
 11
91.287268
 21
106.233216
  0
LINE
  8
2
 62
134
  6
CONTINUOUS
 10
92.736157
 20
105.715578
 11
91.770231
 21
105.456759
  0
LINE
  8
2
 62
134
  6
CONTINUOUS
 10
92.736157
 20
105.715578
 11
91.770231
 21
105.974397
  0
LINE
  8
2
 62
134
  6
CONTINUOUS
 10
91.770231
 20
105.456759
 11
91.770231
 21
105.974397
  0
TEXT
  8
2
 62
134
  6
CONTINUOUS
 10
83.119120
 20
105.715578
 40
4.000000
 41
0.500000
  1
12.2
  7
KANJI
 50
0.000000
 51
30.000000
  0
ENDBLK
  0
BLOCK
  8
2
 62
134
  6
CONTINUOUS
  2
*D4
 70
    65
 10
0.0
 20
0.0
  0
LINE
  8
2
 62
134
  6
CONTINUOUS
 10
93.219120
 20
105.715578
 11
113.219120
 21
105.715578
  0
LINE
  8
2
 62
134
  6
CONTINUOUS
 10
113.219120
 20
103.715578
 11
113.219120
 21
111.406240
  0
LINE
  8
2
 62
134
  6
CONTINUOUS
 10
93.219120
 20
105.715578
 11
95.150971
 21
106.233216
  0
LINE
  8
2
 62
134
  6
CONTINUOUS
 10
93.219120
 20
105.715578
 11
95.150971
 21
105.197940
  0
LINE
  8
2
 62
134
  6
CONTINUOUS
 10
95.150971
 20
106.233216
 11
95.150971
 21
105.197940
  0
LINE
  8
2
 62
134
  6
CONTINUOUS
 10
93.702083
 20
105.715578
 11
94.668008
 21
105.974397
  0
LINE
  8
2
 62
134
  6
CONTINUOUS
 10
93.702083
 20
105.715578
 11
94.668008
 21
105.456759
  0
LINE
  8
2
 62
134
  6
CONTINUOUS
 10
94.668008
 20
105.974397
 11
94.668008
 21
105.456759
  0
LINE
  8
2
 62
134
  6
CONTINUOUS
 10
113.219120
 20
105.715578
 11
111.287268
 21
105.197940
  0
LINE
  8
2
 62
134
  6
CONTINUOUS
 10
113.219120
 20
105.715578
 11
111.287268
 21
106.233216
  0
LINE
  8
2
 62
134
  6
CONTINUOUS
 10
111.287268
 20
105.197940
 11
111.287268
 21
106.233216
  0
LINE
  8
2
 62
134
  6
CONTINUOUS
 10
112.736157
 20
105.715578
 11
111.770231
 21
105.456759
  0
LINE
  8
2
 62
134
  6
CONTINUOUS
 10
112.736157
 20
105.715578
 11
111.770231
 21
105.974397
  0
LINE
  8
2
 62
134
  6
CONTINUOUS
 10
111.770231
 20
105.456759
 11
111.770231
 21
105.974397
  0
TEXT
  8
2
 62
134
  6
CONTINUOUS
 10
101.219120
 20
105.715578
 40
4.000000
 41
0.500000
  1
20
  7
KANJI
 50
0.000000
 51
30.000000
  0
ENDBLK
  0
BLOCK
  8
2
 62
134
  6
CONTINUOUS
  2
*D5
 70
    65
 10
0.0
 20
0.0
  0
LINE
  8
2
 62
134
  6
CONTINUOUS
 10
72.460157
 20
45.667039
 11
72.460157
 21
72.167039
  0
LINE
  8
2
 62
134
  6
CONTINUOUS
 10
70.460157
 20
45.667039
 11
79.019120
 21
45.667039
  0
LINE
  8
2
 62
134
  6
CONTINUOUS
 10
70.460157
 20
72.167039
 11
79.019120
 21
72.167039
  0
LINE
  8
2
 62
134
  6
CONTINUOUS
 10
72.460157
 20
45.667039
 11
71.942519
 21
47.598891
  0
LINE
  8
2
 62
134
  6
CONTINUOUS
 10
72.460157
 20
45.667039
 11
72.977795
 21
47.598891
  0
LINE
  8
2
 62
134
  6
CONTINUOUS
 10
71.942519
 20
47.598891
 11
72.977795
 21
47.598891
  0
LINE
  8
2
 62
134
  6
CONTINUOUS
 10
72.460157
 20
46.150002
 11
72.201338
 21
47.115928
  0
LINE
  8
2
 62
134
  6
CONTINUOUS
 10
72.460157
 20
46.150002
 11
72.718976
 21
47.115928
  0
LINE
  8
2
 62
134
  6
CONTINUOUS
 10
72.201338
 20
47.115928
 11
72.718976
 21
47.115928
  0
LINE
  8
2
 62
134
  6
CONTINUOUS
 10
72.460157
 20
72.167039
 11
72.977795
 21
70.235188
  0
LINE
  8
2
 62
134
  6
CONTINUOUS
 10
72.460157
 20
72.167039
 11
71.942519
 21
70.235188
  0
LINE
  8
2
 62
134
  6
CONTINUOUS
 10
72.977795
 20
70.235188
 11
71.942519
 21
70.235188
  0
LINE
  8
2
 62
134
  6
CONTINUOUS
 10
72.460157
 20
71.684077
 11
72.718976
 21
70.718151
  0
LINE
  8
2
 62
134
  6
CONTINUOUS
 10
72.460157
 20
71.684077
 11
72.201338
 21
70.718151
  0
LINE
  8
2
 62
134
  6
CONTINUOUS
 10
72.718976
 20
70.718151
 11
72.201338
 21
70.718151
  0
TEXT
  8
2
 62
134
  6
CONTINUOUS
 10
72.460157
 20
54.973827
 40
4.000000
 41
0.500000
  1
26.5
  7
KANJI
 50
90.000000
 51
30.000000
  0
ENDBLK
  0
BLOCK
  8
2
 62
134
  6
CONTINUOUS
  2
*D6
 70
    65
 10
0.0
 20
0.0
  0
LINE
  8
2
 62
134
  6
CONTINUOUS
 10
87.719120
 20
39.449503
 11
107.719120
 21
39.449503
  0
LINE
  8
2
 62
134
  6
CONTINUOUS
 10
87.719120
 20
37.449503
 11
87.719120
 21
55.687039
  0
LINE
  8
2
 62
134
  6
CONTINUOUS
 10
107.719120
 20
37.449503
 11
107.719120
 21
55.687039
  0
LINE
  8
2
 62
134
  6
CONTINUOUS
 10
87.719120
 20
39.449503
 11
89.650971
 21
39.967141
  0
LINE
  8
2
 62
134
  6
CONTINUOUS
 10
87.719120
 20
39.449503
 11
89.650971
 21
38.931865
  0
LINE
  8
2
 62
134
  6
CONTINUOUS
 10
89.650971
 20
39.967141
 11
89.650971
 21
38.931865
  0
LINE
  8
2
 62
134
  6
CONTINUOUS
 10
88.202083
 20
39.449503
 11
89.168008
 21
39.708322
  0
LINE
  8
2
 62
134
  6
CONTINUOUS
 10
88.202083
 20
39.449503
 11
89.168008
 21
39.190684
  0
LINE
  8
2
 62
134
  6
CONTINUOUS
 10
89.168008
 20
39.708322
 11
89.168008
 21
39.190684
  0
LINE
  8
2
 62
134
  6
CONTINUOUS
 10
107.719120
 20
39.449503
 11
105.787268
 21
38.931865
  0
LINE
  8
2
 62
134
  6
CONTINUOUS
 10
107.719120
 20
39.449503
 11
105.787268
 21
39.967141
  0
LINE
  8
2
 62
134
  6
CONTINUOUS
 10
105.787268
 20
38.931865
 11
105.787268
 21
39.967141
  0
LINE
  8
2
 62
134
  6
CONTINUOUS
 10
107.236157
 20
39.449503
 11
106.270231
 21
39.190684
  0
LINE
  8
2
 62
134
  6
CONTINUOUS
 10
107.236157
 20
39.449503
 11
106.270231
 21
39.708322
  0
LINE
  8
2
 62
134
  6
CONTINUOUS
 10
106.270231
 20
39.190684
 11
106.270231
 21
39.708322
  0
TEXT
  8
2
 62
134
  6
CONTINUOUS
 10
96.035767
 20
39.449503
 40
4.000000
 41
0.500000
  1
20
  7
KANJI
 50
0.000000
 51
30.000000
  0
ENDBLK
  0
BLOCK
  8
2
 62
134
  6
CONTINUOUS
  2
*D7
 70
    65
 10
0.0
 20
0.0
  0
LINE
  8
2
 62
134
  6
CONTINUOUS
 10
22.939277
 20
73.917039
 11
22.939277
 21
43.917039
  0
LINE
  8
2
 62
134
  6
CONTINUOUS
 10
20.939277
 20
73.917039
 11
35.019120
 21
73.917039
  0
LINE
  8
2
 62
134
  6
CONTINUOUS
 10
20.939277
 20
43.917039
 11
35.019120
 21
43.917039
  0
LINE
  8
2
 62
134
  6
CONTINUOUS
 10
22.939277
 20
73.917039
 11
23.456915
 21
71.985188
  0
LINE
  8
2
 62
134
  6
CONTINUOUS
 10
22.939277
 20
73.917039
 11
22.421639
 21
71.985188
  0
LINE
  8
2
 62
134
  6
CONTINUOUS
 10
23.456915
 20
71.985188
 11
22.421639
 21
71.985188
  0
LINE
  8
2
 62
134
  6
CONTINUOUS
 10
22.939277
 20
73.434077
 11
23.198096
 21
72.468151
  0
LINE
  8
2
 62
134
  6
CONTINUOUS
 10
22.939277
 20
73.434077
 11
22.680458
 21
72.468151
  0
LINE
  8
2
 62
134
  6
CONTINUOUS
 10
23.198096
 20
72.468151
 11
22.680458
 21
72.468151
  0
LINE
  8
2
 62
134
  6
CONTINUOUS
 10
22.939277
 20
43.917039
 11
22.421639
 21
45.848891
  0
LINE
  8
2
 62
134
  6
CONTINUOUS
 10
22.939277
 20
43.917039
 11
23.456915
 21
45.848891
  0
LINE
  8
2
 62
134
  6
CONTINUOUS
 10
22.421639
 20
45.848891
 11
23.456915
 21
45.848891
  0
LINE
  8
2
 62
134
  6
CONTINUOUS
 10
22.939277
 20
44.400002
 11
22.680458
 21
45.365928
  0
LINE
  8
2
 62
134
  6
CONTINUOUS
 10
22.939277
 20
44.400002
 11
23.198096
 21
45.365928
  0
LINE
  8
2
 62
134
  6
CONTINUOUS
 10
22.680458
 20
45.365928
 11
23.198096
 21
45.365928
  0
TEXT
  8
2
 62
134
  6
CONTINUOUS
 10
22.939277
 20
55.084417
 40
4.000000
 41
0.666667
  1
φ30
  7
KANJI
 50
90.000000
 51
30.000000
  0
ENDBLK
  0
BLOCK
  8
2
 62
134
  6
CONTINUOUS
  2
*D8
 70
    65
 10
0.0
 20
0.0
  0
LINE
  8
2
 62
134
  6
CONTINUOUS
 10
81.019120
 20
105.715578
 11
36.019120
 21
105.715578
  0
LINE
  8
2
 62
134
  6
CONTINUOUS
 10
81.019120
 20
103.715578
 11
81.019120
 21
111.406240
  0
LINE
  8
2
 62
134
  6
CONTINUOUS
 10
36.019120
 20
103.715578
 11
36.019120
 21
112.406240
  0
LINE
  8
2
 62
134
  6
CONTINUOUS
 10
81.019120
 20
105.715578
 11
79.087268
 21
105.197940
  0
LINE
  8
2
 62
134
  6
CONTINUOUS
 10
81.019120
 20
105.715578
 11
79.087268
 21
106.233216
  0
LINE
  8
2
 62
134
  6
CONTINUOUS
 10
79.087268
 20
105.197940
 11
79.087268
 21
106.233216
  0
LINE
  8
2
 62
134
  6
CONTINUOUS
 10
80.536157
 20
105.715578
 11
79.570231
 21
105.456759
  0
LINE
  8
2
 62
134
  6
CONTINUOUS
 10
80.536157
 20
105.715578
 11
79.570231
 21
105.974397
  0
LINE
  8
2
 62
134
  6
CONTINUOUS
 10
79.570231
 20
105.456759
 11
79.570231
 21
105.974397
  0
LINE
  8
2
 62
134
  6
CONTINUOUS
 10
36.019120
 20
105.715578
 11
37.950971
 21
106.233216
  0
LINE
  8
2
 62
134
  6
CONTINUOUS
 10
36.019120
 20
105.715578
 11
37.950971
 21
105.197940
  0
LINE
  8
2
 62
134
  6
CONTINUOUS
 10
37.950971
 20
106.233216
 11
37.950971
 21
105.197940
  0
LINE
  8
2
 62
134
  6
CONTINUOUS
 10
36.502083
 20
105.715578
 11
37.468008
 21
105.974397
  0
LINE
  8
2
 62
134
  6
CONTINUOUS
 10
36.502083
 20
105.715578
 11
37.468008
 21
105.456759
  0
LINE
  8
2
 62
134
  6
CONTINUOUS
 10
37.468008
 20
105.974397
 11
37.468008
 21
105.456759
  0
TEXT
  8
2
 62
134
  6
CONTINUOUS
 10
54.629058
 20
105.715578
 40
4.000000
 41
0.500000
  1
45
  7
KANJI
 50
0.000000
 51
30.000000
  0
ENDBLK
  0
BLOCK
  8
3
 62
214
  6
CONTINUOUS
  2
*D9
 70
    65
 10
0.0
 20
0.0
  0
LINE
  8
3
 62
214
  6
CONTINUOUS
 10
27.757341
 20
108.906240
 11
27.757341
 21
178.000000
  0
LINE
  8
3
 62
214
  6
CONTINUOUS
 10
27.757341
 20
116.906240
 11
28.274979
 21
114.974389
  0
LINE
  8
3
 62
214
  6
CONTINUOUS
 10
27.757341
 20
116.906240
 11
27.239703
 21
114.974389
  0
LINE
  8
3
 62
214
  6
CONTINUOUS
 10
28.274979
 20
114.974389
 11
27.239703
 21
114.974389
  0
LINE
  8
3
 62
214
  6
CONTINUOUS
 10
27.757341
 20
116.423277
 11
28.016160
 21
115.457352
  0
LINE
  8
3
 62
214
  6
CONTINUOUS
 10
27.757341
 20
116.423277
 11
27.498522
 21
115.457352
  0
LINE
  8
3
 62
214
  6
CONTINUOUS
 10
28.016160
 20
115.457352
 11
27.498522
 21
115.457352
  0
LINE
  8
3
 62
214
  6
CONTINUOUS
 10
27.757341
 20
139.906240
 11
27.239703
 21
141.838092
  0
LINE
  8
3
 62
214
  6
CONTINUOUS
 10
27.757341
 20
139.906240
 11
28.274979
 21
141.838092
  0
LINE
  8
3
 62
214
  6
CONTINUOUS
 10
27.239703
 20
141.838092
 11
28.274979
 21
141.838092
  0
LINE
  8
3
 62
214
  6
CONTINUOUS
 10
27.757341
 20
140.389203
 11
27.498522
 21
141.355129
  0
LINE
  8
3
 62
214
  6
CONTINUOUS
 10
27.757341
 20
140.389203
 11
28.016160
 21
141.355129
  0
LINE
  8
3
 62
214
  6
CONTINUOUS
 10
27.498522
 20
141.355129
 11
28.016160
 21
141.355129
  0
TEXT
  8
3
 62
214
  6
CONTINUOUS
 10
27.757341
 20
143.000000
 40
4.000000
 41
0.708333
  1
φ23(ﾚﾝｽﾞ有効径）
  7
KANJI
 50
90.000000
 51
30.000000
  0
ENDBLK
  0
BLOCK
  8
2
 62
134
  6
CONTINUOUS
  2
*D10
 70
    65
 10
0.0
 20
0.0
  0
LINE
  8
2
 62
134
  6
CONTINUOUS
 10
22.458975
 20
113.406240
 11
22.458975
 21
128.406240
  0
LINE
  8
2
 62
134
  6
CONTINUOUS
 10
20.458975
 20
113.406240
 11
35.019120
 21
113.406240
  0
LINE
  8
2
 62
134
  6
CONTINUOUS
 10
22.458975
 20
113.406240
 11
21.941336
 21
115.338092
  0
LINE
  8
2
 62
134
  6
CONTINUOUS
 10
22.458975
 20
113.406240
 11
22.976613
 21
115.338092
  0
LINE
  8
2
 62
134
  6
CONTINUOUS
 10
21.941336
 20
115.338092
 11
22.976613
 21
115.338092
  0
LINE
  8
2
 62
134
  6
CONTINUOUS
 10
22.458975
 20
113.889203
 11
22.200156
 21
114.855129
  0
LINE
  8
2
 62
134
  6
CONTINUOUS
 10
22.458975
 20
113.889203
 11
22.717794
 21
114.855129
  0
LINE
  8
2
 62
134
  6
CONTINUOUS
 10
22.200156
 20
114.855129
 11
22.717794
 21
114.855129
  0
LINE
  8
2
 62
134
  6
CONTINUOUS
 10
22.458975
 20
128.406240
 11
22.976613
 21
126.474389
  0
LINE
  8
2
 62
134
  6
CONTINUOUS
 10
22.458975
 20
128.406240
 11
21.941336
 21
126.474389
  0
LINE
  8
2
 62
134
  6
CONTINUOUS
 10
22.976613
 20
126.474389
 11
21.941336
 21
126.474389
  0
LINE
  8
2
 62
134
  6
CONTINUOUS
 10
22.458975
 20
127.923277
 11
22.717794
 21
126.957352
  0
LINE
  8
2
 62
134
  6
CONTINUOUS
 10
22.458975
 20
127.923277
 11
22.200156
 21
126.957352
  0
LINE
  8
2
 62
134
  6
CONTINUOUS
 10
22.717794
 20
126.957352
 11
22.200156
 21
126.957352
  0
TEXT
  8
2
 62
134
  6
CONTINUOUS
 10
22.458975
 20
120.325958
 40
4.000000
 41
0.500000
  1
15
  7
KANJI
 50
90.000000
 51
30.000000
  0
ENDBLK
  0
BLOCK
  8
2
 62
134
  6
CONTINUOUS
  2
*D11
 70
    65
 10
0.0
 20
0.0
  0
LINE
  8
2
 62
134
  6
CONTINUOUS
 10
13.313246
 20
141.907474
 11
13.313246
 21
114.905006
  0
LINE
  8
2
 62
134
  6
CONTINUOUS
 10
11.313246
 20
141.907474
 11
34.019120
 21
141.907474
  0
LINE
  8
2
 62
134
  6
CONTINUOUS
 10
11.313246
 20
114.905006
 11
34.019120
 21
114.905006
  0
LINE
  8
2
 62
134
  6
CONTINUOUS
 10
13.313246
 20
141.907474
 11
13.830884
 21
139.975623
  0
LINE
  8
2
 62
134
  6
CONTINUOUS
 10
13.313246
 20
141.907474
 11
12.795608
 21
139.975623
  0
LINE
  8
2
 62
134
  6
CONTINUOUS
 10
13.830884
 20
139.975623
 11
12.795608
 21
139.975623
  0
LINE
  8
2
 62
134
  6
CONTINUOUS
 10
13.313246
 20
141.424511
 11
13.572065
 21
140.458585
  0
LINE
  8
2
 62
134
  6
CONTINUOUS
 10
13.313246
 20
141.424511
 11
13.054427
 21
140.458585
  0
LINE
  8
2
 62
134
  6
CONTINUOUS
 10
13.572065
 20
140.458585
 11
13.054427
 21
140.458585
  0
LINE
  8
2
 62
134
  6
CONTINUOUS
 10
13.313246
 20
114.905006
 11
12.795608
 21
116.836858
  0
LINE
  8
2
 62
134
  6
CONTINUOUS
 10
13.313246
 20
114.905006
 11
13.830884
 21
116.836858
  0
LINE
  8
2
 62
134
  6
CONTINUOUS
 10
12.795608
 20
116.836858
 11
13.830884
 21
116.836858
  0
LINE
  8
2
 62
134
  6
CONTINUOUS
 10
13.313246
 20
115.387969
 11
13.054427
 21
116.353895
  0
LINE
  8
2
 62
134
  6
CONTINUOUS
 10
13.313246
 20
115.387969
 11
13.572065
 21
116.353895
  0
LINE
  8
2
 62
134
  6
CONTINUOUS
 10
13.054427
 20
116.353895
 11
13.572065
 21
116.353895
  0
TEXT
  8
2
 62
134
  6
CONTINUOUS
 10
13.313246
 20
119.997491
 40
4.000000
 41
0.500000
  1
M27P0.75
  7
KANJI
 50
90.000000
 51
30.000000
  0
ENDBLK
  0
BLOCK
  8
2
 62
134
  6
CONTINUOUS
  2
*D12
 70
    65
 10
0.0
 20
0.0
  0
LINE
  8
2
 62
134
  6
CONTINUOUS
 10
250.978481
 20
170.106766
 11
276.978481
 21
170.106766
  0
LINE
  8
2
 62
134
  6
CONTINUOUS
 10
250.978481
 20
174.106766
 11
250.978481
 21
158.406240
  0
LINE
  8
2
 62
134
  6
CONTINUOUS
 10
276.978481
 20
174.106766
 11
276.978481
 21
158.406240
  0
LINE
  8
2
 62
134
  6
CONTINUOUS
 10
250.978481
 20
170.106766
 11
252.910332
 21
170.624404
  0
LINE
  8
2
 62
134
  6
CONTINUOUS
 10
250.978481
 20
170.106766
 11
252.910332
 21
169.589128
  0
LINE
  8
2
 62
134
  6
CONTINUOUS
 10
252.910332
 20
170.624404
 11
252.910332
 21
169.589128
  0
LINE
  8
2
 62
134
  6
CONTINUOUS
 10
251.461444
 20
170.106766
 11
252.427369
 21
170.365585
  0
LINE
  8
2
 62
134
  6
CONTINUOUS
 10
251.461444
 20
170.106766
 11
252.427369
 21
169.847947
  0
LINE
  8
2
 62
134
  6
CONTINUOUS
 10
252.427369
 20
170.365585
 11
252.427369
 21
169.847947
  0
LINE
  8
2
 62
134
  6
CONTINUOUS
 10
276.978481
 20
170.106766
 11
275.046629
 21
169.589128
  0
LINE
  8
2
 62
134
  6
CONTINUOUS
 10
276.978481
 20
170.106766
 11
275.046629
 21
170.624404
  0
LINE
  8
2
 62
134
  6
CONTINUOUS
 10
275.046629
 20
169.589128
 11
275.046629
 21
170.624404
  0
LINE
  8
2
 62
134
  6
CONTINUOUS
 10
276.495518
 20
170.106766
 11
275.529592
 21
169.847947
  0
LINE
  8
2
 62
134
  6
CONTINUOUS
 10
276.495518
 20
170.106766
 11
275.529592
 21
170.365585
  0
LINE
  8
2
 62
134
  6
CONTINUOUS
 10
275.529592
 20
169.847947
 11
275.529592
 21
170.365585
  0
TEXT
  8
2
 62
134
  6
CONTINUOUS
 10
259.978481
 20
170.106766
 40
4.000000
 41
0.500000
  1
26.5
  7
KANJI
 50
0.000000
 51
30.000000
  0
ENDBLK
  0
BLOCK
  8
2
 62
134
  6
CONTINUOUS
  2
*D13
 70
    65
 10
0.0
 20
0.0
  0
LINE
  8
2
 62
134
  6
CONTINUOUS
 10
265.678477
 20
160.688338
 11
280.978477
 21
160.688338
  0
LINE
  8
2
 62
134
  6
CONTINUOUS
 10
269.678477
 20
162.688338
 11
269.678477
 21
143.362705
  0
LINE
  8
2
 62
134
  6
CONTINUOUS
 10
276.978477
 20
162.688338
 11
276.978477
 21
143.675671
  0
LINE
  8
2
 62
134
  6
CONTINUOUS
 10
269.678477
 20
160.688338
 11
267.746625
 21
160.170700
  0
LINE
  8
2
 62
134
  6
CONTINUOUS
 10
269.678477
 20
160.688338
 11
267.746625
 21
161.205976
  0
LINE
  8
2
 62
134
  6
CONTINUOUS
 10
267.746625
 20
160.170700
 11
267.746625
 21
161.205976
  0
LINE
  8
2
 62
134
  6
CONTINUOUS
 10
269.195514
 20
160.688338
 11
268.229588
 21
160.429519
  0
LINE
  8
2
 62
134
  6
CONTINUOUS
 10
269.195514
 20
160.688338
 11
268.229588
 21
160.947157
  0
LINE
  8
2
 62
134
  6
CONTINUOUS
 10
268.229588
 20
160.429519
 11
268.229588
 21
160.947157
  0
LINE
  8
2
 62
134
  6
CONTINUOUS
 10
276.978477
 20
160.688338
 11
278.910329
 21
161.205976
  0
LINE
  8
2
 62
134
  6
CONTINUOUS
 10
276.978477
 20
160.688338
 11
278.910329
 21
160.170700
  0
LINE
  8
2
 62
134
  6
CONTINUOUS
 10
278.910329
 20
161.205976
 11
278.910329
 21
160.170700
  0
LINE
  8
2
 62
134
  6
CONTINUOUS
 10
277.461440
 20
160.688338
 11
278.427366
 21
160.947157
  0
LINE
  8
2
 62
134
  6
CONTINUOUS
 10
277.461440
 20
160.688338
 11
278.427366
 21
160.429519
  0
LINE
  8
2
 62
134
  6
CONTINUOUS
 10
278.427366
 20
160.947157
 11
278.427366
 21
160.429519
  0
TEXT
  8
2
 62
134
  6
CONTINUOUS
 10
270.054556
 20
160.688338
 40
4.000000
 41
0.500000
  1
7.6
  7
KANJI
 50
0.000000
 51
30.000000
  0
ENDBLK
  0
BLOCK
  8
2
 62
134
  6
CONTINUOUS
  2
*D14
 70
    65
 10
0.0
 20
0.0
  0
LINE
  8
2
 62
134
  6
CONTINUOUS
 10
282.643334
 20
113.406240
 11
282.643334
 21
134.806242
  0
LINE
  8
2
 62
134
  6
CONTINUOUS
 10
284.643334
 20
113.406240
 11
275.269574
 21
113.406240
  0
LINE
  8
2
 62
134
  6
CONTINUOUS
 10
284.643334
 20
134.806242
 11
274.478477
 21
134.806242
  0
LINE
  8
2
 62
134
  6
CONTINUOUS
 10
282.643334
 20
113.406240
 11
282.125696
 21
115.338092
  0
LINE
  8
2
 62
134
  6
CONTINUOUS
 10
282.643334
 20
113.406240
 11
283.160972
 21
115.338092
  0
LINE
  8
2
 62
134
  6
CONTINUOUS
 10
282.125696
 20
115.338092
 11
283.160972
 21
115.338092
  0
LINE
  8
2
 62
134
  6
CONTINUOUS
 10
282.643334
 20
113.889203
 11
282.384515
 21
114.855129
  0
LINE
  8
2
 62
134
  6
CONTINUOUS
 10
282.643334
 20
113.889203
 11
282.902153
 21
114.855129
  0
LINE
  8
2
 62
134
  6
CONTINUOUS
 10
282.384515
 20
114.855129
 11
282.902153
 21
114.855129
  0
LINE
  8
2
 62
134
  6
CONTINUOUS
 10
282.643334
 20
134.806242
 11
283.160972
 21
132.874391
  0
LINE
  8
2
 62
134
  6
CONTINUOUS
 10
282.643334
 20
134.806242
 11
282.125696
 21
132.874391
  0
LINE
  8
2
 62
134
  6
CONTINUOUS
 10
283.160972
 20
132.874391
 11
282.125696
 21
132.874391
  0
LINE
  8
2
 62
134
  6
CONTINUOUS
 10
282.643334
 20
134.323279
 11
282.902153
 21
133.357353
  0
LINE
  8
2
 62
134
  6
CONTINUOUS
 10
282.643334
 20
134.323279
 11
282.384515
 21
133.357353
  0
LINE
  8
2
 62
134
  6
CONTINUOUS
 10
282.902153
 20
133.357353
 11
282.384515
 21
133.357353
  0
TEXT
  8
2
 62
134
  6
CONTINUOUS
 10
282.643334
 20
124.628298
 40
4.000000
 41
0.500000
  1
21.4
  7
KANJI
 50
90.000000
 51
30.000000
  0
ENDBLK
  0
BLOCK
  8
2
 62
134
  6
CONTINUOUS
  2
*D15
 70
    65
 10
0.0
 20
0.0
  0
LINE
  8
2
 62
134
  6
CONTINUOUS
 10
287.655897
 20
113.406240
 11
287.655897
 21
139.406242
  0
LINE
  8
2
 62
134
  6
CONTINUOUS
 10
289.655897
 20
113.406240
 11
276.978477
 21
113.406240
  0
LINE
  8
2
 62
134
  6
CONTINUOUS
 10
289.655897
 20
139.406242
 11
273.836602
 21
139.406242
  0
LINE
  8
2
 62
134
  6
CONTINUOUS
 10
287.655897
 20
113.406240
 11
287.138259
 21
115.338092
  0
LINE
  8
2
 62
134
  6
CONTINUOUS
 10
287.655897
 20
113.406240
 11
288.173535
 21
115.338092
  0
LINE
  8
2
 62
134
  6
CONTINUOUS
 10
287.138259
 20
115.338092
 11
288.173535
 21
115.338092
  0
LINE
  8
2
 62
134
  6
CONTINUOUS
 10
287.655897
 20
113.889203
 11
287.397078
 21
114.855129
  0
LINE
  8
2
 62
134
  6
CONTINUOUS
 10
287.655897
 20
113.889203
 11
287.914716
 21
114.855129
  0
LINE
  8
2
 62
134
  6
CONTINUOUS
 10
287.397078
 20
114.855129
 11
287.914716
 21
114.855129
  0
LINE
  8
2
 62
134
  6
CONTINUOUS
 10
287.655897
 20
139.406242
 11
288.173535
 21
137.474391
  0
LINE
  8
2
 62
134
  6
CONTINUOUS
 10
287.655897
 20
139.406242
 11
287.138259
 21
137.474391
  0
LINE
  8
2
 62
134
  6
CONTINUOUS
 10
288.173535
 20
137.474391
 11
287.138259
 21
137.474391
  0
LINE
  8
2
 62
134
  6
CONTINUOUS
 10
287.655897
 20
138.923279
 11
287.914716
 21
137.957353
  0
LINE
  8
2
 62
134
  6
CONTINUOUS
 10
287.655897
 20
138.923279
 11
287.397078
 21
137.957353
  0
LINE
  8
2
 62
134
  6
CONTINUOUS
 10
287.914716
 20
137.957353
 11
287.397078
 21
137.957353
  0
TEXT
  8
2
 62
134
  6
CONTINUOUS
 10
287.655897
 20
125.748901
 40
4.000000
 41
0.500000
  1
26
  7
KANJI
 50
90.000000
 51
30.000000
  0
ENDBLK
  0
BLOCK
  8
2
 62
134
  6
CONTINUOUS
  2
*D16
 70
    65
 10
0.0
 20
0.0
  0
LINE
  8
2
 62
134
  6
CONTINUOUS
 10
266.278477
 20
122.648398
 11
280.978477
 21
122.648398
  0
LINE
  8
2
 62
134
  6
CONTINUOUS
 10
270.278477
 20
120.648398
 11
270.278477
 21
130.028099
  0
LINE
  8
2
 62
134
  6
CONTINUOUS
 10
276.978477
 20
120.648398
 11
276.978477
 21
123.462469
  0
LINE
  8
2
 62
134
  6
CONTINUOUS
 10
270.278477
 20
122.648398
 11
268.346625
 21
122.130760
  0
LINE
  8
2
 62
134
  6
CONTINUOUS
 10
270.278477
 20
122.648398
 11
268.346625
 21
123.166036
  0
LINE
  8
2
 62
134
  6
CONTINUOUS
 10
268.346625
 20
122.130760
 11
268.346625
 21
123.166036
  0
LINE
  8
2
 62
134
  6
CONTINUOUS
 10
269.795514
 20
122.648398
 11
268.829588
 21
122.389579
  0
LINE
  8
2
 62
134
  6
CONTINUOUS
 10
269.795514
 20
122.648398
 11
268.829588
 21
122.907217
  0
LINE
  8
2
 62
134
  6
CONTINUOUS
 10
268.829588
 20
122.389579
 11
268.829588
 21
122.907217
  0
LINE
  8
2
 62
134
  6
CONTINUOUS
 10
276.978477
 20
122.648398
 11
278.910329
 21
123.166036
  0
LINE
  8
2
 62
134
  6
CONTINUOUS
 10
276.978477
 20
122.648398
 11
278.910329
 21
122.130760
  0
LINE
  8
2
 62
134
  6
CONTINUOUS
 10
278.910329
 20
123.166036
 11
278.910329
 21
122.130760
  0
LINE
  8
2
 62
134
  6
CONTINUOUS
 10
277.461440
 20
122.648398
 11
278.427366
 21
122.907217
  0
LINE
  8
2
 62
134
  6
CONTINUOUS
 10
277.461440
 20
122.648398
 11
278.427366
 21
122.389579
  0
LINE
  8
2
 62
134
  6
CONTINUOUS
 10
278.427366
 20
122.907217
 11
278.427366
 21
122.389579
  0
TEXT
  8
2
 62
134
  6
CONTINUOUS
 10
272.013937
 20
122.648398
 40
4.000000
 41
0.500000
  1
7
  7
KANJI
 50
0.000000
 51
30.000000
  0
ENDBLK
  0
BLOCK
  8
3
 62
214
  6
CONTINUOUS
  2
*D17
 70
    65
 10
0.0
 20
0.0
  0
LINE
  8
3
 62
214
  6
CONTINUOUS
 10
122.019120
 20
161.509385
 11
157.449749
 21
161.509385
  0
LINE
  8
3
 62
214
  6
CONTINUOUS
 10
122.019120
 20
163.509385
 11
122.019120
 21
145.906240
  0
LINE
  8
3
 62
214
  6
CONTINUOUS
 10
157.449749
 20
163.509385
 11
157.449749
 21
145.906240
  0
LINE
  8
3
 62
214
  6
CONTINUOUS
 10
122.019120
 20
161.509385
 11
123.950971
 21
162.027023
  0
LINE
  8
3
 62
214
  6
CONTINUOUS
 10
122.019120
 20
161.509385
 11
123.950971
 21
160.991747
  0
LINE
  8
3
 62
214
  6
CONTINUOUS
 10
123.950971
 20
162.027023
 11
123.950971
 21
160.991747
  0
LINE
  8
3
 62
214
  6
CONTINUOUS
 10
122.502083
 20
161.509385
 11
123.468008
 21
161.768204
  0
LINE
  8
3
 62
214
  6
CONTINUOUS
 10
122.502083
 20
161.509385
 11
123.468008
 21
161.250566
  0
LINE
  8
3
 62
214
  6
CONTINUOUS
 10
123.468008
 20
161.768204
 11
123.468008
 21
161.250566
  0
LINE
  8
3
 62
214
  6
CONTINUOUS
 10
157.449749
 20
161.509385
 11
155.517897
 21
160.991747
  0
LINE
  8
3
 62
214
  6
CONTINUOUS
 10
157.449749
 20
161.509385
 11
155.517897
 21
162.027023
  0
LINE
  8
3
 62
214
  6
CONTINUOUS
 10
155.517897
 20
160.991747
 11
155.517897
 21
162.027023
  0
LINE
  8
3
 62
214
  6
CONTINUOUS
 10
156.966786
 20
161.509385
 11
156.000860
 21
161.250566
  0
LINE
  8
3
 62
214
  6
CONTINUOUS
 10
156.966786
 20
161.509385
 11
156.000860
 21
161.768204
  0
LINE
  8
3
 62
214
  6
CONTINUOUS
 10
156.000860
 20
161.250566
 11
156.000860
 21
161.768204
  0
TEXT
  8
3
 62
214
  6
CONTINUOUS
 10
133.742756
 20
161.509385
 40
4.000000
 41
0.583333
  1
ｹｰﾌﾞﾙ長
  7
KANJI
 50
0.000000
 51
30.000000
  0
ENDBLK
  0
BLOCK
  8
2
 62
134
  6
CONTINUOUS
  2
*D18
 70
    65
 10
0.0
 20
0.0
  0
LINE
  8
2
 62
134
  6
CONTINUOUS
 10
157.449749
 20
161.509385
 11
208.920119
 21
161.509385
  0
LINE
  8
2
 62
134
  6
CONTINUOUS
 10
157.449749
 20
163.509385
 11
157.449749
 21
147.906240
  0
LINE
  8
2
 62
134
  6
CONTINUOUS
 10
208.920119
 20
163.509385
 11
208.920119
 21
151.915404
  0
LINE
  8
2
 62
134
  6
CONTINUOUS
 10
157.449749
 20
161.509385
 11
159.381600
 21
162.027023
  0
LINE
  8
2
 62
134
  6
CONTINUOUS
 10
157.449749
 20
161.509385
 11
159.381600
 21
160.991747
  0
LINE
  8
2
 62
134
  6
CONTINUOUS
 10
159.381600
 20
162.027023
 11
159.381600
 21
160.991747
  0
LINE
  8
2
 62
134
  6
CONTINUOUS
 10
157.932712
 20
161.509385
 11
158.898637
 21
161.768204
  0
LINE
  8
2
 62
134
  6
CONTINUOUS
 10
157.932712
 20
161.509385
 11
158.898637
 21
161.250566
  0
LINE
  8
2
 62
134
  6
CONTINUOUS
 10
158.898637
 20
161.768204
 11
158.898637
 21
161.250566
  0
LINE
  8
2
 62
134
  6
CONTINUOUS
 10
208.920119
 20
161.509385
 11
206.988268
 21
160.991747
  0
LINE
  8
2
 62
134
  6
CONTINUOUS
 10
208.920119
 20
161.509385
 11
206.988268
 21
162.027023
  0
LINE
  8
2
 62
134
  6
CONTINUOUS
 10
206.988268
 20
160.991747
 11
206.988268
 21
162.027023
  0
LINE
  8
2
 62
134
  6
CONTINUOUS
 10
208.437157
 20
161.509385
 11
207.471231
 21
161.250566
  0
LINE
  8
2
 62
134
  6
CONTINUOUS
 10
208.437157
 20
161.509385
 11
207.471231
 21
161.768204
  0
LINE
  8
2
 62
134
  6
CONTINUOUS
 10
207.471231
 20
161.250566
 11
207.471231
 21
161.768204
  0
TEXT
  8
2
 62
134
  6
CONTINUOUS
 10
180.584256
 20
161.509385
 40
4.000000
 41
0.500000
  1
100
  7
KANJI
 50
0.000000
 51
30.000000
  0
ENDBLK
  0
BLOCK
  8
2
 62
134
  6
CONTINUOUS
  2
*D19
 70
    65
 10
0.0
 20
0.0
  0
LINE
  8
2
 62
134
  6
CONTINUOUS
 10
134.724992
 20
113.406240
 11
134.724992
 21
145.906240
  0
LINE
  8
2
 62
134
  6
CONTINUOUS
 10
136.724992
 20
113.406240
 11
124.019120
 21
113.406240
  0
LINE
  8
2
 62
134
  6
CONTINUOUS
 10
136.724992
 20
145.906240
 11
128.519120
 21
145.906240
  0
LINE
  8
2
 62
134
  6
CONTINUOUS
 10
134.724992
 20
113.406240
 11
134.207354
 21
115.338092
  0
LINE
  8
2
 62
134
  6
CONTINUOUS
 10
134.724992
 20
113.406240
 11
135.242630
 21
115.338092
  0
LINE
  8
2
 62
134
  6
CONTINUOUS
 10
134.207354
 20
115.338092
 11
135.242630
 21
115.338092
  0
LINE
  8
2
 62
134
  6
CONTINUOUS
 10
134.724992
 20
113.889203
 11
134.466173
 21
114.855129
  0
LINE
  8
2
 62
134
  6
CONTINUOUS
 10
134.724992
 20
113.889203
 11
134.983811
 21
114.855129
  0
LINE
  8
2
 62
134
  6
CONTINUOUS
 10
134.466173
 20
114.855129
 11
134.983811
 21
114.855129
  0
LINE
  8
2
 62
134
  6
CONTINUOUS
 10
134.724992
 20
145.906240
 11
135.242630
 21
143.974389
  0
LINE
  8
2
 62
134
  6
CONTINUOUS
 10
134.724992
 20
145.906240
 11
134.207354
 21
143.974389
  0
LINE
  8
2
 62
134
  6
CONTINUOUS
 10
135.242630
 20
143.974389
 11
134.207354
 21
143.974389
  0
LINE
  8
2
 62
134
  6
CONTINUOUS
 10
134.724992
 20
145.423277
 11
134.983811
 21
144.457352
  0
LINE
  8
2
 62
134
  6
CONTINUOUS
 10
134.724992
 20
145.423277
 11
134.466173
 21
144.457352
  0
LINE
  8
2
 62
134
  6
CONTINUOUS
 10
134.983811
 20
144.457352
 11
134.466173
 21
144.457352
  0
TEXT
  8
2
 62
134
  6
CONTINUOUS
 10
134.724992
 20
127.250000
 40
4.000000
 41
0.500000
  1
32.5
  7
KANJI
 50
90.000000
 51
30.000000
  0
ENDBLK
  0
BLOCK
  8
2
 62
134
  6
CONTINUOUS
  2
*D20
 70
    65
 10
0.0
 20
0.0
  0
LINE
  8
2
 62
134
  6
CONTINUOUS
 10
127.270729
 20
109.406240
 11
127.270729
 21
121.406240
  0
LINE
  8
2
 62
134
  6
CONTINUOUS
 10
131.270729
 20
113.406240
 11
126.019120
 21
113.406240
  0
LINE
  8
2
 62
134
  6
CONTINUOUS
 10
131.270729
 20
117.406240
 11
120.634624
 21
117.406240
  0
LINE
  8
2
 62
134
  6
CONTINUOUS
 10
127.270729
 20
113.406240
 11
127.788367
 21
111.474389
  0
LINE
  8
2
 62
134
  6
CONTINUOUS
 10
127.270729
 20
113.406240
 11
126.753091
 21
111.474389
  0
LINE
  8
2
 62
134
  6
CONTINUOUS
 10
127.788367
 20
111.474389
 11
126.753091
 21
111.474389
  0
LINE
  8
2
 62
134
  6
CONTINUOUS
 10
127.270729
 20
112.923277
 11
127.529548
 21
111.957352
  0
LINE
  8
2
 62
134
  6
CONTINUOUS
 10
127.270729
 20
112.923277
 11
127.011910
 21
111.957352
  0
LINE
  8
2
 62
134
  6
CONTINUOUS
 10
127.529548
 20
111.957352
 11
127.011910
 21
111.957352
  0
LINE
  8
2
 62
134
  6
CONTINUOUS
 10
127.270729
 20
117.406240
 11
126.753091
 21
119.338092
  0
LINE
  8
2
 62
134
  6
CONTINUOUS
 10
127.270729
 20
117.406240
 11
127.788367
 21
119.338092
  0
LINE
  8
2
 62
134
  6
CONTINUOUS
 10
126.753091
 20
119.338092
 11
127.788367
 21
119.338092
  0
LINE
  8
2
 62
134
  6
CONTINUOUS
 10
127.270729
 20
117.889203
 11
127.011910
 21
118.855129
  0
LINE
  8
2
 62
134
  6
CONTINUOUS
 10
127.270729
 20
117.889203
 11
127.529548
 21
118.855129
  0
LINE
  8
2
 62
134
  6
CONTINUOUS
 10
127.011910
 20
118.855129
 11
127.529548
 21
118.855129
  0
TEXT
  8
2
 62
134
  6
CONTINUOUS
 10
127.270729
 20
113.406240
 40
4.000000
 41
0.500000
  1
4
  7
KANJI
 50
90.000000
 51
30.000000
  0
ENDBLK
  0
BLOCK
  8
2
 62
134
  6
CONTINUOUS
  2
*D21
 70
    65
 10
0.0
 20
0.0
  0
LINE
  8
2
 62
134
  6
CONTINUOUS
 10
73.551939
 20
109.406240
 11
73.551939
 21
171.165240
  0
LINE
  8
2
 62
134
  6
CONTINUOUS
 10
71.551939
 20
113.406240
 11
79.019120
 21
113.406240
  0
LINE
  8
2
 62
134
  6
CONTINUOUS
 10
71.551939
 20
154.606240
 11
79.019120
 21
154.606240
  0
LINE
  8
2
 62
134
  6
CONTINUOUS
 10
73.551939
 20
113.406240
 11
74.069577
 21
111.474389
  0
LINE
  8
2
 62
134
  6
CONTINUOUS
 10
73.551939
 20
113.406240
 11
73.034301
 21
111.474389
  0
LINE
  8
2
 62
134
  6
CONTINUOUS
 10
74.069577
 20
111.474389
 11
73.034301
 21
111.474389
  0
LINE
  8
2
 62
134
  6
CONTINUOUS
 10
73.551939
 20
112.923277
 11
73.810758
 21
111.957352
  0
LINE
  8
2
 62
134
  6
CONTINUOUS
 10
73.551939
 20
112.923277
 11
73.293120
 21
111.957352
  0
LINE
  8
2
 62
134
  6
CONTINUOUS
 10
73.810758
 20
111.957352
 11
73.293120
 21
111.957352
  0
LINE
  8
2
 62
134
  6
CONTINUOUS
 10
73.551939
 20
154.606240
 11
73.034301
 21
156.538092
  0
LINE
  8
2
 62
134
  6
CONTINUOUS
 10
73.551939
 20
154.606240
 11
74.069577
 21
156.538092
  0
LINE
  8
2
 62
134
  6
CONTINUOUS
 10
73.034301
 20
156.538092
 11
74.069577
 21
156.538092
  0
LINE
  8
2
 62
134
  6
CONTINUOUS
 10
73.551939
 20
155.089203
 11
73.293120
 21
156.055129
  0
LINE
  8
2
 62
134
  6
CONTINUOUS
 10
73.551939
 20
155.089203
 11
73.810758
 21
156.055129
  0
LINE
  8
2
 62
134
  6
CONTINUOUS
 10
73.293120
 20
156.055129
 11
73.810758
 21
156.055129
  0
TEXT
  8
2
 62
134
  6
CONTINUOUS
 10
73.551939
 20
162.165374
 40
4.000000
 41
0.500000
  1
41.2
  7
KANJI
 50
90.000000
 51
30.000000
  0
ENDBLK
  0
BLOCK
  8
2
 62
134
  6
CONTINUOUS
  2
*D22
 70
    65
 10
0.0
 20
0.0
  0
LINE
  8
2
 62
134
  6
CONTINUOUS
 10
148.905269
 20
140.006240
 11
148.905269
 21
160.358240
  0
LINE
  8
2
 62
134
  6
CONTINUOUS
 10
148.905269
 20
144.006240
 11
149.422907
 21
142.074389
  0
LINE
  8
2
 62
134
  6
CONTINUOUS
 10
148.905269
 20
144.006240
 11
148.387630
 21
142.074389
  0
LINE
  8
2
 62
134
  6
CONTINUOUS
 10
149.422907
 20
142.074389
 11
148.387630
 21
142.074389
  0
LINE
  8
2
 62
134
  6
CONTINUOUS
 10
148.905269
 20
143.523277
 11
149.164088
 21
142.557352
  0
LINE
  8
2
 62
134
  6
CONTINUOUS
 10
148.905269
 20
143.523277
 11
148.646449
 21
142.557352
  0
LINE
  8
2
 62
134
  6
CONTINUOUS
 10
149.164088
 20
142.557352
 11
148.646449
 21
142.557352
  0
LINE
  8
2
 62
134
  6
CONTINUOUS
 10
148.905269
 20
147.806240
 11
148.387630
 21
149.738092
  0
LINE
  8
2
 62
134
  6
CONTINUOUS
 10
148.905269
 20
147.806240
 11
149.422907
 21
149.738092
  0
LINE
  8
2
 62
134
  6
CONTINUOUS
 10
148.387630
 20
149.738092
 11
149.422907
 21
149.738092
  0
LINE
  8
2
 62
134
  6
CONTINUOUS
 10
148.905269
 20
148.289203
 11
148.646449
 21
149.255129
  0
LINE
  8
2
 62
134
  6
CONTINUOUS
 10
148.905269
 20
148.289203
 11
149.164088
 21
149.255129
  0
LINE
  8
2
 62
134
  6
CONTINUOUS
 10
148.646449
 20
149.255129
 11
149.164088
 21
149.255129
  0
TEXT
  8
2
 62
134
  6
CONTINUOUS
 10
148.905269
 20
149.357894
 40
4.000000
 41
0.625000
  1
φ3.8
  7
KANJI
 50
90.000000
 51
30.000000
  0
ENDBLK
  0
BLOCK
  8
2
 62
134
  6
CONTINUOUS
  2
*D23
 70
    65
 10
0.0
 20
0.0
  0
LINE
  8
2
 62
134
  6
CONTINUOUS
 10
77.019120
 20
39.449503
 11
91.719120
 21
39.449503
  0
LINE
  8
2
 62
134
  6
CONTINUOUS
 10
81.019120
 20
37.449503
 11
81.019120
 21
43.667039
  0
LINE
  8
2
 62
134
  6
CONTINUOUS
 10
87.719120
 20
37.449503
 11
87.719120
 21
56.917039
  0
LINE
  8
2
 62
134
  6
CONTINUOUS
 10
81.019120
 20
39.449503
 11
79.087268
 21
38.931865
  0
LINE
  8
2
 62
134
  6
CONTINUOUS
 10
81.019120
 20
39.449503
 11
79.087268
 21
39.967141
  0
LINE
  8
2
 62
134
  6
CONTINUOUS
 10
79.087268
 20
38.931865
 11
79.087268
 21
39.967141
  0
LINE
  8
2
 62
134
  6
CONTINUOUS
 10
80.536157
 20
39.449503
 11
79.570231
 21
39.190684
  0
LINE
  8
2
 62
134
  6
CONTINUOUS
 10
80.536157
 20
39.449503
 11
79.570231
 21
39.708322
  0
LINE
  8
2
 62
134
  6
CONTINUOUS
 10
79.570231
 20
39.190684
 11
79.570231
 21
39.708322
  0
LINE
  8
2
 62
134
  6
CONTINUOUS
 10
87.719120
 20
39.449503
 11
89.650971
 21
39.967141
  0
LINE
  8
2
 62
134
  6
CONTINUOUS
 10
87.719120
 20
39.449503
 11
89.650971
 21
38.931865
  0
LINE
  8
2
 62
134
  6
CONTINUOUS
 10
89.650971
 20
39.967141
 11
89.650971
 21
38.931865
  0
LINE
  8
2
 62
134
  6
CONTINUOUS
 10
88.202083
 20
39.449503
 11
89.168008
 21
39.708322
  0
LINE
  8
2
 62
134
  6
CONTINUOUS
 10
88.202083
 20
39.449503
 11
89.168008
 21
39.190684
  0
LINE
  8
2
 62
134
  6
CONTINUOUS
 10
89.168008
 20
39.708322
 11
89.168008
 21
39.190684
  0
TEXT
  8
2
 62
134
  6
CONTINUOUS
 10
81.747962
 20
39.449503
 40
4.000000
 41
0.500000
  1
6.7
  7
KANJI
 50
0.000000
 51
30.000000
  0
ENDBLK
  0
BLOCK
  8
2
 62
134
  6
CONTINUOUS
  2
*D24
 70
    65
 10
0.0
 20
0.0
  0
LINE
  8
2
 62
134
  6
CONTINUOUS
 10
143.205243
 20
44.661039
 11
143.205243
 21
68.117039
  0
LINE
  8
2
 62
134
  6
CONTINUOUS
 10
145.205243
 20
53.717039
 11
128.519120
 21
53.717039
  0
LINE
  8
2
 62
134
  6
CONTINUOUS
 10
145.205243
 20
64.117039
 11
128.519120
 21
64.117039
  0
LINE
  8
2
 62
134
  6
CONTINUOUS
 10
143.205243
 20
53.717039
 11
143.722881
 21
51.785188
  0
LINE
  8
2
 62
134
  6
CONTINUOUS
 10
143.205243
 20
53.717039
 11
142.687605
 21
51.785188
  0
LINE
  8
2
 62
134
  6
CONTINUOUS
 10
143.722881
 20
51.785188
 11
142.687605
 21
51.785188
  0
LINE
  8
2
 62
134
  6
CONTINUOUS
 10
143.205243
 20
53.234077
 11
143.464062
 21
52.268151
  0
LINE
  8
2
 62
134
  6
CONTINUOUS
 10
143.205243
 20
53.234077
 11
142.946424
 21
52.268151
  0
LINE
  8
2
 62
134
  6
CONTINUOUS
 10
143.464062
 20
52.268151
 11
142.946424
 21
52.268151
  0
LINE
  8
2
 62
134
  6
CONTINUOUS
 10
143.205243
 20
64.117039
 11
142.687605
 21
66.048891
  0
LINE
  8
2
 62
134
  6
CONTINUOUS
 10
143.205243
 20
64.117039
 11
143.722881
 21
66.048891
  0
LINE
  8
2
 62
134
  6
CONTINUOUS
 10
142.687605
 20
66.048891
 11
143.722881
 21
66.048891
  0
LINE
  8
2
 62
134
  6
CONTINUOUS
 10
143.205243
 20
64.600002
 11
142.946424
 21
65.565928
  0
LINE
  8
2
 62
134
  6
CONTINUOUS
 10
143.205243
 20
64.600002
 11
143.464062
 21
65.565928
  0
LINE
  8
2
 62
134
  6
CONTINUOUS
 10
142.946424
 20
65.565928
 11
143.464062
 21
65.565928
  0
TEXT
  8
2
 62
134
  6
CONTINUOUS
 10
143.205243
 20
45.661300
 40
4.000000
 41
0.500000
  1
11
  7
KANJI
 50
90.000000
 51
30.000000
  0
ENDBLK
  0
ENDSEC
  0
SECTION
  2
ENTITIES
  0
TEXT
  8
5
 62
94
  6
CONTINUOUS
 10
217.962748
 20
20.651490
 40
1.750000
 41
4.000000
  1
製図
  7
KANJI
 50
-90.000000
 51
0.000000
  0
TEXT
  8
5
 62
94
  6
CONTINUOUS
 10
237.795530
 20
20.487583
 40
1.750000
 41
4.000000
  1
図番
  7
KANJI
 50
-90.000000
 51
0.000000
  0
TEXT
  8
5
 62
94
  6
CONTINUOUS
 10
237.795530
 20
33.764073
 40
1.750000
 41
4.000000
  1
図　名
  7
KANJI
 50
-90.000000
 51
0.000000
  0
TEXT
  8
5
 62
94
  6
CONTINUOUS
 10
172.888245
 20
28.355132
 40
1.750000
 41
4.000000
  1
日付
  7
KANJI
 50
-90.000000
 51
0.000000
  0
TEXT
  8
5
 62
94
  6
CONTINUOUS
 10
207.964404
 20
28.519040
 40
1.750000
 41
4.000000
  1
図法
  7
KANJI
 50
-90.000000
 51
0.000000
  0
TEXT
  8
5
 62
94
  6
CONTINUOUS
 10
207.800497
 20
36.550497
 40
1.750000
 41
4.000000
  1
尺度
  7
KANJI
 50
-90.000000
 51
0.000000
  0
TEXT
  8
5
 62
94
  6
CONTINUOUS
 10
172.888245
 20
36.386589
 40
1.750000
 41
4.000000
  1
公差
  7
KANJI
 50
-90.000000
 51
0.000000
  0
TEXT
  8
5
 62
94
  6
CONTINUOUS
 10
172.888245
 20
20.487583
 40
1.750000
 41
4.000000
  1
承認
  7
KANJI
 50
-90.000000
 51
0.000000
  0
TEXT
  8
5
 62
94
  6
CONTINUOUS
 10
197.966060
 20
20.487583
 40
1.750000
 41
4.000000
  1
設計
  7
KANJI
 50
-90.000000
 51
0.000000
  0
TEXT
  8
5
 62
94
  6
CONTINUOUS
 10
191.409768
 20
6.555464
 40
4.500000
 41
1.888889
  1
ジャパンセンサー株式会社
  7
KANJI
 50
0.000000
 51
0.000000
  0
LINE
  8
5
 62
94
  6
CONTINUOUS
 10
172.000000
 20
37.000000
 11
292.000000
 21
37.000000
  0
LINE
  8
5
 62
94
  6
CONTINUOUS
 10
172.000000
 20
5.000000
 11
172.000000
 21
37.000000
  0
LINE
  8
5
 62
94
  6
CONTINUOUS
 10
292.000000
 20
13.000000
 11
172.000000
 21
13.000000
  0
LINE
  8
5
 62
94
  6
CONTINUOUS
 10
237.000000
 20
37.000000
 11
237.000000
 21
13.000000
  0
LINE
  8
5
 62
94
  6
CONTINUOUS
 10
292.000000
 20
21.000000
 11
172.000000
 21
21.000000
  0
LINE
  8
5
 62
94
  6
CONTINUOUS
 10
242.000000
 20
13.000000
 11
242.000000
 21
37.000000
  0
LINE
  8
5
 62
94
  6
CONTINUOUS
 10
212.000000
 20
37.000000
 11
212.000000
 21
21.000000
  0
LINE
  8
5
 62
94
  6
CONTINUOUS
 10
177.000000
 20
13.000000
 11
177.000000
 21
37.000000
  0
LINE
  8
5
 62
94
  6
CONTINUOUS
 10
172.000000
 20
29.000000
 11
237.000000
 21
29.000000
  0
LINE
  8
5
 62
94
  6
CONTINUOUS
 10
207.000000
 20
37.000000
 11
207.000000
 21
21.000000
  0
LINE
  8
5
 62
94
  6
CONTINUOUS
 10
197.000000
 20
13.000000
 11
197.000000
 21
21.000000
  0
LINE
  8
5
 62
94
  6
CONTINUOUS
 10
217.000000
 20
13.000000
 11
217.000000
 21
21.000000
  0
LINE
  8
5
 62
94
  6
CONTINUOUS
 10
202.000000
 20
21.000000
 11
202.000000
 21
13.000000
  0
LINE
  8
5
 62
94
  6
CONTINUOUS
 10
222.000000
 20
21.000000
 11
222.000000
 21
13.000000
  0
TEXT
  8
5
 62
94
  6
CONTINUOUS
 10
216.979305
 20
30.649834
 40
4.000000
 41
1.000000
  1
１／１
  7
KANJI
 50
0.000000
 51
0.000000
  0
TEXT
  8
5
 62
94
  6
CONTINUOUS
 10
215.995861
 20
22.290563
 40
4.000000
 41
1.000000
  1
三角法
  7
KANJI
 50
0.000000
 51
0.000000
  0
TEXT
  8
5
 62
94
  6
CONTINUOUS
 10
223.207781
 20
14.914735
 40
4.000000
 41
1.000000
  1
保田
  7
KANJI
 50
-0.112820
 51
0.000000
  0
TEXT
  8
5
 62
94
  6
CONTINUOUS
 10
203.211093
 20
14.750828
 40
4.000000
 41
1.000000
  1
保田
  7
KANJI
 50
0.810149
 51
0.000000
  0
TEXT
  8
5
 62
94
  6
CONTINUOUS
 10
247.059225
 20
23.437914
 40
4.000000
 41
0.875000
  1
アナログ出力タイプ外形図
  7
KANJI
 50
0.000000
 51
0.000000
  0
LINE
  8
5
 62
94
  6
CONTINUOUS
 10
292.000000
 20
205.000000
 11
5.000000
 21
205.000000
  0
LINE
  8
5
 62
94
  6
CONTINUOUS
 10
292.000000
 20
5.000000
 11
292.000000
 21
205.000000
  0
LINE
  8
5
 62
94
  6
CONTINUOUS
 10
5.000000
 20
205.000000
 11
5.000000
 21
5.000000
  0
LINE
  8
5
 62
94
  6
CONTINUOUS
 10
5.000000
 20
5.000000
 11
292.000000
 21
5.000000
  0
LINE
  8
1
 62
7
  6
DASHDOT
 10
113.018080
 20
128.406240
 11
100.482365
 21
128.406240
  0
LINE
  8
1
 62
7
  6
DASHDOT
 10
100.019120
 20
125.258963
 11
100.019120
 21
142.989901
  0
LINE
  8
8
 62
6
  6
DASHDOT
 10
101.598067
 20
129.985188
 11
100.019120
 21
141.406242
  0
LINE
  8
8
 62
6
  6
DASHDOT
 10
100.019120
 20
141.406242
 11
97.876263
 21
126.263383
  0
LINE
  8
1
 62
7
  6
DOT
 10
97.063502
 20
125.450622
 11
102.782912
 21
131.170032
  0
LINE
  8
1
 62
7
  6
CONTINUOUS
 10
81.019120
 20
113.406240
 11
81.019120
 21
154.606240
  0
LINE
  8
1
 62
7
  6
CONTINUOUS
 10
120.319120
 20
114.406240
 11
120.319120
 21
113.406240
  0
LINE
  8
1
 62
7
  6
CONTINUOUS
 10
120.319120
 20
113.406240
 11
81.019120
 21
113.406240
  0
LINE
  8
1
 62
7
  6
CONTINUOUS
 10
120.319120
 20
114.406240
 11
120.319120
 21
154.606240
  0
LINE
  8
1
 62
7
  6
CONTINUOUS
 10
120.319120
 20
113.406240
 11
122.019120
 21
113.406240
  0
LINE
  8
1
 62
7
  6
DOT
 10
119.719120
 20
152.306240
 11
122.019120
 21
152.306240
  0
LINE
  8
1
 62
7
  6
DOT
 10
119.719120
 20
142.806240
 11
122.019120
 21
142.806240
  0
LINE
  8
1
 62
7
  6
DOT
 10
122.019120
 20
148.306240
 11
126.519120
 21
148.306240
  0
LINE
  8
1
 62
7
  6
DOT
 10
122.019120
 20
143.506240
 11
126.519120
 21
143.506240
  0
LINE
  8
1
 62
7
  6
CONTINUOUS
 10
122.019120
 20
152.806240
 11
122.019120
 21
140.806240
  0
LINE
  8
1
 62
7
  6
CONTINUOUS
 10
122.019120
 20
140.806240
 11
126.519120
 21
140.806240
  0
LINE
  8
1
 62
7
  6
CONTINUOUS
 10
126.519120
 20
140.806240
 11
126.519120
 21
152.806240
  0
LINE
  8
1
 62
7
  6
CONTINUOUS
 10
126.519120
 20
152.806240
 11
122.019120
 21
152.806240
  0
DIMENSION
  8
2
 62
134
  6
CONTINUOUS
  2
*D1
 10
122.019120
 20
169.273468
 11
131.904747
 21
169.273468
 70
     0
  1
4.5
 13
122.019120
 23
154.806240
 14
126.519120
 24
154.806240
 50
0.000000
  0
LINE
  8
1
 62
7
  6
CONTINUOUS
 10
122.019120
 20
113.406240
 11
122.019120
 21
154.606240
  0
LINE
  8
1
 62
7
  6
CONTINUOUS
 10
81.019120
 20
154.606240
 11
122.019120
 21
154.606240
  0
DIMENSION
  8
2
 62
134
  6
CONTINUOUS
  2
*D2
 10
81.019120
 20
169.273468
 11
100.786448
 21
169.273468
 70
     0
  1
41
 13
81.019120
 23
156.606240
 14
122.019120
 24
156.606240
 50
0.000000
  0
CIRCLE
  8
1
 62
7
  6
CONTINUOUS
 10
93.219120
 20
117.406239
 40
1.750000
  0
CIRCLE
  8
1
 62
7
  6
CONTINUOUS
 10
113.219120
 20
117.406240
 40
1.750000
  0
LINE
  8
1
 62
7
  6
DASHDOT
 10
113.219120
 20
113.308532
 11
113.219120
 21
121.397433
  0
LINE
  8
1
 62
7
  6
DASHDOT
 10
108.842567
 20
117.406240
 11
117.405977
 21
117.406240
  0
LINE
  8
1
 62
7
  6
DASHDOT
 10
93.219120
 20
113.308531
 11
93.219120
 21
121.123373
  0
CIRCLE
  8
1
 62
7
  6
CONTINUOUS
 10
93.219120
 20
117.406239
 40
3.000000
  0
CIRCLE
  8
1
 62
7
  6
CONTINUOUS
 10
113.219120
 20
117.406237
 40
3.000000
  0
DIMENSION
  8
2
 62
134
  6
CONTINUOUS
  2
*D3
 10
81.019120
 20
105.715578
 11
87.119120
 21
105.715578
 70
     0
  1
12.2
 13
81.019120
 23
111.406240
 14
93.219120
 24
111.406240
 50
0.000000
  0
DIMENSION
  8
2
 62
134
  6
CONTINUOUS
  2
*D4
 10
93.219120
 20
105.715578
 11
103.219120
 21
105.715578
 70
     0
  1
20
 13
93.219120
 23
105.715578
 14
113.219120
 24
111.406240
 50
0.000000
  0
LINE
  8
1
 62
7
  6
DASHDOT
 10
107.719120
 20
112.332216
 11
107.719120
 21
118.203922
  0
LINE
  8
1
 62
7
  6
DASHDOT
 10
87.719120
 20
112.332216
 11
87.719120
 21
119.005340
  0
LINE
  8
1
 62
7
  6
DASHDOT
 10
89.839472
 20
117.406239
 11
97.605977
 21
117.406239
  0
LINE
  8
1
 62
7
  6
DOT
 10
104.169120
 20
147.521242
 11
104.169120
 21
141.406242
  0
LINE
  8
1
 62
7
  6
DOT
 10
95.869120
 20
147.521242
 11
95.869120
 21
141.406242
  0
LINE
  8
1
 62
7
  6
DOT
 10
102.859120
 20
151.406240
 11
102.859120
 21
148.031242
  0
LINE
  8
1
 62
7
  6
DOT
 10
102.259120
 20
148.031242
 11
102.259120
 21
151.406240
  0
LINE
  8
1
 62
7
  6
DOT
 10
100.319120
 20
151.406240
 11
100.319120
 21
148.031242
  0
LINE
  8
1
 62
7
  6
DOT
 10
99.719120
 20
148.031242
 11
99.719120
 21
151.406240
  0
LINE
  8
1
 62
7
  6
DOT
 10
97.779120
 20
151.406240
 11
97.779120
 21
148.031242
  0
LINE
  8
1
 62
7
  6
DOT
 10
97.179120
 20
148.031242
 11
97.179120
 21
151.406240
  0
LINE
  8
1
 62
7
  6
DOT
 10
95.869120
 20
141.506242
 11
104.169120
 21
141.506242
  0
LINE
  8
1
 62
7
  6
DOT
 10
105.169120
 20
147.521242
 11
94.869120
 21
147.521242
  0
LINE
  8
1
 62
7
  6
DOT
 10
105.169120
 20
148.031242
 11
105.169120
 21
147.521242
  0
LINE
  8
1
 62
7
  6
DOT
 10
94.869120
 20
148.031242
 11
105.169120
 21
148.031242
  0
LINE
  8
1
 62
7
  6
DOT
 10
94.869120
 20
147.521242
 11
94.869120
 21
148.031242
  0
LINE
  8
1
 62
7
  6
DOT
 10
102.259120
 20
151.406240
 11
102.859120
 21
151.406240
  0
LINE
  8
1
 62
7
  6
DOT
 10
99.719120
 20
151.406240
 11
100.319120
 21
151.406240
  0
LINE
  8
1
 62
7
  6
DOT
 10
97.179120
 20
151.406240
 11
97.779120
 21
151.406240
  0
LINE
  8
1
 62
7
  6
DASHDOT
 10
100.019120
 20
140.072533
 11
100.019120
 21
152.444133
  0
LINE
  8
1
 62
7
  6
CONTINUOUS
 10
99.519118
 20
142.701242
 11
100.519118
 21
142.701242
  0
LINE
  8
1
 62
7
  6
CONTINUOUS
 10
100.619120
 20
141.406242
 11
100.619120
 21
141.506242
  0
LINE
  8
1
 62
7
  6
DOT
 10
95.869120
 20
141.406242
 11
104.169120
 21
141.406242
  0
LINE
  8
1
 62
7
  6
CONTINUOUS
 10
99.419120
 20
141.406242
 11
99.419120
 21
141.506242
  0
LINE
  8
1
 62
7
  6
CONTINUOUS
 10
80.019120
 20
143.406240
 11
81.019120
 21
142.406240
  0
LINE
  8
1
 62
7
  6
CONTINUOUS
 10
80.019120
 20
113.406240
 11
81.019120
 21
114.406240
  0
LINE
  8
1
 62
7
  6
CONTINUOUS
 10
81.019120
 20
142.406240
 11
81.019120
 21
114.406240
  0
LINE
  8
2
 62
134
  6
CONTINUOUS
 10
114.483098
 20
116.195927
 11
132.679020
 21
95.590452
  0
LINE
  8
2
 62
134
  6
CONTINUOUS
 10
132.679020
 20
95.590452
 11
147.945352
 21
95.590452
  0
TEXT
  8
2
 62
134
  6
CONTINUOUS
 10
133.945352
 20
95.590452
 40
4.000000
 41
0.583333
  1
2-φ3.5
  7
KANJI
 50
0.000000
 51
30.000000
  0
LINE
  8
2
 62
134
  6
CONTINUOUS
 10
114.483098
 20
116.195927
 11
116.149838
 21
115.090496
  0
LINE
  8
2
 62
134
  6
CONTINUOUS
 10
114.483098
 20
116.195927
 11
115.373822
 21
114.405226
  0
LINE
  8
2
 62
134
  6
CONTINUOUS
 10
116.149838
 20
115.090496
 11
115.373822
 21
114.405226
  0
LINE
  8
2
 62
134
  6
CONTINUOUS
 10
114.802781
 20
115.833910
 11
115.636151
 21
115.281195
  0
LINE
  8
2
 62
134
  6
CONTINUOUS
 10
114.802781
 20
115.833910
 11
115.248143
 21
114.938560
  0
LINE
  8
2
 62
134
  6
CONTINUOUS
 10
115.636151
 20
115.281195
 11
115.248143
 21
114.938560
  0
TEXT
  8
3
 62
214
  6
CONTINUOUS
 10
133.264705
 20
91.051958
 40
4.000000
 41
0.625000
  1
φ6ｻﾞｸﾞﾘ深さ2.5
  7
KANJI
 50
0.000000
 51
0.000000
  0
TEXT
  8
6
 62
14
  6
CONTINUOUS
 10
133.065382
 20
100.554251
 40
4.000000
 41
1.000000
  1
④
  7
KANJI
 50
0.000000
 51
0.000000
  0
TEXT
  8
3
 62
214
  6
CONTINUOUS
 10
138.429871
 20
100.095555
 40
4.000000
 41
1.000000
  1
取付穴
  7
KANJI
 50
0.000000
 51
0.000000
  0
LINE
  8
1
 62
7
  6
CONTINUOUS
 10
122.019120
 20
64.117039
 11
126.519120
 21
64.117039
  0
LINE
  8
1
 62
7
  6
CONTINUOUS
 10
126.519120
 20
64.117039
 11
126.519120
 21
53.717039
  0
LINE
  8
1
 62
7
  6
CONTINUOUS
 10
126.519120
 20
53.717039
 11
122.019120
 21
53.717039
  0
LINE
  8
1
 62
7
  6
CONTINUOUS
 10
153.630195
 20
60.817039
 11
126.519120
 21
60.817039
  0
LINE
  8
1
 62
7
  6
CONTINUOUS
 10
126.519120
 20
57.017039
 11
152.680195
 21
57.017039
  0
LINE
  8
1
 62
7
  6
CONTINUOUS
 10
126.519120
 20
61.417039
 11
136.519120
 21
61.417039
  0
LINE
  8
1
 62
7
  6
CONTINUOUS
 10
136.519120
 20
61.417039
 11
136.519120
 21
56.417039
  0
LINE
  8
1
 62
7
  6
CONTINUOUS
 10
136.519120
 20
56.417039
 11
126.519120
 21
56.417039
  0
DIMENSION
  8
2
 62
134
  6
CONTINUOUS
  2
*D5
 10
72.460157
 20
45.667039
 11
72.460157
 21
58.973827
 70
     0
  1
26.5
 13
79.019120
 23
45.667039
 14
79.019120
 24
72.167039
 50
90.000000
  0
LINE
  8
1
 62
7
  6
CONTINUOUS
 10
81.019120
 20
72.167039
 11
81.019120
 21
45.667039
  0
LINE
  8
1
 62
7
  6
CONTINUOUS
 10
81.019120
 20
45.667039
 11
120.319120
 21
45.667039
  0
LINE
  8
1
 62
7
  6
CONTINUOUS
 10
120.319120
 20
45.667039
 11
120.319120
 21
72.167039
  0
LINE
  8
1
 62
7
  6
CONTINUOUS
 10
120.319120
 20
72.167039
 11
81.019120
 21
72.167039
  0
LINE
  8
1
 62
7
  6
CONTINUOUS
 10
120.319120
 20
72.167039
 11
120.319120
 21
45.667039
  0
LINE
  8
1
 62
7
  6
CONTINUOUS
 10
120.319120
 20
45.667039
 11
122.019120
 21
45.667039
  0
LINE
  8
1
 62
7
  6
CONTINUOUS
 10
122.019120
 20
45.667039
 11
122.019120
 21
72.167039
  0
LINE
  8
1
 62
7
  6
CONTINUOUS
 10
122.019120
 20
72.167039
 11
120.319120
 21
72.167039
  0
CIRCLE
  8
1
 62
7
  6
CONTINUOUS
 10
87.719120
 20
58.917039
 40
1.500000
  0
CIRCLE
  8
1
 62
7
  6
CONTINUOUS
 10
87.719120
 20
58.917039
 40
1.230000
  0
CIRCLE
  8
1
 62
7
  6
CONTINUOUS
 10
107.719120
 20
58.917039
 40
1.500000
  0
CIRCLE
  8
1
 62
7
  6
CONTINUOUS
 10
107.719120
 20
58.917039
 40
1.230000
  0
LINE
  8
1
 62
7
  6
DASHDOT
 10
107.719120
 20
60.918409
 11
107.719120
 21
57.001010
  0
LINE
  8
1
 62
7
  6
DASHDOT
 10
87.719120
 20
60.918409
 11
87.719120
 21
57.001010
  0
DIMENSION
  8
2
 62
134
  6
CONTINUOUS
  2
*D6
 10
87.719120
 20
39.449503
 11
98.035767
 21
39.449503
 70
     0
  1
20
 13
87.719120
 23
55.687039
 14
107.719120
 24
55.687039
 50
0.000000
  0
LINE
  8
3
 62
214
  6
CONTINUOUS
 10
108.777921
 20
57.854524
 11
119.544005
 21
40.856195
  0
LINE
  8
3
 62
214
  6
CONTINUOUS
 10
119.544005
 20
40.856195
 11
134.709585
 21
40.856195
  0
TEXT
  8
3
 62
214
  6
CONTINUOUS
 10
120.709585
 20
40.729594
 40
4.000000
 41
0.700000
  1
M3深さ4
  7
KANJI
 50
0.000000
 51
30.000000
  0
LINE
  8
3
 62
214
  6
CONTINUOUS
 10
108.777921
 20
57.854524
 11
110.248900
 21
56.499451
  0
LINE
  8
3
 62
214
  6
CONTINUOUS
 10
108.777921
 20
57.854524
 11
109.374290
 21
55.945507
  0
LINE
  8
3
 62
214
  6
CONTINUOUS
 10
110.248900
 20
56.499451
 11
109.374290
 21
55.945507
  0
LINE
  8
3
 62
214
  6
CONTINUOUS
 10
109.036339
 20
57.446512
 11
109.771829
 21
56.768976
  0
LINE
  8
3
 62
214
  6
CONTINUOUS
 10
109.036339
 20
57.446512
 11
109.334524
 21
56.492004
  0
LINE
  8
3
 62
214
  6
CONTINUOUS
 10
109.771829
 20
56.768976
 11
109.334524
 21
56.492004
  0
LINE
  8
3
 62
214
  6
CONTINUOUS
 10
88.560867
 20
60.158596
 11
93.621660
 21
76.324384
  0
LINE
  8
3
 62
214
  6
CONTINUOUS
 10
93.621660
 20
76.324384
 11
109.423214
 21
76.324384
  0
TEXT
  8
3
 62
214
  6
CONTINUOUS
 10
95.423214
 20
76.422180
 40
4.000000
 41
0.700000
  1
M3深さ4
  7
KANJI
 50
-0.000000
 51
30.000000
  0
LINE
  8
3
 62
214
  6
CONTINUOUS
 10
88.560867
 20
60.158596
 11
88.644026
 21
62.156866
  0
LINE
  8
3
 62
214
  6
CONTINUOUS
 10
88.560867
 20
60.158596
 11
89.632020
 21
61.847569
  0
LINE
  8
3
 62
214
  6
CONTINUOUS
 10
88.644026
 20
62.156866
 11
89.632020
 21
61.847569
  0
LINE
  8
3
 62
214
  6
CONTINUOUS
 10
88.705156
 20
60.619501
 11
88.746735
 21
61.618636
  0
LINE
  8
3
 62
214
  6
CONTINUOUS
 10
88.705156
 20
60.619501
 11
89.240732
 21
61.463988
  0
LINE
  8
3
 62
214
  6
CONTINUOUS
 10
88.746735
 20
61.618636
 11
89.240732
 21
61.463988
  0
TEXT
  8
6
 62
14
  6
CONTINUOUS
 10
95.365316
 20
72.215621
 40
4.000000
 41
1.000000
  1
⑥
  7
KANJI
 50
0.000000
 51
0.000000
  0
TEXT
  8
6
 62
14
  6
CONTINUOUS
 10
119.954782
 20
36.040456
 40
4.000000
 41
1.000000
  1
⑤
  7
KANJI
 50
0.000000
 51
0.000000
  0
TEXT
  8
3
 62
214
  6
CONTINUOUS
 10
125.611884
 20
36.000000
 40
4.000000
 41
0.700000
  1
取付ﾈｼﾞ
  7
KANJI
 50
0.000000
 51
0.000000
  0
TEXT
  8
3
 62
214
  6
CONTINUOUS
 10
100.064969
 20
72.199946
 40
4.000000
 41
0.700000
  1
取付ﾈｼﾞ
  7
KANJI
 50
0.000000
 51
0.000000
  0
LINE
  8
1
 62
7
  6
CONTINUOUS
 10
80.019120
 20
73.917039
 11
81.019120
 21
72.917039
  0
LINE
  8
1
 62
7
  6
CONTINUOUS
 10
80.019120
 20
43.917039
 11
81.019120
 21
44.917039
  0
LINE
  8
1
 62
7
  6
CONTINUOUS
 10
81.019120
 20
72.917039
 11
81.019120
 21
44.917039
  0
LINE
  8
1
 62
7
  6
CONTINUOUS
 10
80.019120
 20
73.917039
 11
37.019120
 21
73.917039
  0
LINE
  8
1
 62
7
  6
CONTINUOUS
 10
36.019120
 20
72.917039
 11
37.019120
 21
73.917039
  0
LINE
  8
1
 62
7
  6
CONTINUOUS
 10
80.019120
 20
43.917039
 11
37.019120
 21
43.917039
  0
LINE
  8
1
 62
7
  6
CONTINUOUS
 10
36.019120
 20
44.917039
 11
37.019120
 21
43.917039
  0
LINE
  8
1
 62
7
  6
CONTINUOUS
 10
36.019120
 20
72.917039
 11
36.019120
 21
44.917039
  0
LINE
  8
1
 62
7
  6
DASHDOT
 10
30.680153
 20
58.917039
 11
152.771179
 21
58.917039
  0
DIMENSION
  8
2
 62
134
  6
CONTINUOUS
  2
*D7
 10
22.939277
 20
73.917039
 11
22.939277
 21
59.084417
 70
     0
  1
φ30
 13
35.019120
 23
73.917039
 14
35.019120
 24
43.917039
 50
-90.000000
  0
LINE
  8
1
 62
7
  6
CONTINUOUS
 10
80.019120
 20
143.406240
 11
37.019120
 21
143.406240
  0
LINE
  8
1
 62
7
  6
CONTINUOUS
 10
36.019120
 20
142.406240
 11
37.019120
 21
143.406240
  0
LINE
  8
1
 62
7
  6
CONTINUOUS
 10
80.019120
 20
113.406240
 11
37.019120
 21
113.406240
  0
LINE
  8
1
 62
7
  6
CONTINUOUS
 10
36.019120
 20
114.406240
 11
37.019120
 21
113.406240
  0
LINE
  8
1
 62
7
  6
CONTINUOUS
 10
36.019120
 20
142.406240
 11
36.019120
 21
114.406240
  0
LINE
  8
1
 62
7
  6
DOT
 10
36.019120
 20
141.407474
 11
80.853974
 21
141.407474
  0
LINE
  8
1
 62
7
  6
DOT
 10
36.019120
 20
115.405006
 11
80.853974
 21
115.405006
  0
LINE
  8
1
 62
7
  6
DOT
 10
36.019120
 20
141.907474
 11
80.853974
 21
141.907474
  0
LINE
  8
1
 62
7
  6
DOT
 10
36.019120
 20
114.905006
 11
80.853974
 21
114.905006
  0
DIMENSION
  8
2
 62
134
  6
CONTINUOUS
  2
*D8
 10
81.019120
 20
105.715578
 11
56.629058
 21
105.715578
 70
     0
  1
45
 13
81.019120
 23
111.406240
 14
36.019120
 24
112.406240
 50
-180.000000
  0
LINE
  8
1
 62
7
  6
DASHDOT
 10
24.538945
 20
128.406240
 11
118.059105
 21
128.406240
  0
DIMENSION
  8
3
 62
214
  6
CONTINUOUS
  2
*D9
 10
27.757341
 20
116.906240
 11
27.757341
 21
160.000000
 70
     0
  1
φ23(ﾚﾝｽﾞ有効径）
 13
27.757341
 23
116.906240
 14
27.757341
 24
139.906240
 50
90.000000
  0
LINE
  8
1
 62
7
  6
DOT
 10
39.749278
 20
115.906240
 11
41.064079
 21
115.906240
  0
LINE
  8
1
 62
7
  6
DOT
 10
39.749278
 20
140.906240
 11
41.064079
 21
140.906240
  0
ARC
  8
1
 62
7
  6
DOT
 10
-48.063639
 20
128.406240
 40
90.000000
 50
-7.983571
 51
7.983556
  0
ARC
  8
1
 62
7
  6
DOT
 10
81.936361
 20
128.406240
 40
44.000000
 50
163.495484
 51
-163.495484
  0
LINE
  8
8
 62
6
  6
DASHDOT
 10
101.598067
 20
129.985188
 11
41.198616
 21
139.906240
  0
LINE
  8
8
 62
6
  6
DASHDOT
 10
97.876263
 20
126.263383
 11
41.198616
 21
116.906240
  0
LINE
  8
3
 62
214
  6
CONTINUOUS
 10
40.632066
 20
130.000000
 11
56.536381
 21
158.655270
  0
LINE
  8
3
 62
214
  6
CONTINUOUS
 10
56.536381
 20
158.655270
 11
68.913283
 21
158.655270
  0
TEXT
  8
3
 62
214
  6
CONTINUOUS
 10
60.913283
 20
158.735519
 40
4.000000
 41
0.500000
  1
ﾚﾝｽﾞ
  7
KANJI
 50
0.000000
 51
30.000000
  0
LINE
  8
3
 62
214
  6
CONTINUOUS
 10
40.632066
 20
130.000000
 11
41.116968
 21
131.940327
  0
LINE
  8
3
 62
214
  6
CONTINUOUS
 10
40.632066
 20
130.000000
 11
42.022167
 21
131.437922
  0
LINE
  8
3
 62
214
  6
CONTINUOUS
 10
41.116968
 20
131.940327
 11
42.022167
 21
131.437922
  0
LINE
  8
3
 62
214
  6
CONTINUOUS
 10
40.866441
 20
130.422281
 11
41.108892
 21
131.392445
  0
LINE
  8
3
 62
214
  6
CONTINUOUS
 10
40.866441
 20
130.422281
 11
41.561492
 21
131.141242
  0
LINE
  8
3
 62
214
  6
CONTINUOUS
 10
41.108892
 20
131.392445
 11
41.561492
 21
131.141242
  0
TEXT
  8
6
 62
14
  6
CONTINUOUS
 10
56.616129
 20
158.985271
 40
4.000000
 41
1.000000
  1
①
  7
KANJI
 50
0.000000
 51
0.000000
  0
LINE
  8
8
 62
6
  6
DASHDOT
 10
41.198616
 20
116.906240
 11
24.890704
 21
116.906240
  0
LINE
  8
8
 62
6
  6
DASHDOT
 10
41.198616
 20
139.906240
 11
24.890704
 21
139.906240
  0
DIMENSION
  8
2
 62
134
  6
CONTINUOUS
  2
*D10
 10
22.458975
 20
113.406240
 11
22.458975
 21
122.325958
 70
     0
  1
15
 13
35.019120
 23
113.406240
 14
22.458975
 24
128.406240
 50
90.000000
  0
DIMENSION
  8
2
 62
134
  6
CONTINUOUS
  2
*D11
 10
13.313246
 20
141.907474
 11
13.313246
 21
127.997491
 70
     0
  1
M27P0.75
 13
34.019120
 23
141.907474
 14
34.019120
 24
114.905006
 50
-90.000000
  0
LINE
  8
2
 62
134
  6
CONTINUOUS
 10
36.019120
 20
105.715578
 11
34.087268
 21
105.197940
  0
LINE
  8
2
 62
134
  6
CONTINUOUS
 10
36.019120
 20
105.715578
 11
34.087268
 21
106.233216
  0
LINE
  8
2
 62
134
  6
CONTINUOUS
 10
34.087268
 20
105.197940
 11
34.087268
 21
106.233216
  0
LINE
  8
2
 62
134
  6
CONTINUOUS
 10
35.536157
 20
105.715578
 11
34.570231
 21
105.456759
  0
LINE
  8
2
 62
134
  6
CONTINUOUS
 10
35.536157
 20
105.715578
 11
34.570231
 21
105.974397
  0
LINE
  8
2
 62
134
  6
CONTINUOUS
 10
34.570231
 20
105.456759
 11
34.570231
 21
105.974397
  0
LINE
  8
2
 62
134
  6
CONTINUOUS
 10
36.019120
 20
105.715578
 11
9.026186
 21
105.715578
  0
TEXT
  8
3
 62
214
  6
CONTINUOUS
 10
13.231440
 20
100.527136
 40
4.000000
 41
1.000000
  1
測定距離
  7
KANJI
 50
0.000000
 51
30.000000
  0
LINE
  8
1
 62
7
  6
DASHDOT
 10
263.978477
 20
161.235491
 11
263.978477
 21
106.126875
  0
LINE
  8
1
 62
7
  6
DASHDOT
 10
270.978477
 20
118.934192
 11
270.978477
 21
113.744280
  0
LINE
  8
1
 62
7
  6
DASHDOT
 10
273.345935
 20
116.409002
 11
268.464946
 21
116.409002
  0
ARC
  8
1
 62
7
  6
CONTINUOUS
 10
274.978477
 20
152.406240
 40
2.000000
 50
0.000000
 51
90.000000
  0
LINE
  8
1
 62
7
  6
CONTINUOUS
 10
252.978477
 20
154.406240
 11
274.978477
 21
154.406240
  0
ARC
  8
1
 62
7
  6
CONTINUOUS
 10
252.978477
 20
152.406240
 40
2.000000
 50
90.000000
 51
180.000000
  0
LINE
  8
1
 62
7
  6
CONTINUOUS
 10
276.978477
 20
152.406240
 11
276.978477
 21
115.406240
  0
ARC
  8
1
 62
7
  6
CONTINUOUS
 10
274.978477
 20
115.406240
 40
2.000000
 50
-90.000000
 51
0.000000
  0
LINE
  8
1
 62
7
  6
CONTINUOUS
 10
274.978477
 20
113.406240
 11
252.978477
 21
113.406240
  0
LINE
  8
1
 62
7
  6
CONTINUOUS
 10
250.978477
 20
115.406240
 11
250.978477
 21
152.406240
  0
ARC
  8
1
 62
7
  6
CONTINUOUS
 10
252.978477
 20
115.406240
 40
2.000000
 50
180.000000
 51
-90.000000
  0
LINE
  8
1
 62
7
  6
DASHDOT
 10
259.808193
 20
151.406238
 11
254.417754
 21
151.406238
  0
LINE
  8
1
 62
7
  6
DASHDOT
 10
256.978477
 20
153.886329
 11
256.978477
 21
148.466272
  0
LINE
  8
1
 62
7
  6
DOT
 10
253.478481
 20
114.406241
 11
253.478481
 21
120.406241
  0
LINE
  8
1
 62
7
  6
DOT
 10
253.478481
 20
120.406241
 11
250.978481
 21
120.406241
  0
LINE
  8
1
 62
7
  6
DOT
 10
253.478481
 20
119.156242
 11
273.478477
 21
119.156242
  0
LINE
  8
1
 62
7
  6
DOT
 10
251.246430
 20
114.406241
 11
253.478481
 21
114.406241
  0
LINE
  8
1
 62
7
  6
DOT
 10
274.478477
 20
114.406241
 11
274.478477
 21
120.406241
  0
LINE
  8
1
 62
7
  6
DOT
 10
274.478477
 20
120.406241
 11
276.978477
 21
120.406241
  0
LINE
  8
1
 62
7
  6
DOT
 10
276.710527
 20
114.406241
 11
274.478477
 21
114.406241
  0
LINE
  8
1
 62
7
  6
DOT
 10
253.478481
 20
115.656242
 11
274.478477
 21
115.656242
  0
LINE
  8
1
 62
7
  6
DOT
 10
262.478477
 20
113.406242
 11
262.478477
 21
117.406242
  0
LINE
  8
1
 62
7
  6
DOT
 10
265.478477
 20
113.406242
 11
265.478477
 21
117.406242
  0
LINE
  8
1
 62
7
  6
DOT
 10
262.678477
 20
113.406242
 11
262.678477
 21
117.406240
  0
LINE
  8
1
 62
7
  6
DOT
 10
265.284065
 20
113.406242
 11
265.284065
 21
117.406240
  0
LINE
  8
1
 62
7
  6
DOT
 10
262.478477
 20
117.406242
 11
265.484065
 21
117.406242
  0
CIRCLE
  8
1
 62
7
  6
CONTINUOUS
 10
270.978477
 20
116.409002
 40
2.000000
  0
LINE
  8
1
 62
7
  6
CONTINUOUS
 10
269.978477
 20
116.609002
 11
269.978477
 21
116.209002
  0
LINE
  8
1
 62
7
  6
CONTINUOUS
 10
270.778477
 20
117.409002
 11
271.178477
 21
117.409002
  0
LINE
  8
1
 62
7
  6
CONTINUOUS
 10
271.978477
 20
116.609002
 11
271.978477
 21
116.209002
  0
LINE
  8
1
 62
7
  6
CONTINUOUS
 10
271.178477
 20
115.409002
 11
270.778477
 21
115.409002
  0
LINE
  8
1
 62
7
  6
CONTINUOUS
 10
271.178477
 20
115.609002
 11
271.178477
 21
115.409002
  0
LINE
  8
1
 62
7
  6
CONTINUOUS
 10
271.978477
 20
116.209002
 11
271.778477
 21
116.209002
  0
ARC
  8
1
 62
7
  6
CONTINUOUS
 10
271.778477
 20
115.609002
 40
0.600000
 50
90.000000
 51
180.000000
  0
LINE
  8
1
 62
7
  6
CONTINUOUS
 10
271.778477
 20
116.609002
 11
271.978477
 21
116.609002
  0
LINE
  8
1
 62
7
  6
CONTINUOUS
 10
271.178477
 20
117.409002
 11
271.178477
 21
117.209002
  0
ARC
  8
1
 62
7
  6
CONTINUOUS
 10
271.778477
 20
117.209002
 40
0.600000
 50
180.000000
 51
-90.000000
  0
LINE
  8
1
 62
7
  6
CONTINUOUS
 10
269.978477
 20
116.609002
 11
270.178477
 21
116.609002
  0
LINE
  8
1
 62
7
  6
CONTINUOUS
 10
270.778477
 20
117.209002
 11
270.778477
 21
117.409002
  0
ARC
  8
1
 62
7
  6
CONTINUOUS
 10
270.178477
 20
117.209002
 40
0.600000
 50
-90.000000
 51
0.000000
  0
LINE
  8
1
 62
7
  6
CONTINUOUS
 10
270.178477
 20
116.209002
 11
269.978477
 21
116.209002
  0
LINE
  8
1
 62
7
  6
CONTINUOUS
 10
270.778477
 20
115.409002
 11
270.778477
 21
115.609002
  0
ARC
  8
1
 62
7
  6
CONTINUOUS
 10
270.178477
 20
115.609002
 40
0.600000
 50
0.000000
 51
90.000000
  0
CIRCLE
  8
1
 62
7
  6
CONTINUOUS
 10
256.978477
 20
151.406238
 40
2.000000
  0
LINE
  8
1
 62
7
  6
CONTINUOUS
 10
255.978477
 20
151.606238
 11
255.978477
 21
151.206238
  0
LINE
  8
1
 62
7
  6
CONTINUOUS
 10
256.778477
 20
152.406238
 11
257.178477
 21
152.406238
  0
LINE
  8
1
 62
7
  6
CONTINUOUS
 10
257.978477
 20
151.606238
 11
257.978477
 21
151.206238
  0
LINE
  8
1
 62
7
  6
CONTINUOUS
 10
257.178477
 20
150.406238
 11
256.778477
 21
150.406238
  0
LINE
  8
1
 62
7
  6
CONTINUOUS
 10
257.178477
 20
150.606238
 11
257.178477
 21
150.406238
  0
LINE
  8
1
 62
7
  6
CONTINUOUS
 10
257.978477
 20
151.206238
 11
257.778477
 21
151.206238
  0
ARC
  8
1
 62
7
  6
CONTINUOUS
 10
257.778477
 20
150.606238
 40
0.600000
 50
90.000000
 51
180.000000
  0
LINE
  8
1
 62
7
  6
CONTINUOUS
 10
257.778477
 20
151.606238
 11
257.978477
 21
151.606238
  0
LINE
  8
1
 62
7
  6
CONTINUOUS
 10
257.178477
 20
152.406238
 11
257.178477
 21
152.206238
  0
ARC
  8
1
 62
7
  6
CONTINUOUS
 10
257.778477
 20
152.206238
 40
0.600000
 50
180.000000
 51
-90.000000
  0
LINE
  8
1
 62
7
  6
CONTINUOUS
 10
255.978477
 20
151.606238
 11
256.178477
 21
151.606238
  0
LINE
  8
1
 62
7
  6
CONTINUOUS
 10
256.778477
 20
152.206238
 11
256.778477
 21
152.406238
  0
ARC
  8
1
 62
7
  6
CONTINUOUS
 10
256.178477
 20
152.206238
 40
0.600000
 50
-90.000000
 51
0.000000
  0
LINE
  8
1
 62
7
  6
CONTINUOUS
 10
256.178477
 20
151.206238
 11
255.978477
 21
151.206238
  0
LINE
  8
1
 62
7
  6
CONTINUOUS
 10
256.778477
 20
150.406238
 11
256.778477
 21
150.606238
  0
ARC
  8
1
 62
7
  6
CONTINUOUS
 10
256.178477
 20
150.606238
 40
0.600000
 50
0.000000
 51
90.000000
  0
LINE
  8
1
 62
7
  6
DASHDOT
 10
248.662473
 20
117.406240
 11
279.087531
 21
117.406240
  0
CIRCLE
  8
1
 62
7
  6
CONTINUOUS
 10
263.978477
 20
145.906240
 40
2.400000
  0
LINE
  8
1
 62
7
  6
DASHDOT
 10
263.978477
 20
153.148921
 11
263.978477
 21
141.083448
  0
LINE
  8
1
 62
7
  6
DASHDOT
 10
258.183094
 20
145.906240
 11
269.552482
 21
145.906240
  0
ARC
  8
1
 62
7
  6
CONTINUOUS
 10
263.978477
 20
147.056240
 40
4.750000
 50
-152.154524
 51
-27.845476
  0
ARC
  8
1
 62
7
  6
CONTINUOUS
 10
263.978477
 20
147.056240
 40
4.750000
 50
27.845476
 51
152.154524
  0
LINE
  8
1
 62
7
  6
CONTINUOUS
 10
268.178477
 20
149.274911
 11
268.178477
 21
144.837570
  0
LINE
  8
1
 62
7
  6
CONTINUOUS
 10
259.778477
 20
149.274911
 11
259.778477
 21
144.837570
  0
ARC
  8
1
 62
7
  6
CONTINUOUS
 10
263.978477
 20
147.056240
 40
5.750000
 50
25.264411
 51
154.735589
  0
LINE
  8
1
 62
7
  6
CONTINUOUS
 10
269.178477
 20
149.510319
 11
269.178477
 21
144.602162
  0
LINE
  8
1
 62
7
  6
CONTINUOUS
 10
258.778477
 20
149.510319
 11
258.778477
 21
144.602162
  0
ARC
  8
1
 62
7
  6
CONTINUOUS
 10
263.978477
 20
147.056240
 40
5.750000
 50
-154.735589
 51
-107.718932
  0
ARC
  8
1
 62
7
  6
CONTINUOUS
 10
263.978477
 20
147.056240
 40
5.750000
 50
-72.281068
 51
-25.264411
  0
LINE
  8
1
 62
7
  6
CONTINUOUS
 10
262.228477
 20
141.579015
 11
262.228477
 21
141.054794
  0
ARC
  8
1
 62
7
  6
CONTINUOUS
 10
263.978477
 20
147.056240
 40
6.250000
 50
-106.256493
 51
-73.738983
  0
LINE
  8
1
 62
7
  6
CONTINUOUS
 10
265.728477
 20
141.579015
 11
265.728477
 21
141.056240
  0
CIRCLE
  8
1
 62
7
  6
CONTINUOUS
 10
270.278477
 20
134.806242
 40
2.200000
  0
LINE
  8
1
 62
7
  6
DASHDOT
 10
270.278477
 20
132.028099
 11
270.278477
 21
138.127489
  0
LINE
  8
1
 62
7
  6
DASHDOT
 10
267.652589
 20
134.806242
 11
273.566967
 21
134.806242
  0
CIRCLE
  8
1
 62
7
  6
CONTINUOUS
 10
270.278477
 20
134.806242
 40
1.250000
  0
CIRCLE
  8
1
 62
7
  6
CONTINUOUS
 10
269.678477
 20
139.406242
 40
1.000000
  0
LINE
  8
1
 62
7
  6
DASHDOT
 10
269.678477
 20
141.362705
 11
269.678477
 21
137.607116
  0
LINE
  8
1
 62
7
  6
DASHDOT
 10
267.768047
 20
139.406242
 11
271.836602
 21
139.406242
  0
DIMENSION
  8
2
 62
134
  6
CONTINUOUS
  2
*D12
 10
250.978481
 20
170.106766
 11
263.978481
 21
170.106766
 70
     0
  1
26.5
 13
250.978481
 23
158.406240
 14
276.978481
 24
158.406240
 50
0.000000
  0
DIMENSION
  8
2
 62
134
  6
CONTINUOUS
  2
*D13
 10
269.678477
 20
160.688338
 11
273.054556
 21
160.688338
 70
     0
  1
7.6
 13
269.678477
 23
143.362705
 14
276.978477
 24
143.675671
 50
0.000000
  0
DIMENSION
  8
2
 62
134
  6
CONTINUOUS
  2
*D14
 10
282.643334
 20
113.406240
 11
282.643334
 21
128.628298
 70
     0
  1
21.4
 13
275.269574
 23
113.406240
 14
274.478477
 24
134.806242
 50
90.000000
  0
DIMENSION
  8
2
 62
134
  6
CONTINUOUS
  2
*D15
 10
287.655897
 20
113.406240
 11
287.655897
 21
127.748901
 70
     0
  1
26
 13
276.978477
 23
113.406240
 14
273.836602
 24
139.406242
 50
90.000000
  0
DIMENSION
  8
2
 62
134
  6
CONTINUOUS
  2
*D16
 10
270.278477
 20
122.648398
 11
273.013937
 21
122.648398
 70
     0
  1
7
 13
270.278477
 23
130.028099
 14
276.978477
 24
123.462469
 50
0.000000
  0
TEXT
  8
3
 62
214
  6
CONTINUOUS
 10
214.077660
 20
82.999814
 40
4.000000
 41
0.533333
  1
φ2.5ｽﾃﾚｵﾐﾆｼﾞｬｯｸ
  7
KANJI
 50
0.000000
 51
0.000000
  0
LINE
  8
3
 62
214
  6
CONTINUOUS
 10
268.862327
 20
133.122639
 11
249.576915
 21
86.999814
  0
LINE
  8
3
 62
214
  6
CONTINUOUS
 10
249.576915
 20
86.999814
 11
215.016557
 21
86.999814
  0
TEXT
  8
3
 62
214
  6
CONTINUOUS
 10
215.016557
 20
86.999814
 40
4.000000
 41
0.576923
  1
RS232C出力ｼﾞｬｯｸ
  7
KANJI
 50
0.000000
 51
30.000000
  0
LINE
  8
3
 62
214
  6
CONTINUOUS
 10
268.862327
 20
133.122639
 11
268.594654
 21
131.140632
  0
LINE
  8
3
 62
214
  6
CONTINUOUS
 10
268.862327
 20
133.122639
 11
267.639512
 21
131.540007
  0
LINE
  8
3
 62
214
  6
CONTINUOUS
 10
268.594654
 20
131.140632
 11
267.639512
 21
131.540007
  0
LINE
  8
3
 62
214
  6
CONTINUOUS
 10
268.676016
 20
132.677059
 11
268.542180
 21
131.686056
  0
LINE
  8
3
 62
214
  6
CONTINUOUS
 10
268.676016
 20
132.677059
 11
268.064609
 21
131.885743
  0
LINE
  8
3
 62
214
  6
CONTINUOUS
 10
268.542180
 20
131.686056
 11
268.064609
 21
131.885743
  0
TEXT
  8
6
 62
14
  6
CONTINUOUS
 10
210.468084
 20
87.080372
 40
4.000000
 41
1.000000
  1
⑦
  7
KANJI
 50
0.000000
 51
0.000000
  0
LINE
  8
3
 62
214
  6
CONTINUOUS
 10
268.901189
 20
138.777097
 11
227.550684
 21
95.373648
  0
LINE
  8
3
 62
214
  6
CONTINUOUS
 10
227.550684
 20
95.373648
 11
194.481719
 21
95.373648
  0
TEXT
  8
3
 62
214
  6
CONTINUOUS
 10
194.481719
 20
95.373648
 40
4.000000
 41
0.727273
  1
放射率調節ﾎﾞﾘｭｰﾑ
  7
KANJI
 50
0.000000
 51
30.000000
  0
LINE
  8
3
 62
214
  6
CONTINUOUS
 10
268.901189
 20
138.777097
 11
267.943425
 21
137.021338
  0
LINE
  8
3
 62
214
  6
CONTINUOUS
 10
268.901189
 20
138.777097
 11
267.193862
 21
137.735448
  0
LINE
  8
3
 62
214
  6
CONTINUOUS
 10
267.943425
 20
137.021338
 11
267.193862
 21
137.735448
  0
LINE
  8
3
 62
214
  6
CONTINUOUS
 10
268.568053
 20
138.427421
 11
268.089171
 21
137.549542
  0
LINE
  8
3
 62
214
  6
CONTINUOUS
 10
268.568053
 20
138.427421
 11
267.714389
 21
137.906596
  0
LINE
  8
3
 62
214
  6
CONTINUOUS
 10
268.089171
 20
137.549542
 11
267.714389
 21
137.906596
  0
TEXT
  8
6
 62
14
  6
CONTINUOUS
 10
190.481719
 20
95.373648
 40
4.000000
 41
1.000000
  1
⑧
  7
KANJI
 50
0.000000
 51
0.000000
  0
LINE
  8
1
 62
7
  6
DASHDOT
 10
112.101484
 20
145.906240
 11
139.121738
 21
145.906240
  0
TEXT
  8
6
 62
14
  6
CONTINUOUS
 10
151.135707
 20
125.811154
 40
4.000000
 41
1.000000
  1
②
  7
KANJI
 50
0.000000
 51
0.000000
  0
LINE
  8
3
 62
214
  6
CONTINUOUS
 10
137.808770
 20
144.006240
 11
151.135707
 21
125.811154
  0
LINE
  8
3
 62
214
  6
CONTINUOUS
 10
151.135707
 20
125.811154
 11
175.061877
 21
125.811154
  0
TEXT
  8
3
 62
214
  6
CONTINUOUS
 10
157.061877
 20
126.077692
 40
4.000000
 41
0.642857
  1
接続ｹｰﾌﾞﾙ
  7
KANJI
 50
0.000000
 51
30.000000
  0
LINE
  8
3
 62
214
  6
CONTINUOUS
 10
137.808770
 20
144.006240
 11
139.367901
 21
142.753599
  0
LINE
  8
3
 62
214
  6
CONTINUOUS
 10
137.808770
 20
144.006240
 11
138.532696
 21
142.141855
  0
LINE
  8
3
 62
214
  6
CONTINUOUS
 10
139.367901
 20
142.753599
 11
138.532696
 21
142.141855
  0
LINE
  8
3
 62
214
  6
CONTINUOUS
 10
138.094152
 20
143.616612
 11
138.873717
 21
142.990291
  0
LINE
  8
3
 62
214
  6
CONTINUOUS
 10
138.094152
 20
143.616612
 11
138.456115
 21
142.684420
  0
LINE
  8
3
 62
214
  6
CONTINUOUS
 10
138.873717
 20
142.990291
 11
138.456115
 21
142.684420
  0
LINE
  8
1
 62
7
  6
DASHDOT
 10
120.319120
 20
145.906240
 11
155.670145
 21
145.906240
  0
LINE
  8
1
 62
7
  6
CONTINUOUS
 10
157.449749
 20
143.706240
 11
157.449749
 21
148.106240
  0
DIMENSION
  8
3
 62
214
  6
CONTINUOUS
  2
*D17
 10
122.019120
 20
161.509385
 11
140.742756
 21
161.509385
 70
     0
  1
ｹｰﾌﾞﾙ長
 13
122.019120
 23
145.906240
 14
157.449749
 24
145.906240
 50
0.000000
  0
LINE
  8
1
 62
7
  6
CONTINUOUS
 10
163.095163
 20
147.506240
 11
157.449749
 21
147.506240
  0
LINE
  8
1
 62
7
  6
CONTINUOUS
 10
163.095163
 20
146.706240
 11
157.449749
 21
146.706240
  0
LINE
  8
1
 62
7
  6
CONTINUOUS
 10
163.095163
 20
145.906240
 11
157.449749
 21
145.906240
  0
LINE
  8
1
 62
7
  6
CONTINUOUS
 10
163.095163
 20
145.106240
 11
157.449749
 21
145.106240
  0
LINE
  8
1
 62
7
  6
CONTINUOUS
 10
163.095163
 20
144.306240
 11
157.449749
 21
144.306240
  0
LINE
  8
1
 62
7
  6
CONTINUOUS
 10
151.945076
 20
148.406240
 11
151.945076
 21
143.406240
  0
LINE
  8
1
 62
7
  6
CONTINUOUS
 10
151.945076
 20
143.406240
 11
163.095163
 21
143.406240
  0
LINE
  8
1
 62
7
  6
CONTINUOUS
 10
163.095163
 20
143.406240
 11
163.095163
 21
148.406240
  0
LINE
  8
1
 62
7
  6
CONTINUOUS
 10
163.095163
 20
148.406240
 11
151.945076
 21
148.406240
  0
LINE
  8
1
 62
7
  6
CONTINUOUS
 10
163.095163
 20
148.056240
 11
163.095163
 21
143.756240
  0
LINE
  8
1
 62
7
  6
DASHDOT
 10
163.095163
 20
145.906240
 11
159.624784
 21
145.906240
  0
LINE
  8
1
 62
7
  6
CONTINUOUS
 10
209.094431
 20
143.889466
 11
210.527220
 21
143.764113
  0
LINE
  8
1
 62
7
  6
CONTINUOUS
 10
208.745808
 20
139.904687
 11
210.178597
 21
139.779334
  0
ARC
  8
1
 62
7
  6
CONTINUOUS
 10
212.904898
 20
141.548453
 40
3.250000
 50
-147.020128
 51
137.020128
  0
LINE
  8
1
 62
7
  6
CONTINUOUS
 10
209.120578
 20
144.188324
 11
194.177657
 21
145.495660
  0
LINE
  8
1
 62
7
  6
CONTINUOUS
 10
194.177657
 20
145.495660
 11
193.776741
 21
140.913164
  0
LINE
  8
1
 62
7
  6
CONTINUOUS
 10
193.776741
 20
140.913164
 11
208.719661
 21
139.605828
  0
LINE
  8
1
 62
7
  6
CONTINUOUS
 10
208.719661
 20
139.605828
 11
209.120578
 21
144.188324
  0
LINE
  8
1
 62
7
  6
DASHDOT
 10
219.250304
 20
140.993302
 11
161.057326
 21
146.084528
  0
LINE
  8
1
 62
7
  6
CONTINUOUS
 10
194.020777
 20
143.702510
 11
163.138741
 21
146.404338
  0
LINE
  8
1
 62
7
  6
CONTINUOUS
 10
193.933621
 20
142.706315
 11
163.051585
 21
145.408143
  0
LINE
  8
1
 62
7
  6
CONTINUOUS
 10
208.045389
 20
135.932416
 11
209.434644
 21
135.560166
  0
LINE
  8
1
 62
7
  6
CONTINUOUS
 10
207.010113
 20
132.068713
 11
208.399368
 21
131.696463
  0
ARC
  8
1
 62
7
  6
CONTINUOUS
 10
211.391455
 20
132.965288
 40
3.250000
 50
-157.020128
 51
127.020128
  0
LINE
  8
1
 62
7
  6
CONTINUOUS
 10
208.123035
 20
136.222194
 11
193.634148
 21
140.104479
  0
LINE
  8
1
 62
7
  6
CONTINUOUS
 10
193.634148
 20
140.104479
 11
192.443580
 21
135.661220
  0
LINE
  8
1
 62
7
  6
CONTINUOUS
 10
192.443580
 20
135.661220
 11
206.932468
 21
131.778935
  0
LINE
  8
1
 62
7
  6
CONTINUOUS
 10
206.932468
 20
131.778935
 11
208.123035
 21
136.222194
  0
LINE
  8
1
 62
7
  6
DASHDOT
 10
217.544059
 20
131.316703
 11
161.119244
 21
146.435686
  0
LINE
  8
1
 62
7
  6
CONTINUOUS
 10
193.168273
 20
138.365813
 11
163.224573
 21
146.389203
  0
LINE
  8
1
 62
7
  6
CONTINUOUS
 10
192.909454
 20
137.399887
 11
162.965754
 21
145.423277
  0
LINE
  8
1
 62
7
  6
CONTINUOUS
 10
208.745808
 20
151.907794
 11
210.178597
 21
152.033147
  0
LINE
  8
1
 62
7
  6
CONTINUOUS
 10
209.094431
 20
147.923015
 11
210.527220
 21
148.048368
  0
ARC
  8
1
 62
7
  6
CONTINUOUS
 10
212.904898
 20
150.264027
 40
3.250000
 50
-137.020128
 51
147.020128
  0
LINE
  8
1
 62
7
  6
CONTINUOUS
 10
208.719661
 20
152.206652
 11
193.776741
 21
150.899316
  0
LINE
  8
1
 62
7
  6
CONTINUOUS
 10
193.776741
 20
150.899316
 11
194.177657
 21
146.316821
  0
LINE
  8
1
 62
7
  6
CONTINUOUS
 10
194.177657
 20
146.316821
 11
209.120578
 21
147.624157
  0
LINE
  8
1
 62
7
  6
CONTINUOUS
 10
209.120578
 20
147.624157
 11
208.719661
 21
152.206652
  0
LINE
  8
1
 62
7
  6
DASHDOT
 10
219.250304
 20
150.819179
 11
161.057326
 21
145.727953
  0
LINE
  8
1
 62
7
  6
CONTINUOUS
 10
193.933621
 20
149.106166
 11
163.051585
 21
146.404338
  0
LINE
  8
1
 62
7
  6
CONTINUOUS
 10
194.020777
 20
148.109971
 11
163.138741
 21
145.408143
  0
LINE
  8
1
 62
7
  6
CONTINUOUS
 10
207.010113
 20
159.743768
 11
208.399368
 21
160.116018
  0
LINE
  8
1
 62
7
  6
CONTINUOUS
 10
208.045389
 20
155.880065
 11
209.434644
 21
156.252314
  0
ARC
  8
1
 62
7
  6
CONTINUOUS
 10
211.391455
 20
158.847193
 40
3.250000
 50
-127.020128
 51
157.020128
  0
LINE
  8
1
 62
7
  6
CONTINUOUS
 10
206.932468
 20
160.033546
 11
192.443580
 21
156.151260
  0
LINE
  8
1
 62
7
  6
CONTINUOUS
 10
192.443580
 20
156.151260
 11
193.634148
 21
151.708001
  0
LINE
  8
1
 62
7
  6
CONTINUOUS
 10
193.634148
 20
151.708001
 11
208.123035
 21
155.590287
  0
LINE
  8
1
 62
7
  6
CONTINUOUS
 10
208.123035
 20
155.590287
 11
206.932468
 21
160.033546
  0
LINE
  8
1
 62
7
  6
DASHDOT
 10
217.544059
 20
160.495778
 11
161.119244
 21
145.376794
  0
LINE
  8
1
 62
7
  6
CONTINUOUS
 10
192.909454
 20
154.412594
 11
162.965754
 21
146.389203
  0
LINE
  8
1
 62
7
  6
CONTINUOUS
 10
193.168273
 20
153.446668
 11
163.224573
 21
145.423277
  0
CIRCLE
  8
1
 62
7
  6
CONTINUOUS
 10
211.391455
 20
158.847193
 40
1.500000
  0
CIRCLE
  8
1
 62
7
  6
CONTINUOUS
 10
212.904898
 20
150.264027
 40
1.500000
  0
CIRCLE
  8
1
 62
7
  6
CONTINUOUS
 10
212.904898
 20
141.548453
 40
1.500000
  0
CIRCLE
  8
1
 62
7
  6
CONTINUOUS
 10
211.391455
 20
132.965288
 40
1.500000
  0
DIMENSION
  8
2
 62
134
  6
CONTINUOUS
  2
*D18
 10
157.449749
 20
161.509385
 11
183.584256
 21
161.509385
 70
     0
  1
100
 13
157.449749
 23
147.906240
 14
208.920119
 24
151.915404
 50
0.000000
  0
LINE
  8
1
 62
7
  6
CONTINUOUS
 10
157.449749
 20
148.056240
 11
163.095163
 21
148.056240
  0
LINE
  8
1
 62
7
  6
CONTINUOUS
 10
163.095163
 20
143.756240
 11
157.449749
 21
143.756240
  0
TEXT
  8
3
 62
214
  6
CONTINUOUS
 10
184.824245
 20
135.439689
 40
4.000000
 41
0.500000
  1
ｱｶ
  7
KANJI
 50
-15.000000
 51
0.000000
  0
TEXT
  8
3
 62
214
  6
CONTINUOUS
 10
186.248147
 20
152.290180
 40
4.000000
 41
0.500000
  1
ｸﾛ
  7
KANJI
 50
15.000000
 51
0.000000
  0
TEXT
  8
3
 62
214
  6
CONTINUOUS
 10
185.275263
 20
147.693604
 40
4.000000
 41
0.500000
  1
ﾐﾄﾞﾘ
  7
KANJI
 50
5.000000
 51
0.000000
  0
TEXT
  8
3
 62
214
  6
CONTINUOUS
 10
185.523882
 20
143.069824
 40
4.000000
 41
0.500000
  1
ｼﾛ
  7
KANJI
 50
-5.000000
 51
0.000000
  0
LINE
  8
3
 62
214
  6
CONTINUOUS
 10
211.391455
 20
129.715288
 11
180.390882
 21
114.049987
  0
LINE
  8
3
 62
214
  6
CONTINUOUS
 10
180.390882
 20
114.049987
 11
156.077508
 21
114.049987
  0
TEXT
  8
3
 62
214
  6
CONTINUOUS
 10
156.077508
 20
114.049987
 40
4.000000
 41
0.500000
  1
4-M3
  7
KANJI
 50
0.000000
 51
30.000000
  0
LINE
  8
3
 62
214
  6
CONTINUOUS
 10
211.391455
 20
129.715288
 11
209.900701
 21
128.382001
  0
LINE
  8
3
 62
214
  6
CONTINUOUS
 10
211.391455
 20
129.715288
 11
209.433781
 21
129.306005
  0
LINE
  8
3
 62
214
  6
CONTINUOUS
 10
209.900701
 20
128.382001
 11
209.433781
 21
129.306005
  0
LINE
  8
3
 62
214
  6
CONTINUOUS
 10
210.960401
 20
129.497467
 11
210.215024
 21
128.830824
  0
LINE
  8
3
 62
214
  6
CONTINUOUS
 10
210.960401
 20
129.497467
 11
209.981564
 21
129.292825
  0
LINE
  8
3
 62
214
  6
CONTINUOUS
 10
210.215024
 20
128.830824
 11
209.981564
 21
129.292825
  0
TEXT
  8
3
 62
214
  6
CONTINUOUS
 10
157.153447
 20
109.700045
 40
4.000000
 41
1.000000
  1
圧着端子
  7
KANJI
 50
0.000000
 51
0.000000
  0
TEXT
  8
6
 62
14
  6
CONTINUOUS
 10
151.600547
 20
109.524125
 40
4.000000
 41
1.000000
  1
③
  7
KANJI
 50
0.000000
 51
0.000000
  0
TEXT
  8
2
 62
134
  6
DASHDOT
 10
221.112238
 20
128.894971
 40
4.000000
 41
0.583333
  1
4：DC+4.7～27V
  7
KANJI
 50
0.000000
 51
0.000000
  0
TEXT
  8
2
 62
134
  6
DASHDOT
 10
221.292356
 20
158.873284
 40
4.000000
 41
0.600000
  1
1：GND
  7
KANJI
 50
0.000000
 51
0.000000
  0
TEXT
  8
3
 62
214
  6
DASHDOT
 10
221.202297
 20
148.716246
 40
4.000000
 41
0.666667
  1
2：ｱﾅﾛｸﾞ出力
  7
KANJI
 50
0.000000
 51
0.000000
  0
TEXT
  8
3
 62
214
  6
DASHDOT
 10
221.076476
 20
139.144180
 40
4.000000
 41
0.687500
  1
3：ｱﾗｰﾑ出力
  7
KANJI
 50
0.000000
 51
0.000000
  0
TEXT
  8
3
 62
214
  6
DASHDOT
 10
226.993922
 20
135.150485
 40
4.000000
 41
0.916667
  1
/放射率入力
  7
KANJI
 50
0.000000
 51
0.000000
  0
LINE
  8
1
 62
7
  6
DASHDOT
 10
112.237064
 20
145.906240
 11
136.219120
 21
145.906240
  0
LINE
  8
1
 62
7
  6
CONTINUOUS
 10
126.519120
 20
148.406240
 11
136.519120
 21
148.406240
  0
LINE
  8
1
 62
7
  6
CONTINUOUS
 10
136.519120
 20
148.406240
 11
136.519120
 21
143.406240
  0
LINE
  8
1
 62
7
  6
CONTINUOUS
 10
136.519120
 20
143.406240
 11
126.519120
 21
143.406240
  0
DIMENSION
  8
2
 62
134
  6
CONTINUOUS
  2
*D19
 10
134.724992
 20
113.406240
 11
134.724992
 21
131.250000
 70
     0
  1
32.5
 13
124.019120
 23
113.406240
 14
128.519120
 24
145.906240
 50
90.000000
  0
LINE
  8
1
 62
7
  6
CONTINUOUS
 10
144.171928
 20
148.714745
 11
142.727509
 21
142.937071
  0
LINE
  8
1
 62
7
  6
CONTINUOUS
 10
143.123005
 20
148.757734
 11
141.674287
 21
142.962864
  0
LINE
  8
1
 62
7
  6
CONTINUOUS
 10
142.885131
 20
147.806240
 11
126.519120
 21
147.806240
  0
LINE
  8
1
 62
7
  6
CONTINUOUS
 10
126.519120
 20
144.006240
 11
141.935131
 21
144.006240
  0
LINE
  8
1
 62
7
  6
CONTINUOUS
 10
157.449749
 20
147.806240
 11
143.944801
 21
147.806240
  0
LINE
  8
1
 62
7
  6
CONTINUOUS
 10
142.994801
 20
144.006240
 11
157.449749
 21
144.006240
  0
DIMENSION
  8
2
 62
134
  6
CONTINUOUS
  2
*D20
 10
127.270729
 20
113.406240
 11
127.270729
 21
114.406240
 70
     0
  1
4
 13
126.019120
 23
113.406240
 14
120.634624
 24
117.406240
 50
90.000000
  0
DIMENSION
  8
2
 62
134
  6
CONTINUOUS
  2
*D21
 10
73.551939
 20
113.406240
 11
73.551939
 21
166.165374
 70
     0
  1
41.2
 13
79.019120
 23
113.406240
 14
79.019120
 24
154.606240
 50
90.000000
  0
DIMENSION
  8
2
 62
134
  6
CONTINUOUS
  2
*D22
 10
148.905269
 20
144.006240
 11
148.905269
 21
154.357894
 70
     0
  1
φ3.8
 13
148.905269
 23
144.006240
 14
148.905269
 24
147.806240
 50
90.000000
  0
DIMENSION
  8
2
 62
134
  6
CONTINUOUS
  2
*D23
 10
81.019120
 20
39.449503
 11
84.747962
 21
39.449503
 70
     0
  1
6.7
 13
81.019120
 23
43.667039
 14
87.719120
 24
56.917039
 50
0.000000
  0
DIMENSION
  8
2
 62
134
  6
CONTINUOUS
  2
*D24
 10
143.205243
 20
53.717039
 11
143.205243
 21
47.661300
 70
     0
  1
11
 13
128.519120
 23
53.717039
 14
128.519120
 24
64.117039
 50
90.000000
  0
TEXT
  8
5
 62
94
  6
CONTINUOUS
 10
179.772351
 20
22.782285
 40
4.000000
 41
0.500000
  1
2010/08/16
  7
KANJI
 50
-0.091868
 51
0.000000
  0
TEXT
  8
5
 62
94
  6
CONTINUOUS
 10
246.646523
 20
30.322020
 40
4.000000
 41
1.000000
  1
ＴＭＨ９２
  7
KANJI
 50
0.000000
 51
0.000000
  0
TEXT
  8
5
 62
94
  6
CONTINUOUS
 10
244.868465
 20
15.437914
 40
4.000000
 41
0.875000
  1
００５－０６０－Ａ１０２
  7
KANJI
 50
0.000000
 51
0.000000
  0
TEXT
  8
3
 62
214
  6
CONTINUOUS
 10
199.397203
 20
59.510930
 40
4.000000
 41
0.647059
  1
重量 ；100g(ｹｰﾌﾞﾙ除く)
  7
KANJI
 50
0.000000
 51
0.000000
  0
ENDSEC
  0
EOF
