  0
SECTION
  2
HEADER
  9
$ACADVER
  1
AC1004
  9
$INSBASE
 10
0.000000
 20
0.000000
  9
$EXTMIN
 10
0.000000
 20
0.000000
  9
$EXTMAX
 10
297.000000
 20
210.000000
  9
$LIMMIN
 10
0.000000
 20
0.000000
  9
$LIMMAX
 10
297.000000
 20
210.000000
  9
$VIEWCTR
 10
148.500000
 20
105.000000
  9
$VIEWSIZE
 40
210.000000
  9
$PEXTMIN
 10
0.000000
 20
0.000000
 30
0.000000
  9
$PEXTMAX
 10
297.000000
 20
210.000000
 30
0.000000
  9
$SNAPMODE
 70
     0
  9
$SNAPUNIT
 10
1.000000
 20
1.000000
  9
$SNAPBASE
 10
0.000000
 20
0.000000
  9
$SNAPANG
 50
0.000000
  9
$SNAPISOPAIR
 70
     0
  9
$SNAPSTYLE
 70
     0
  9
$GRIDMODE
 70
     0
  9
$GRIDUNIT
 10
0.000000
 20
0.000000
  9
$ORTHOMODE
 70
     0
  9
$REGENMODE
 70
     1
  9
$FILLMODE
 70
     1
  9
$QTEXTMODE
 70
     0
  9
$DRAGMODE
 70
     2
  9
$LTSCALE
 40
0.250000
  9
$OSMODE
 70
     0
  9
$ATTMODE
 70
     1
  9
$TEXTSIZE
 40
2.500000
  9
$TRACEWID
 40
0.050000
  9
$TEXTSTYLE
  7
STANDARD
  9
$CLAYER
  8
0
  9
$CELTYPE
  6
BYLAYER
  9
$CECOLOR
 62
   256
  9
$DIMSCALE
 40
1.000000
  9
$DIMASZ
 40
1.000000
  9
$DIMEXO
 40
0.000000
  9
$DIMDLI
 40
0.500000
  9
$DIMRND
 40
0.000000
  9
$DIMDLE
 40
0.000000
  9
$DIMEXE
 40
0.000000
  9
$DIMTP
 40
0.000000
  9
$DIMTM
 40
0.000000
  9
$DIMTXT
 40
4.000000
  9
$DIMCEN
 40
0.000000
  9
$DIMTSZ
 40
0.000000
  9
$DIMTOL
 70
     0
  9
$DIMLIM
 70
     0
  9
$DIMTIH
 70
     1
  9
$DIMTOH
 70
     1
  9
$DIMSE1
 70
     0
  9
$DIMSE2
 70
     0
  9
$DIMTAD
 70
     0
  9
$DIMZIN
 70
     0
  9
$DIMBLK
  1

  9
$DIMASO
 70
     0
  9
$DIMSHO
 70
     0
  9
$DIMPOST
  1

  9
$DIMAPOST
  1

  9
$DIMALT
 70
     0
  9
$DIMALTD
 70
     0
  9
$DIMALTF
 40
25.400000
  9
$DIMLFAC
 40
1.000000
  9
$DIMTOFL
 70
     0
  9
$DIMTVP
 40
0.000000
  9
$DIMTIX
 70
     0
  9
$DIMSOXD
 70
     0
  9
$DIMSAH
 70
     0
  9
$DIMBLKL
  1

  9
$DIMBLKR
  1

  9
$LUNITS
 70
     2
  9
$LUPREC
 70
     2
  9
$AXISMODE
 70
     0
  9
$AXISUNIT
 10
1.000000
 20
1.000000
  9
$SKETCHINC
 40
0.000000
  9
$FILLETRAD
 40
0.000000
  9
$AUNITS
 70
     1
  9
$AUPREC
 70
     2
  9
$MENU
  1
ACAD
  9
$ELEVATION
 40
0.000000
  9
$THICKNESS
 40
0.000000
  9
$VIEWDIR
 10
0.000000
 20
0.000000
 30
1.000000
  9
$LIMCHECK
 70
     1
  9
$BLIPMODE
 70
     1
  9
$CHAMFERA
 40
0.000000
  9
$CHAMFERB
 40
0.000000
  9
$FASTZOOM
 70
     1
  9
$SKPOLY
 70
     0
  9
$TDCREATE
 40
0.000000
  9
$TDUPDATE
 40
0.000000
  9
$TDINDWG
 40
0.000000
  9
$TDUSRTIMER
 40
0.000000
  9
$USRTIMER
 70
     1
  9
$ANGBASE
 50
0.000000
  9
$ANGDIR
 70
     0
  9
$PDMODE
 70
     0
  9
$PDSIZE
 40
0.000000
  9
$PLINEWID
 40
0.000000
  9
$COORDS
 70
     2
  9
$USERI1
 70
     0
  9
$USERI2
 70
     0
  9
$USERI3
 70
     0
  9
$USERI4
 70
     0
  9
$USERI5
 70
     0
  9
$USERR1
 40
0.000000
  9
$USERR2
 40
0.000000
  9
$USERR3
 40
0.000000
  9
$USERR4
 40
0.000000
  9
$USERR5
 40
0.000000
  0
ENDSEC
  0
SECTION
  2
TABLES
  0
TABLE
  2
LTYPE
 70
     5
  0
LTYPE
  2
CONTINUOUS
 70
    64
  3
Solid line
 72
    65
 73
     0
 40
0.0
  0
LTYPE
  2
HIDDEN
 70
    64
  3
------------------------
 72
    65
 73
     2
 40
12.6
 49
8.4
 49
-4.2
  0
LTYPE
  2
DOT
 70
    64
  3
････････････････････････
 72
    65
 73
     2
 40
8.0
 49
6.0
 49
-2.0
  0
LTYPE
  2
DASHDOT
 70
    64
  3
--･--･--･--･--･--･--･--
 72
    65
 73
     4
 40
50.5
 49
30.0
 49
-9.0
 49
2.5
 49
-9.0
  0
LTYPE
  2
DIVIDE
 70
    64
  3
--･･--･･--･･--･･--･･--
 72
    65
 73
     6
 40
58.0
 49
30.0
 49
-9.0
 49
2.5
 49
-5.0
 49
2.5
 49
-9.0
  0
LTYPE
  2
ACAD_ISO06W100
 70
    64
  3
____ ... ____ ... ____
 72
    65
 73
     8
 40
37.5
 49
24.0
 49
-3.0
 49
0.5
 49
-3.0
 49
0.5
 49
-3.0
 49
0.5
 49
-3.0
  0
LTYPE
  2
ACAD_ISO14W100
 70
    64
  3
__ . . . __ . . . __ . . . 
 72
    65
 73
     8
 40
25.5
 49
12.0
 49
-3.0
 49
0.5
 49
-3.0
 49
0.5
 49
-3.0
 49
0.5
 49
-3.0
  0
ENDTAB
  0
TABLE
  2
LAYER
 70
6
  0
LAYER
  2
1
 70
64
 62
7
  6
CONTINUOUS
  0
LAYER
  2
2
 70
64
 62
134
  6
CONTINUOUS
  0
LAYER
  2
3
 70
64
 62
214
  6
CONTINUOUS
  0
LAYER
  2
5
 70
64
 62
94
  6
CONTINUOUS
  0
LAYER
  2
6
 70
64
 62
14
  6
CONTINUOUS
  0
LAYER
  2
8
 70
64
 62
6
  6
CONTINUOUS
  0
ENDTAB
  0
TABLE
  2
STYLE
 70
     2
  0
STYLE
  2
STANDARD
 70
    64
 40
0.0
 41
1.0
 50
0.0
 71
     0
 42
0.2
  3
TXT
  4

  0
STYLE
  2
KANJI
 70
    64
 40
0.0
 41
1.0
 50
0.0
 71
     0
 42
0.2
  3
TXT
  4
BIGFONT
  0
ENDTAB
  0
TABLE
  2
VIEW
 70
     0
  0
ENDTAB
  0
ENDSEC
  0
SECTION
  2
BLOCKS
  0
BLOCK
  8
2
 62
134
  6
CONTINUOUS
  2
*D1
 70
    65
 10
0.0
 20
0.0
  0
LINE
  8
2
 62
134
  6
CONTINUOUS
 10
256.713886
 20
170.106766
 11
283.213886
 21
170.106766
  0
LINE
  8
2
 62
134
  6
CONTINUOUS
 10
256.713886
 20
174.106766
 11
256.713886
 21
158.606240
  0
LINE
  8
2
 62
134
  6
CONTINUOUS
 10
283.213886
 20
174.106766
 11
283.213886
 21
158.606240
  0
LINE
  8
2
 62
134
  6
CONTINUOUS
 10
256.713886
 20
170.106766
 11
258.645737
 21
170.624404
  0
LINE
  8
2
 62
134
  6
CONTINUOUS
 10
256.713886
 20
170.106766
 11
258.645737
 21
169.589128
  0
LINE
  8
2
 62
134
  6
CONTINUOUS
 10
258.645737
 20
170.624404
 11
258.645737
 21
169.589128
  0
LINE
  8
2
 62
134
  6
CONTINUOUS
 10
257.196849
 20
170.106766
 11
258.162774
 21
170.365585
  0
LINE
  8
2
 62
134
  6
CONTINUOUS
 10
257.196849
 20
170.106766
 11
258.162774
 21
169.847947
  0
LINE
  8
2
 62
134
  6
CONTINUOUS
 10
258.162774
 20
170.365585
 11
258.162774
 21
169.847947
  0
LINE
  8
2
 62
134
  6
CONTINUOUS
 10
283.213886
 20
170.106766
 11
281.282034
 21
169.589128
  0
LINE
  8
2
 62
134
  6
CONTINUOUS
 10
283.213886
 20
170.106766
 11
281.282034
 21
170.624404
  0
LINE
  8
2
 62
134
  6
CONTINUOUS
 10
281.282034
 20
169.589128
 11
281.282034
 21
170.624404
  0
LINE
  8
2
 62
134
  6
CONTINUOUS
 10
282.730923
 20
170.106766
 11
281.764997
 21
169.847947
  0
LINE
  8
2
 62
134
  6
CONTINUOUS
 10
282.730923
 20
170.106766
 11
281.764997
 21
170.365585
  0
LINE
  8
2
 62
134
  6
CONTINUOUS
 10
281.764997
 20
169.847947
 11
281.764997
 21
170.365585
  0
TEXT
  8
2
 62
134
  6
CONTINUOUS
 10
265.745919
 20
170.106766
 40
4.000000
 41
0.500000
  1
26.5
  7
KANJI
 50
0.000000
 51
30.000000
  0
ENDBLK
  0
BLOCK
  8
2
 62
134
  6
CONTINUOUS
  2
*D2
 70
    65
 10
0.0
 20
0.0
  0
LINE
  8
2
 62
134
  6
CONTINUOUS
 10
114.020000
 20
169.273468
 11
135.905627
 21
169.273468
  0
LINE
  8
2
 62
134
  6
CONTINUOUS
 10
122.020000
 20
171.273468
 11
122.020000
 21
154.806240
  0
LINE
  8
2
 62
134
  6
CONTINUOUS
 10
126.520000
 20
171.273468
 11
126.520000
 21
154.806240
  0
LINE
  8
2
 62
134
  6
CONTINUOUS
 10
122.020000
 20
169.273468
 11
120.088148
 21
168.755830
  0
LINE
  8
2
 62
134
  6
CONTINUOUS
 10
122.020000
 20
169.273468
 11
120.088148
 21
169.791106
  0
LINE
  8
2
 62
134
  6
CONTINUOUS
 10
120.088148
 20
168.755830
 11
120.088148
 21
169.791106
  0
LINE
  8
2
 62
134
  6
CONTINUOUS
 10
121.537037
 20
169.273468
 11
120.571111
 21
169.014649
  0
LINE
  8
2
 62
134
  6
CONTINUOUS
 10
121.537037
 20
169.273468
 11
120.571111
 21
169.532287
  0
LINE
  8
2
 62
134
  6
CONTINUOUS
 10
120.571111
 20
169.014649
 11
120.571111
 21
169.532287
  0
LINE
  8
2
 62
134
  6
CONTINUOUS
 10
126.520000
 20
169.273468
 11
128.451852
 21
169.791106
  0
LINE
  8
2
 62
134
  6
CONTINUOUS
 10
126.520000
 20
169.273468
 11
128.451852
 21
168.755830
  0
LINE
  8
2
 62
134
  6
CONTINUOUS
 10
128.451852
 20
169.791106
 11
128.451852
 21
168.755830
  0
LINE
  8
2
 62
134
  6
CONTINUOUS
 10
127.002963
 20
169.273468
 11
127.968889
 21
169.532287
  0
LINE
  8
2
 62
134
  6
CONTINUOUS
 10
127.002963
 20
169.273468
 11
127.968889
 21
169.014649
  0
LINE
  8
2
 62
134
  6
CONTINUOUS
 10
127.968889
 20
169.532287
 11
127.968889
 21
169.014649
  0
TEXT
  8
2
 62
134
  6
CONTINUOUS
 10
128.905627
 20
169.273468
 40
4.000000
 41
0.500000
  1
4.5
  7
KANJI
 50
0.000000
 51
30.000000
  0
ENDBLK
  0
BLOCK
  8
2
 62
134
  6
CONTINUOUS
  2
*D3
 70
    65
 10
0.0
 20
0.0
  0
LINE
  8
2
 62
134
  6
CONTINUOUS
 10
81.020000
 20
169.273468
 11
122.020000
 21
169.273468
  0
LINE
  8
2
 62
134
  6
CONTINUOUS
 10
81.020000
 20
171.273468
 11
81.020000
 21
156.606240
  0
LINE
  8
2
 62
134
  6
CONTINUOUS
 10
122.020000
 20
171.273468
 11
122.020000
 21
156.606240
  0
LINE
  8
2
 62
134
  6
CONTINUOUS
 10
81.020000
 20
169.273468
 11
82.951852
 21
169.791106
  0
LINE
  8
2
 62
134
  6
CONTINUOUS
 10
81.020000
 20
169.273468
 11
82.951852
 21
168.755830
  0
LINE
  8
2
 62
134
  6
CONTINUOUS
 10
82.951852
 20
169.791106
 11
82.951852
 21
168.755830
  0
LINE
  8
2
 62
134
  6
CONTINUOUS
 10
81.502963
 20
169.273468
 11
82.468889
 21
169.532287
  0
LINE
  8
2
 62
134
  6
CONTINUOUS
 10
81.502963
 20
169.273468
 11
82.468889
 21
169.014649
  0
LINE
  8
2
 62
134
  6
CONTINUOUS
 10
82.468889
 20
169.532287
 11
82.468889
 21
169.014649
  0
LINE
  8
2
 62
134
  6
CONTINUOUS
 10
122.020000
 20
169.273468
 11
120.088148
 21
168.755830
  0
LINE
  8
2
 62
134
  6
CONTINUOUS
 10
122.020000
 20
169.273468
 11
120.088148
 21
169.791106
  0
LINE
  8
2
 62
134
  6
CONTINUOUS
 10
120.088148
 20
168.755830
 11
120.088148
 21
169.791106
  0
LINE
  8
2
 62
134
  6
CONTINUOUS
 10
121.537037
 20
169.273468
 11
120.571111
 21
169.014649
  0
LINE
  8
2
 62
134
  6
CONTINUOUS
 10
121.537037
 20
169.273468
 11
120.571111
 21
169.532287
  0
LINE
  8
2
 62
134
  6
CONTINUOUS
 10
120.571111
 20
169.014649
 11
120.571111
 21
169.532287
  0
TEXT
  8
2
 62
134
  6
CONTINUOUS
 10
98.787329
 20
169.273468
 40
4.000000
 41
0.500000
  1
41
  7
KANJI
 50
0.000000
 51
30.000000
  0
ENDBLK
  0
BLOCK
  8
2
 62
134
  6
CONTINUOUS
  2
*D4
 70
    65
 10
0.0
 20
0.0
  0
LINE
  8
2
 62
134
  6
CONTINUOUS
 10
81.020000
 20
105.715578
 11
93.220000
 21
105.715578
  0
LINE
  8
2
 62
134
  6
CONTINUOUS
 10
81.020000
 20
103.715578
 11
81.020000
 21
111.406240
  0
LINE
  8
2
 62
134
  6
CONTINUOUS
 10
93.220000
 20
103.715578
 11
93.220000
 21
111.406240
  0
LINE
  8
2
 62
134
  6
CONTINUOUS
 10
81.020000
 20
105.715578
 11
82.951852
 21
106.233216
  0
LINE
  8
2
 62
134
  6
CONTINUOUS
 10
81.020000
 20
105.715578
 11
82.951852
 21
105.197940
  0
LINE
  8
2
 62
134
  6
CONTINUOUS
 10
82.951852
 20
106.233216
 11
82.951852
 21
105.197940
  0
LINE
  8
2
 62
134
  6
CONTINUOUS
 10
81.502963
 20
105.715578
 11
82.468889
 21
105.974397
  0
LINE
  8
2
 62
134
  6
CONTINUOUS
 10
81.502963
 20
105.715578
 11
82.468889
 21
105.456759
  0
LINE
  8
2
 62
134
  6
CONTINUOUS
 10
82.468889
 20
105.974397
 11
82.468889
 21
105.456759
  0
LINE
  8
2
 62
134
  6
CONTINUOUS
 10
93.220000
 20
105.715578
 11
91.288148
 21
105.197940
  0
LINE
  8
2
 62
134
  6
CONTINUOUS
 10
93.220000
 20
105.715578
 11
91.288148
 21
106.233216
  0
LINE
  8
2
 62
134
  6
CONTINUOUS
 10
91.288148
 20
105.197940
 11
91.288148
 21
106.233216
  0
LINE
  8
2
 62
134
  6
CONTINUOUS
 10
92.737037
 20
105.715578
 11
91.771111
 21
105.456759
  0
LINE
  8
2
 62
134
  6
CONTINUOUS
 10
92.737037
 20
105.715578
 11
91.771111
 21
105.974397
  0
LINE
  8
2
 62
134
  6
CONTINUOUS
 10
91.771111
 20
105.456759
 11
91.771111
 21
105.974397
  0
TEXT
  8
2
 62
134
  6
CONTINUOUS
 10
83.120000
 20
105.715578
 40
4.000000
 41
0.500000
  1
12.2
  7
KANJI
 50
0.000000
 51
30.000000
  0
ENDBLK
  0
BLOCK
  8
2
 62
134
  6
CONTINUOUS
  2
*D5
 70
    65
 10
0.0
 20
0.0
  0
LINE
  8
2
 62
134
  6
CONTINUOUS
 10
93.220000
 20
105.715578
 11
113.220000
 21
105.715578
  0
LINE
  8
2
 62
134
  6
CONTINUOUS
 10
113.220000
 20
103.715578
 11
113.220000
 21
111.406240
  0
LINE
  8
2
 62
134
  6
CONTINUOUS
 10
93.220000
 20
105.715578
 11
95.151852
 21
106.233216
  0
LINE
  8
2
 62
134
  6
CONTINUOUS
 10
93.220000
 20
105.715578
 11
95.151852
 21
105.197940
  0
LINE
  8
2
 62
134
  6
CONTINUOUS
 10
95.151852
 20
106.233216
 11
95.151852
 21
105.197940
  0
LINE
  8
2
 62
134
  6
CONTINUOUS
 10
93.702963
 20
105.715578
 11
94.668889
 21
105.974397
  0
LINE
  8
2
 62
134
  6
CONTINUOUS
 10
93.702963
 20
105.715578
 11
94.668889
 21
105.456759
  0
LINE
  8
2
 62
134
  6
CONTINUOUS
 10
94.668889
 20
105.974397
 11
94.668889
 21
105.456759
  0
LINE
  8
2
 62
134
  6
CONTINUOUS
 10
113.220000
 20
105.715578
 11
111.288148
 21
105.197940
  0
LINE
  8
2
 62
134
  6
CONTINUOUS
 10
113.220000
 20
105.715578
 11
111.288148
 21
106.233216
  0
LINE
  8
2
 62
134
  6
CONTINUOUS
 10
111.288148
 20
105.197940
 11
111.288148
 21
106.233216
  0
LINE
  8
2
 62
134
  6
CONTINUOUS
 10
112.737037
 20
105.715578
 11
111.771111
 21
105.456759
  0
LINE
  8
2
 62
134
  6
CONTINUOUS
 10
112.737037
 20
105.715578
 11
111.771111
 21
105.974397
  0
LINE
  8
2
 62
134
  6
CONTINUOUS
 10
111.771111
 20
105.456759
 11
111.771111
 21
105.974397
  0
TEXT
  8
2
 62
134
  6
CONTINUOUS
 10
101.220000
 20
105.715578
 40
4.000000
 41
0.500000
  1
20
  7
KANJI
 50
0.000000
 51
30.000000
  0
ENDBLK
  0
BLOCK
  8
2
 62
134
  6
CONTINUOUS
  2
*D6
 70
    65
 10
0.0
 20
0.0
  0
LINE
  8
2
 62
134
  6
CONTINUOUS
 10
72.461037
 20
45.667039
 11
72.461037
 21
72.167039
  0
LINE
  8
2
 62
134
  6
CONTINUOUS
 10
70.461037
 20
45.667039
 11
79.020000
 21
45.667039
  0
LINE
  8
2
 62
134
  6
CONTINUOUS
 10
70.461037
 20
72.167039
 11
79.020000
 21
72.167039
  0
LINE
  8
2
 62
134
  6
CONTINUOUS
 10
72.461037
 20
45.667039
 11
71.943399
 21
47.598891
  0
LINE
  8
2
 62
134
  6
CONTINUOUS
 10
72.461037
 20
45.667039
 11
72.978676
 21
47.598891
  0
LINE
  8
2
 62
134
  6
CONTINUOUS
 10
71.943399
 20
47.598891
 11
72.978676
 21
47.598891
  0
LINE
  8
2
 62
134
  6
CONTINUOUS
 10
72.461037
 20
46.150002
 11
72.202218
 21
47.115928
  0
LINE
  8
2
 62
134
  6
CONTINUOUS
 10
72.461037
 20
46.150002
 11
72.719857
 21
47.115928
  0
LINE
  8
2
 62
134
  6
CONTINUOUS
 10
72.202218
 20
47.115928
 11
72.719857
 21
47.115928
  0
LINE
  8
2
 62
134
  6
CONTINUOUS
 10
72.461037
 20
72.167039
 11
72.978676
 21
70.235188
  0
LINE
  8
2
 62
134
  6
CONTINUOUS
 10
72.461037
 20
72.167039
 11
71.943399
 21
70.235188
  0
LINE
  8
2
 62
134
  6
CONTINUOUS
 10
72.978676
 20
70.235188
 11
71.943399
 21
70.235188
  0
LINE
  8
2
 62
134
  6
CONTINUOUS
 10
72.461037
 20
71.684077
 11
72.719857
 21
70.718151
  0
LINE
  8
2
 62
134
  6
CONTINUOUS
 10
72.461037
 20
71.684077
 11
72.202218
 21
70.718151
  0
LINE
  8
2
 62
134
  6
CONTINUOUS
 10
72.719857
 20
70.718151
 11
72.202218
 21
70.718151
  0
TEXT
  8
2
 62
134
  6
CONTINUOUS
 10
72.461037
 20
54.973827
 40
4.000000
 41
0.500000
  1
26.5
  7
KANJI
 50
90.000000
 51
30.000000
  0
ENDBLK
  0
BLOCK
  8
2
 62
134
  6
CONTINUOUS
  2
*D7
 70
    65
 10
0.0
 20
0.0
  0
LINE
  8
2
 62
134
  6
CONTINUOUS
 10
87.720000
 20
39.449503
 11
107.720000
 21
39.449503
  0
LINE
  8
2
 62
134
  6
CONTINUOUS
 10
87.720000
 20
37.449503
 11
87.720000
 21
55.687039
  0
LINE
  8
2
 62
134
  6
CONTINUOUS
 10
107.720000
 20
37.449503
 11
107.720000
 21
55.687039
  0
LINE
  8
2
 62
134
  6
CONTINUOUS
 10
87.720000
 20
39.449503
 11
89.651852
 21
39.967141
  0
LINE
  8
2
 62
134
  6
CONTINUOUS
 10
87.720000
 20
39.449503
 11
89.651852
 21
38.931865
  0
LINE
  8
2
 62
134
  6
CONTINUOUS
 10
89.651852
 20
39.967141
 11
89.651852
 21
38.931865
  0
LINE
  8
2
 62
134
  6
CONTINUOUS
 10
88.202963
 20
39.449503
 11
89.168889
 21
39.708322
  0
LINE
  8
2
 62
134
  6
CONTINUOUS
 10
88.202963
 20
39.449503
 11
89.168889
 21
39.190684
  0
LINE
  8
2
 62
134
  6
CONTINUOUS
 10
89.168889
 20
39.708322
 11
89.168889
 21
39.190684
  0
LINE
  8
2
 62
134
  6
CONTINUOUS
 10
107.720000
 20
39.449503
 11
105.788148
 21
38.931865
  0
LINE
  8
2
 62
134
  6
CONTINUOUS
 10
107.720000
 20
39.449503
 11
105.788148
 21
39.967141
  0
LINE
  8
2
 62
134
  6
CONTINUOUS
 10
105.788148
 20
38.931865
 11
105.788148
 21
39.967141
  0
LINE
  8
2
 62
134
  6
CONTINUOUS
 10
107.237037
 20
39.449503
 11
106.271111
 21
39.190684
  0
LINE
  8
2
 62
134
  6
CONTINUOUS
 10
107.237037
 20
39.449503
 11
106.271111
 21
39.708322
  0
LINE
  8
2
 62
134
  6
CONTINUOUS
 10
106.271111
 20
39.190684
 11
106.271111
 21
39.708322
  0
TEXT
  8
2
 62
134
  6
CONTINUOUS
 10
96.036648
 20
39.449503
 40
4.000000
 41
0.500000
  1
20
  7
KANJI
 50
0.000000
 51
30.000000
  0
ENDBLK
  0
BLOCK
  8
2
 62
134
  6
CONTINUOUS
  2
*D8
 70
    65
 10
0.0
 20
0.0
  0
LINE
  8
2
 62
134
  6
CONTINUOUS
 10
22.940157
 20
73.917039
 11
22.940157
 21
43.917039
  0
LINE
  8
2
 62
134
  6
CONTINUOUS
 10
20.940157
 20
73.917039
 11
35.020000
 21
73.917039
  0
LINE
  8
2
 62
134
  6
CONTINUOUS
 10
20.940157
 20
43.917039
 11
35.020000
 21
43.917039
  0
LINE
  8
2
 62
134
  6
CONTINUOUS
 10
22.940157
 20
73.917039
 11
23.457795
 21
71.985188
  0
LINE
  8
2
 62
134
  6
CONTINUOUS
 10
22.940157
 20
73.917039
 11
22.422519
 21
71.985188
  0
LINE
  8
2
 62
134
  6
CONTINUOUS
 10
23.457795
 20
71.985188
 11
22.422519
 21
71.985188
  0
LINE
  8
2
 62
134
  6
CONTINUOUS
 10
22.940157
 20
73.434077
 11
23.198976
 21
72.468151
  0
LINE
  8
2
 62
134
  6
CONTINUOUS
 10
22.940157
 20
73.434077
 11
22.681338
 21
72.468151
  0
LINE
  8
2
 62
134
  6
CONTINUOUS
 10
23.198976
 20
72.468151
 11
22.681338
 21
72.468151
  0
LINE
  8
2
 62
134
  6
CONTINUOUS
 10
22.940157
 20
43.917039
 11
22.422519
 21
45.848891
  0
LINE
  8
2
 62
134
  6
CONTINUOUS
 10
22.940157
 20
43.917039
 11
23.457795
 21
45.848891
  0
LINE
  8
2
 62
134
  6
CONTINUOUS
 10
22.422519
 20
45.848891
 11
23.457795
 21
45.848891
  0
LINE
  8
2
 62
134
  6
CONTINUOUS
 10
22.940157
 20
44.400002
 11
22.681338
 21
45.365928
  0
LINE
  8
2
 62
134
  6
CONTINUOUS
 10
22.940157
 20
44.400002
 11
23.198976
 21
45.365928
  0
LINE
  8
2
 62
134
  6
CONTINUOUS
 10
22.681338
 20
45.365928
 11
23.198976
 21
45.365928
  0
TEXT
  8
2
 62
134
  6
CONTINUOUS
 10
22.940157
 20
55.084417
 40
4.000000
 41
0.666667
  1
φ30
  7
KANJI
 50
90.000000
 51
30.000000
  0
ENDBLK
  0
BLOCK
  8
2
 62
134
  6
CONTINUOUS
  2
*D9
 70
    65
 10
0.0
 20
0.0
  0
LINE
  8
2
 62
134
  6
CONTINUOUS
 10
81.020000
 20
105.715578
 11
36.020000
 21
105.715578
  0
LINE
  8
2
 62
134
  6
CONTINUOUS
 10
81.020000
 20
103.715578
 11
81.020000
 21
111.406240
  0
LINE
  8
2
 62
134
  6
CONTINUOUS
 10
36.020000
 20
103.715578
 11
36.020000
 21
112.406240
  0
LINE
  8
2
 62
134
  6
CONTINUOUS
 10
81.020000
 20
105.715578
 11
79.088148
 21
105.197940
  0
LINE
  8
2
 62
134
  6
CONTINUOUS
 10
81.020000
 20
105.715578
 11
79.088148
 21
106.233216
  0
LINE
  8
2
 62
134
  6
CONTINUOUS
 10
79.088148
 20
105.197940
 11
79.088148
 21
106.233216
  0
LINE
  8
2
 62
134
  6
CONTINUOUS
 10
80.537037
 20
105.715578
 11
79.571111
 21
105.456759
  0
LINE
  8
2
 62
134
  6
CONTINUOUS
 10
80.537037
 20
105.715578
 11
79.571111
 21
105.974397
  0
LINE
  8
2
 62
134
  6
CONTINUOUS
 10
79.571111
 20
105.456759
 11
79.571111
 21
105.974397
  0
LINE
  8
2
 62
134
  6
CONTINUOUS
 10
36.020000
 20
105.715578
 11
37.951852
 21
106.233216
  0
LINE
  8
2
 62
134
  6
CONTINUOUS
 10
36.020000
 20
105.715578
 11
37.951852
 21
105.197940
  0
LINE
  8
2
 62
134
  6
CONTINUOUS
 10
37.951852
 20
106.233216
 11
37.951852
 21
105.197940
  0
LINE
  8
2
 62
134
  6
CONTINUOUS
 10
36.502963
 20
105.715578
 11
37.468889
 21
105.974397
  0
LINE
  8
2
 62
134
  6
CONTINUOUS
 10
36.502963
 20
105.715578
 11
37.468889
 21
105.456759
  0
LINE
  8
2
 62
134
  6
CONTINUOUS
 10
37.468889
 20
105.974397
 11
37.468889
 21
105.456759
  0
TEXT
  8
2
 62
134
  6
CONTINUOUS
 10
54.629938
 20
105.715578
 40
4.000000
 41
0.500000
  1
45
  7
KANJI
 50
0.000000
 51
30.000000
  0
ENDBLK
  0
BLOCK
  8
3
 62
214
  6
CONTINUOUS
  2
*D10
 70
    65
 10
0.0
 20
0.0
  0
LINE
  8
3
 62
214
  6
CONTINUOUS
 10
27.758222
 20
108.906240
 11
27.758222
 21
178.000000
  0
LINE
  8
3
 62
214
  6
CONTINUOUS
 10
27.758222
 20
116.906240
 11
28.275860
 21
114.974389
  0
LINE
  8
3
 62
214
  6
CONTINUOUS
 10
27.758222
 20
116.906240
 11
27.240584
 21
114.974389
  0
LINE
  8
3
 62
214
  6
CONTINUOUS
 10
28.275860
 20
114.974389
 11
27.240584
 21
114.974389
  0
LINE
  8
3
 62
214
  6
CONTINUOUS
 10
27.758222
 20
116.423277
 11
28.017041
 21
115.457352
  0
LINE
  8
3
 62
214
  6
CONTINUOUS
 10
27.758222
 20
116.423277
 11
27.499403
 21
115.457352
  0
LINE
  8
3
 62
214
  6
CONTINUOUS
 10
28.017041
 20
115.457352
 11
27.499403
 21
115.457352
  0
LINE
  8
3
 62
214
  6
CONTINUOUS
 10
27.758222
 20
139.906240
 11
27.240584
 21
141.838092
  0
LINE
  8
3
 62
214
  6
CONTINUOUS
 10
27.758222
 20
139.906240
 11
28.275860
 21
141.838092
  0
LINE
  8
3
 62
214
  6
CONTINUOUS
 10
27.240584
 20
141.838092
 11
28.275860
 21
141.838092
  0
LINE
  8
3
 62
214
  6
CONTINUOUS
 10
27.758222
 20
140.389203
 11
27.499403
 21
141.355129
  0
LINE
  8
3
 62
214
  6
CONTINUOUS
 10
27.758222
 20
140.389203
 11
28.017041
 21
141.355129
  0
LINE
  8
3
 62
214
  6
CONTINUOUS
 10
27.499403
 20
141.355129
 11
28.017041
 21
141.355129
  0
TEXT
  8
3
 62
214
  6
CONTINUOUS
 10
27.758222
 20
143.000000
 40
4.000000
 41
0.708333
  1
φ23(ﾚﾝｽﾞ有効径）
  7
KANJI
 50
90.000000
 51
30.000000
  0
ENDBLK
  0
BLOCK
  8
2
 62
134
  6
CONTINUOUS
  2
*D11
 70
    65
 10
0.0
 20
0.0
  0
LINE
  8
2
 62
134
  6
CONTINUOUS
 10
22.459855
 20
113.406240
 11
22.459855
 21
128.406240
  0
LINE
  8
2
 62
134
  6
CONTINUOUS
 10
20.459855
 20
113.406240
 11
35.020000
 21
113.406240
  0
LINE
  8
2
 62
134
  6
CONTINUOUS
 10
22.459855
 20
113.406240
 11
21.942217
 21
115.338092
  0
LINE
  8
2
 62
134
  6
CONTINUOUS
 10
22.459855
 20
113.406240
 11
22.977493
 21
115.338092
  0
LINE
  8
2
 62
134
  6
CONTINUOUS
 10
21.942217
 20
115.338092
 11
22.977493
 21
115.338092
  0
LINE
  8
2
 62
134
  6
CONTINUOUS
 10
22.459855
 20
113.889203
 11
22.201036
 21
114.855129
  0
LINE
  8
2
 62
134
  6
CONTINUOUS
 10
22.459855
 20
113.889203
 11
22.718674
 21
114.855129
  0
LINE
  8
2
 62
134
  6
CONTINUOUS
 10
22.201036
 20
114.855129
 11
22.718674
 21
114.855129
  0
LINE
  8
2
 62
134
  6
CONTINUOUS
 10
22.459855
 20
128.406240
 11
22.977493
 21
126.474389
  0
LINE
  8
2
 62
134
  6
CONTINUOUS
 10
22.459855
 20
128.406240
 11
21.942217
 21
126.474389
  0
LINE
  8
2
 62
134
  6
CONTINUOUS
 10
22.977493
 20
126.474389
 11
21.942217
 21
126.474389
  0
LINE
  8
2
 62
134
  6
CONTINUOUS
 10
22.459855
 20
127.923277
 11
22.718674
 21
126.957352
  0
LINE
  8
2
 62
134
  6
CONTINUOUS
 10
22.459855
 20
127.923277
 11
22.201036
 21
126.957352
  0
LINE
  8
2
 62
134
  6
CONTINUOUS
 10
22.718674
 20
126.957352
 11
22.201036
 21
126.957352
  0
TEXT
  8
2
 62
134
  6
CONTINUOUS
 10
22.459855
 20
120.325958
 40
4.000000
 41
0.500000
  1
15
  7
KANJI
 50
90.000000
 51
30.000000
  0
ENDBLK
  0
BLOCK
  8
2
 62
134
  6
CONTINUOUS
  2
*D12
 70
    65
 10
0.0
 20
0.0
  0
LINE
  8
2
 62
134
  6
CONTINUOUS
 10
13.314126
 20
141.907474
 11
13.314126
 21
114.905006
  0
LINE
  8
2
 62
134
  6
CONTINUOUS
 10
11.314126
 20
141.907474
 11
34.020000
 21
141.907474
  0
LINE
  8
2
 62
134
  6
CONTINUOUS
 10
11.314126
 20
114.905006
 11
34.020000
 21
114.905006
  0
LINE
  8
2
 62
134
  6
CONTINUOUS
 10
13.314126
 20
141.907474
 11
13.831764
 21
139.975623
  0
LINE
  8
2
 62
134
  6
CONTINUOUS
 10
13.314126
 20
141.907474
 11
12.796488
 21
139.975623
  0
LINE
  8
2
 62
134
  6
CONTINUOUS
 10
13.831764
 20
139.975623
 11
12.796488
 21
139.975623
  0
LINE
  8
2
 62
134
  6
CONTINUOUS
 10
13.314126
 20
141.424511
 11
13.572945
 21
140.458585
  0
LINE
  8
2
 62
134
  6
CONTINUOUS
 10
13.314126
 20
141.424511
 11
13.055307
 21
140.458585
  0
LINE
  8
2
 62
134
  6
CONTINUOUS
 10
13.572945
 20
140.458585
 11
13.055307
 21
140.458585
  0
LINE
  8
2
 62
134
  6
CONTINUOUS
 10
13.314126
 20
114.905006
 11
12.796488
 21
116.836858
  0
LINE
  8
2
 62
134
  6
CONTINUOUS
 10
13.314126
 20
114.905006
 11
13.831764
 21
116.836858
  0
LINE
  8
2
 62
134
  6
CONTINUOUS
 10
12.796488
 20
116.836858
 11
13.831764
 21
116.836858
  0
LINE
  8
2
 62
134
  6
CONTINUOUS
 10
13.314126
 20
115.387969
 11
13.055307
 21
116.353895
  0
LINE
  8
2
 62
134
  6
CONTINUOUS
 10
13.314126
 20
115.387969
 11
13.572945
 21
116.353895
  0
LINE
  8
2
 62
134
  6
CONTINUOUS
 10
13.055307
 20
116.353895
 11
13.572945
 21
116.353895
  0
TEXT
  8
2
 62
134
  6
CONTINUOUS
 10
13.314126
 20
119.997491
 40
4.000000
 41
0.500000
  1
M27P0.75
  7
KANJI
 50
90.000000
 51
30.000000
  0
ENDBLK
  0
BLOCK
  8
3
 62
214
  6
CONTINUOUS
  2
*D13
 70
    65
 10
0.0
 20
0.0
  0
LINE
  8
3
 62
214
  6
CONTINUOUS
 10
122.020000
 20
161.509385
 11
157.450629
 21
161.509385
  0
LINE
  8
3
 62
214
  6
CONTINUOUS
 10
122.020000
 20
163.509385
 11
122.020000
 21
145.906240
  0
LINE
  8
3
 62
214
  6
CONTINUOUS
 10
157.450629
 20
163.509385
 11
157.450629
 21
145.906240
  0
LINE
  8
3
 62
214
  6
CONTINUOUS
 10
122.020000
 20
161.509385
 11
123.951852
 21
162.027023
  0
LINE
  8
3
 62
214
  6
CONTINUOUS
 10
122.020000
 20
161.509385
 11
123.951852
 21
160.991747
  0
LINE
  8
3
 62
214
  6
CONTINUOUS
 10
123.951852
 20
162.027023
 11
123.951852
 21
160.991747
  0
LINE
  8
3
 62
214
  6
CONTINUOUS
 10
122.502963
 20
161.509385
 11
123.468889
 21
161.768204
  0
LINE
  8
3
 62
214
  6
CONTINUOUS
 10
122.502963
 20
161.509385
 11
123.468889
 21
161.250566
  0
LINE
  8
3
 62
214
  6
CONTINUOUS
 10
123.468889
 20
161.768204
 11
123.468889
 21
161.250566
  0
LINE
  8
3
 62
214
  6
CONTINUOUS
 10
157.450629
 20
161.509385
 11
155.518777
 21
160.991747
  0
LINE
  8
3
 62
214
  6
CONTINUOUS
 10
157.450629
 20
161.509385
 11
155.518777
 21
162.027023
  0
LINE
  8
3
 62
214
  6
CONTINUOUS
 10
155.518777
 20
160.991747
 11
155.518777
 21
162.027023
  0
LINE
  8
3
 62
214
  6
CONTINUOUS
 10
156.967666
 20
161.509385
 11
156.001740
 21
161.250566
  0
LINE
  8
3
 62
214
  6
CONTINUOUS
 10
156.967666
 20
161.509385
 11
156.001740
 21
161.768204
  0
LINE
  8
3
 62
214
  6
CONTINUOUS
 10
156.001740
 20
161.250566
 11
156.001740
 21
161.768204
  0
TEXT
  8
3
 62
214
  6
CONTINUOUS
 10
133.743636
 20
161.509385
 40
4.000000
 41
0.583333
  1
ｹｰﾌﾞﾙ長
  7
KANJI
 50
0.000000
 51
30.000000
  0
ENDBLK
  0
BLOCK
  8
2
 62
134
  6
CONTINUOUS
  2
*D14
 70
    65
 10
0.0
 20
0.0
  0
LINE
  8
2
 62
134
  6
CONTINUOUS
 10
157.450629
 20
161.509385
 11
208.921000
 21
161.509385
  0
LINE
  8
2
 62
134
  6
CONTINUOUS
 10
157.450629
 20
163.509385
 11
157.450629
 21
147.906240
  0
LINE
  8
2
 62
134
  6
CONTINUOUS
 10
208.921000
 20
163.509385
 11
208.921000
 21
151.915404
  0
LINE
  8
2
 62
134
  6
CONTINUOUS
 10
157.450629
 20
161.509385
 11
159.382481
 21
162.027023
  0
LINE
  8
2
 62
134
  6
CONTINUOUS
 10
157.450629
 20
161.509385
 11
159.382481
 21
160.991747
  0
LINE
  8
2
 62
134
  6
CONTINUOUS
 10
159.382481
 20
162.027023
 11
159.382481
 21
160.991747
  0
LINE
  8
2
 62
134
  6
CONTINUOUS
 10
157.933592
 20
161.509385
 11
158.899518
 21
161.768204
  0
LINE
  8
2
 62
134
  6
CONTINUOUS
 10
157.933592
 20
161.509385
 11
158.899518
 21
161.250566
  0
LINE
  8
2
 62
134
  6
CONTINUOUS
 10
158.899518
 20
161.768204
 11
158.899518
 21
161.250566
  0
LINE
  8
2
 62
134
  6
CONTINUOUS
 10
208.921000
 20
161.509385
 11
206.989148
 21
160.991747
  0
LINE
  8
2
 62
134
  6
CONTINUOUS
 10
208.921000
 20
161.509385
 11
206.989148
 21
162.027023
  0
LINE
  8
2
 62
134
  6
CONTINUOUS
 10
206.989148
 20
160.991747
 11
206.989148
 21
162.027023
  0
LINE
  8
2
 62
134
  6
CONTINUOUS
 10
208.438037
 20
161.509385
 11
207.472111
 21
161.250566
  0
LINE
  8
2
 62
134
  6
CONTINUOUS
 10
208.438037
 20
161.509385
 11
207.472111
 21
161.768204
  0
LINE
  8
2
 62
134
  6
CONTINUOUS
 10
207.472111
 20
161.250566
 11
207.472111
 21
161.768204
  0
TEXT
  8
2
 62
134
  6
CONTINUOUS
 10
180.585136
 20
161.509385
 40
4.000000
 41
0.500000
  1
100
  7
KANJI
 50
0.000000
 51
30.000000
  0
ENDBLK
  0
BLOCK
  8
2
 62
134
  6
CONTINUOUS
  2
*D15
 70
    65
 10
0.0
 20
0.0
  0
LINE
  8
2
 62
134
  6
CONTINUOUS
 10
134.725872
 20
113.406240
 11
134.725872
 21
145.906240
  0
LINE
  8
2
 62
134
  6
CONTINUOUS
 10
136.725872
 20
113.406240
 11
124.020000
 21
113.406240
  0
LINE
  8
2
 62
134
  6
CONTINUOUS
 10
136.725872
 20
145.906240
 11
128.520000
 21
145.906240
  0
LINE
  8
2
 62
134
  6
CONTINUOUS
 10
134.725872
 20
113.406240
 11
134.208234
 21
115.338092
  0
LINE
  8
2
 62
134
  6
CONTINUOUS
 10
134.725872
 20
113.406240
 11
135.243511
 21
115.338092
  0
LINE
  8
2
 62
134
  6
CONTINUOUS
 10
134.208234
 20
115.338092
 11
135.243511
 21
115.338092
  0
LINE
  8
2
 62
134
  6
CONTINUOUS
 10
134.725872
 20
113.889203
 11
134.467053
 21
114.855129
  0
LINE
  8
2
 62
134
  6
CONTINUOUS
 10
134.725872
 20
113.889203
 11
134.984692
 21
114.855129
  0
LINE
  8
2
 62
134
  6
CONTINUOUS
 10
134.467053
 20
114.855129
 11
134.984692
 21
114.855129
  0
LINE
  8
2
 62
134
  6
CONTINUOUS
 10
134.725872
 20
145.906240
 11
135.243511
 21
143.974389
  0
LINE
  8
2
 62
134
  6
CONTINUOUS
 10
134.725872
 20
145.906240
 11
134.208234
 21
143.974389
  0
LINE
  8
2
 62
134
  6
CONTINUOUS
 10
135.243511
 20
143.974389
 11
134.208234
 21
143.974389
  0
LINE
  8
2
 62
134
  6
CONTINUOUS
 10
134.725872
 20
145.423277
 11
134.984692
 21
144.457352
  0
LINE
  8
2
 62
134
  6
CONTINUOUS
 10
134.725872
 20
145.423277
 11
134.467053
 21
144.457352
  0
LINE
  8
2
 62
134
  6
CONTINUOUS
 10
134.984692
 20
144.457352
 11
134.467053
 21
144.457352
  0
TEXT
  8
2
 62
134
  6
CONTINUOUS
 10
134.725872
 20
127.250000
 40
4.000000
 41
0.500000
  1
32.5
  7
KANJI
 50
90.000000
 51
30.000000
  0
ENDBLK
  0
BLOCK
  8
2
 62
134
  6
CONTINUOUS
  2
*D16
 70
    65
 10
0.0
 20
0.0
  0
LINE
  8
2
 62
134
  6
CONTINUOUS
 10
127.271609
 20
109.406240
 11
127.271609
 21
121.406240
  0
LINE
  8
2
 62
134
  6
CONTINUOUS
 10
131.271609
 20
113.406240
 11
126.020000
 21
113.406240
  0
LINE
  8
2
 62
134
  6
CONTINUOUS
 10
131.271609
 20
117.406240
 11
120.635505
 21
117.406240
  0
LINE
  8
2
 62
134
  6
CONTINUOUS
 10
127.271609
 20
113.406240
 11
127.789247
 21
111.474389
  0
LINE
  8
2
 62
134
  6
CONTINUOUS
 10
127.271609
 20
113.406240
 11
126.753971
 21
111.474389
  0
LINE
  8
2
 62
134
  6
CONTINUOUS
 10
127.789247
 20
111.474389
 11
126.753971
 21
111.474389
  0
LINE
  8
2
 62
134
  6
CONTINUOUS
 10
127.271609
 20
112.923277
 11
127.530428
 21
111.957352
  0
LINE
  8
2
 62
134
  6
CONTINUOUS
 10
127.271609
 20
112.923277
 11
127.012790
 21
111.957352
  0
LINE
  8
2
 62
134
  6
CONTINUOUS
 10
127.530428
 20
111.957352
 11
127.012790
 21
111.957352
  0
LINE
  8
2
 62
134
  6
CONTINUOUS
 10
127.271609
 20
117.406240
 11
126.753971
 21
119.338092
  0
LINE
  8
2
 62
134
  6
CONTINUOUS
 10
127.271609
 20
117.406240
 11
127.789247
 21
119.338092
  0
LINE
  8
2
 62
134
  6
CONTINUOUS
 10
126.753971
 20
119.338092
 11
127.789247
 21
119.338092
  0
LINE
  8
2
 62
134
  6
CONTINUOUS
 10
127.271609
 20
117.889203
 11
127.012790
 21
118.855129
  0
LINE
  8
2
 62
134
  6
CONTINUOUS
 10
127.271609
 20
117.889203
 11
127.530428
 21
118.855129
  0
LINE
  8
2
 62
134
  6
CONTINUOUS
 10
127.012790
 20
118.855129
 11
127.530428
 21
118.855129
  0
TEXT
  8
2
 62
134
  6
CONTINUOUS
 10
127.271609
 20
113.406240
 40
4.000000
 41
0.500000
  1
4
  7
KANJI
 50
90.000000
 51
30.000000
  0
ENDBLK
  0
BLOCK
  8
2
 62
134
  6
CONTINUOUS
  2
*D17
 70
    65
 10
0.0
 20
0.0
  0
LINE
  8
2
 62
134
  6
CONTINUOUS
 10
73.552820
 20
109.406240
 11
73.552820
 21
171.165240
  0
LINE
  8
2
 62
134
  6
CONTINUOUS
 10
71.552820
 20
113.406240
 11
79.020000
 21
113.406240
  0
LINE
  8
2
 62
134
  6
CONTINUOUS
 10
71.552820
 20
154.606240
 11
79.020000
 21
154.606240
  0
LINE
  8
2
 62
134
  6
CONTINUOUS
 10
73.552820
 20
113.406240
 11
74.070458
 21
111.474389
  0
LINE
  8
2
 62
134
  6
CONTINUOUS
 10
73.552820
 20
113.406240
 11
73.035182
 21
111.474389
  0
LINE
  8
2
 62
134
  6
CONTINUOUS
 10
74.070458
 20
111.474389
 11
73.035182
 21
111.474389
  0
LINE
  8
2
 62
134
  6
CONTINUOUS
 10
73.552820
 20
112.923277
 11
73.811639
 21
111.957352
  0
LINE
  8
2
 62
134
  6
CONTINUOUS
 10
73.552820
 20
112.923277
 11
73.294001
 21
111.957352
  0
LINE
  8
2
 62
134
  6
CONTINUOUS
 10
73.811639
 20
111.957352
 11
73.294001
 21
111.957352
  0
LINE
  8
2
 62
134
  6
CONTINUOUS
 10
73.552820
 20
154.606240
 11
73.035182
 21
156.538092
  0
LINE
  8
2
 62
134
  6
CONTINUOUS
 10
73.552820
 20
154.606240
 11
74.070458
 21
156.538092
  0
LINE
  8
2
 62
134
  6
CONTINUOUS
 10
73.035182
 20
156.538092
 11
74.070458
 21
156.538092
  0
LINE
  8
2
 62
134
  6
CONTINUOUS
 10
73.552820
 20
155.089203
 11
73.294001
 21
156.055129
  0
LINE
  8
2
 62
134
  6
CONTINUOUS
 10
73.552820
 20
155.089203
 11
73.811639
 21
156.055129
  0
LINE
  8
2
 62
134
  6
CONTINUOUS
 10
73.294001
 20
156.055129
 11
73.811639
 21
156.055129
  0
TEXT
  8
2
 62
134
  6
CONTINUOUS
 10
73.552820
 20
162.165374
 40
4.000000
 41
0.500000
  1
41.2
  7
KANJI
 50
90.000000
 51
30.000000
  0
ENDBLK
  0
BLOCK
  8
2
 62
134
  6
CONTINUOUS
  2
*D18
 70
    65
 10
0.0
 20
0.0
  0
LINE
  8
2
 62
134
  6
CONTINUOUS
 10
148.906149
 20
140.006240
 11
148.906149
 21
160.358240
  0
LINE
  8
2
 62
134
  6
CONTINUOUS
 10
148.906149
 20
144.006240
 11
149.423787
 21
142.074389
  0
LINE
  8
2
 62
134
  6
CONTINUOUS
 10
148.906149
 20
144.006240
 11
148.388511
 21
142.074389
  0
LINE
  8
2
 62
134
  6
CONTINUOUS
 10
149.423787
 20
142.074389
 11
148.388511
 21
142.074389
  0
LINE
  8
2
 62
134
  6
CONTINUOUS
 10
148.906149
 20
143.523277
 11
149.164968
 21
142.557352
  0
LINE
  8
2
 62
134
  6
CONTINUOUS
 10
148.906149
 20
143.523277
 11
148.647330
 21
142.557352
  0
LINE
  8
2
 62
134
  6
CONTINUOUS
 10
149.164968
 20
142.557352
 11
148.647330
 21
142.557352
  0
LINE
  8
2
 62
134
  6
CONTINUOUS
 10
148.906149
 20
147.806240
 11
148.388511
 21
149.738092
  0
LINE
  8
2
 62
134
  6
CONTINUOUS
 10
148.906149
 20
147.806240
 11
149.423787
 21
149.738092
  0
LINE
  8
2
 62
134
  6
CONTINUOUS
 10
148.388511
 20
149.738092
 11
149.423787
 21
149.738092
  0
LINE
  8
2
 62
134
  6
CONTINUOUS
 10
148.906149
 20
148.289203
 11
148.647330
 21
149.255129
  0
LINE
  8
2
 62
134
  6
CONTINUOUS
 10
148.906149
 20
148.289203
 11
149.164968
 21
149.255129
  0
LINE
  8
2
 62
134
  6
CONTINUOUS
 10
148.647330
 20
149.255129
 11
149.164968
 21
149.255129
  0
TEXT
  8
2
 62
134
  6
CONTINUOUS
 10
148.906149
 20
149.357894
 40
4.000000
 41
0.625000
  1
φ3.8
  7
KANJI
 50
90.000000
 51
30.000000
  0
ENDBLK
  0
BLOCK
  8
2
 62
134
  6
CONTINUOUS
  2
*D19
 70
    65
 10
0.0
 20
0.0
  0
LINE
  8
2
 62
134
  6
CONTINUOUS
 10
77.020000
 20
39.449503
 11
91.720000
 21
39.449503
  0
LINE
  8
2
 62
134
  6
CONTINUOUS
 10
81.020000
 20
37.449503
 11
81.020000
 21
43.667039
  0
LINE
  8
2
 62
134
  6
CONTINUOUS
 10
87.720000
 20
37.449503
 11
87.720000
 21
56.917039
  0
LINE
  8
2
 62
134
  6
CONTINUOUS
 10
81.020000
 20
39.449503
 11
79.088148
 21
38.931865
  0
LINE
  8
2
 62
134
  6
CONTINUOUS
 10
81.020000
 20
39.449503
 11
79.088148
 21
39.967141
  0
LINE
  8
2
 62
134
  6
CONTINUOUS
 10
79.088148
 20
38.931865
 11
79.088148
 21
39.967141
  0
LINE
  8
2
 62
134
  6
CONTINUOUS
 10
80.537037
 20
39.449503
 11
79.571111
 21
39.190684
  0
LINE
  8
2
 62
134
  6
CONTINUOUS
 10
80.537037
 20
39.449503
 11
79.571111
 21
39.708322
  0
LINE
  8
2
 62
134
  6
CONTINUOUS
 10
79.571111
 20
39.190684
 11
79.571111
 21
39.708322
  0
LINE
  8
2
 62
134
  6
CONTINUOUS
 10
87.720000
 20
39.449503
 11
89.651852
 21
39.967141
  0
LINE
  8
2
 62
134
  6
CONTINUOUS
 10
87.720000
 20
39.449503
 11
89.651852
 21
38.931865
  0
LINE
  8
2
 62
134
  6
CONTINUOUS
 10
89.651852
 20
39.967141
 11
89.651852
 21
38.931865
  0
LINE
  8
2
 62
134
  6
CONTINUOUS
 10
88.202963
 20
39.449503
 11
89.168889
 21
39.708322
  0
LINE
  8
2
 62
134
  6
CONTINUOUS
 10
88.202963
 20
39.449503
 11
89.168889
 21
39.190684
  0
LINE
  8
2
 62
134
  6
CONTINUOUS
 10
89.168889
 20
39.708322
 11
89.168889
 21
39.190684
  0
TEXT
  8
2
 62
134
  6
CONTINUOUS
 10
81.748843
 20
39.449503
 40
4.000000
 41
0.500000
  1
6.7
  7
KANJI
 50
0.000000
 51
30.000000
  0
ENDBLK
  0
BLOCK
  8
2
 62
134
  6
CONTINUOUS
  2
*D20
 70
    65
 10
0.0
 20
0.0
  0
LINE
  8
2
 62
134
  6
CONTINUOUS
 10
143.206123
 20
44.661039
 11
143.206123
 21
68.117039
  0
LINE
  8
2
 62
134
  6
CONTINUOUS
 10
145.206123
 20
53.717039
 11
128.520000
 21
53.717039
  0
LINE
  8
2
 62
134
  6
CONTINUOUS
 10
145.206123
 20
64.117039
 11
128.520000
 21
64.117039
  0
LINE
  8
2
 62
134
  6
CONTINUOUS
 10
143.206123
 20
53.717039
 11
143.723761
 21
51.785188
  0
LINE
  8
2
 62
134
  6
CONTINUOUS
 10
143.206123
 20
53.717039
 11
142.688485
 21
51.785188
  0
LINE
  8
2
 62
134
  6
CONTINUOUS
 10
143.723761
 20
51.785188
 11
142.688485
 21
51.785188
  0
LINE
  8
2
 62
134
  6
CONTINUOUS
 10
143.206123
 20
53.234077
 11
143.464942
 21
52.268151
  0
LINE
  8
2
 62
134
  6
CONTINUOUS
 10
143.206123
 20
53.234077
 11
142.947304
 21
52.268151
  0
LINE
  8
2
 62
134
  6
CONTINUOUS
 10
143.464942
 20
52.268151
 11
142.947304
 21
52.268151
  0
LINE
  8
2
 62
134
  6
CONTINUOUS
 10
143.206123
 20
64.117039
 11
142.688485
 21
66.048891
  0
LINE
  8
2
 62
134
  6
CONTINUOUS
 10
143.206123
 20
64.117039
 11
143.723761
 21
66.048891
  0
LINE
  8
2
 62
134
  6
CONTINUOUS
 10
142.688485
 20
66.048891
 11
143.723761
 21
66.048891
  0
LINE
  8
2
 62
134
  6
CONTINUOUS
 10
143.206123
 20
64.600002
 11
142.947304
 21
65.565928
  0
LINE
  8
2
 62
134
  6
CONTINUOUS
 10
143.206123
 20
64.600002
 11
143.464942
 21
65.565928
  0
LINE
  8
2
 62
134
  6
CONTINUOUS
 10
142.947304
 20
65.565928
 11
143.464942
 21
65.565928
  0
TEXT
  8
2
 62
134
  6
CONTINUOUS
 10
143.206123
 20
45.661300
 40
4.000000
 41
0.500000
  1
11
  7
KANJI
 50
90.000000
 51
30.000000
  0
ENDBLK
  0
ENDSEC
  0
SECTION
  2
ENTITIES
  0
TEXT
  8
5
 62
94
  6
CONTINUOUS
 10
217.962748
 20
20.651490
 40
1.750000
 41
4.000000
  1
製図
  7
KANJI
 50
-90.000000
 51
0.000000
  0
TEXT
  8
5
 62
94
  6
CONTINUOUS
 10
237.795530
 20
20.487583
 40
1.750000
 41
4.000000
  1
図番
  7
KANJI
 50
-90.000000
 51
0.000000
  0
TEXT
  8
5
 62
94
  6
CONTINUOUS
 10
237.795530
 20
33.764073
 40
1.750000
 41
4.000000
  1
図　名
  7
KANJI
 50
-90.000000
 51
0.000000
  0
TEXT
  8
5
 62
94
  6
CONTINUOUS
 10
172.888245
 20
28.355132
 40
1.750000
 41
4.000000
  1
日付
  7
KANJI
 50
-90.000000
 51
0.000000
  0
TEXT
  8
5
 62
94
  6
CONTINUOUS
 10
207.964404
 20
28.519040
 40
1.750000
 41
4.000000
  1
図法
  7
KANJI
 50
-90.000000
 51
0.000000
  0
TEXT
  8
5
 62
94
  6
CONTINUOUS
 10
207.800497
 20
36.550497
 40
1.750000
 41
4.000000
  1
尺度
  7
KANJI
 50
-90.000000
 51
0.000000
  0
TEXT
  8
5
 62
94
  6
CONTINUOUS
 10
172.888245
 20
36.386589
 40
1.750000
 41
4.000000
  1
公差
  7
KANJI
 50
-90.000000
 51
0.000000
  0
TEXT
  8
5
 62
94
  6
CONTINUOUS
 10
172.888245
 20
20.487583
 40
1.750000
 41
4.000000
  1
承認
  7
KANJI
 50
-90.000000
 51
0.000000
  0
TEXT
  8
5
 62
94
  6
CONTINUOUS
 10
197.966060
 20
20.487583
 40
1.750000
 41
4.000000
  1
設計
  7
KANJI
 50
-90.000000
 51
0.000000
  0
TEXT
  8
5
 62
94
  6
CONTINUOUS
 10
191.409768
 20
6.555464
 40
4.500000
 41
1.888889
  1
ジャパンセンサー株式会社
  7
KANJI
 50
0.000000
 51
0.000000
  0
LINE
  8
5
 62
94
  6
CONTINUOUS
 10
172.000000
 20
37.000000
 11
292.000000
 21
37.000000
  0
LINE
  8
5
 62
94
  6
CONTINUOUS
 10
172.000000
 20
5.000000
 11
172.000000
 21
37.000000
  0
LINE
  8
5
 62
94
  6
CONTINUOUS
 10
292.000000
 20
13.000000
 11
172.000000
 21
13.000000
  0
LINE
  8
5
 62
94
  6
CONTINUOUS
 10
237.000000
 20
37.000000
 11
237.000000
 21
13.000000
  0
LINE
  8
5
 62
94
  6
CONTINUOUS
 10
292.000000
 20
21.000000
 11
172.000000
 21
21.000000
  0
LINE
  8
5
 62
94
  6
CONTINUOUS
 10
242.000000
 20
13.000000
 11
242.000000
 21
37.000000
  0
LINE
  8
5
 62
94
  6
CONTINUOUS
 10
212.000000
 20
37.000000
 11
212.000000
 21
21.000000
  0
LINE
  8
5
 62
94
  6
CONTINUOUS
 10
177.000000
 20
13.000000
 11
177.000000
 21
37.000000
  0
LINE
  8
5
 62
94
  6
CONTINUOUS
 10
172.000000
 20
29.000000
 11
237.000000
 21
29.000000
  0
LINE
  8
5
 62
94
  6
CONTINUOUS
 10
207.000000
 20
37.000000
 11
207.000000
 21
21.000000
  0
LINE
  8
5
 62
94
  6
CONTINUOUS
 10
197.000000
 20
13.000000
 11
197.000000
 21
21.000000
  0
LINE
  8
5
 62
94
  6
CONTINUOUS
 10
217.000000
 20
13.000000
 11
217.000000
 21
21.000000
  0
LINE
  8
5
 62
94
  6
CONTINUOUS
 10
202.000000
 20
21.000000
 11
202.000000
 21
13.000000
  0
LINE
  8
5
 62
94
  6
CONTINUOUS
 10
222.000000
 20
21.000000
 11
222.000000
 21
13.000000
  0
TEXT
  8
5
 62
94
  6
CONTINUOUS
 10
216.979305
 20
30.649834
 40
4.000000
 41
1.000000
  1
１／１
  7
KANJI
 50
0.000000
 51
0.000000
  0
TEXT
  8
5
 62
94
  6
CONTINUOUS
 10
215.995861
 20
22.290563
 40
4.000000
 41
1.000000
  1
三角法
  7
KANJI
 50
0.000000
 51
0.000000
  0
TEXT
  8
5
 62
94
  6
CONTINUOUS
 10
223.207781
 20
14.914735
 40
4.000000
 41
1.000000
  1
保田
  7
KANJI
 50
-0.112820
 51
0.000000
  0
TEXT
  8
5
 62
94
  6
CONTINUOUS
 10
203.211093
 20
14.750828
 40
4.000000
 41
1.000000
  1
保田
  7
KANJI
 50
0.810149
 51
0.000000
  0
LINE
  8
5
 62
94
  6
CONTINUOUS
 10
292.000000
 20
205.000000
 11
5.000000
 21
205.000000
  0
LINE
  8
5
 62
94
  6
CONTINUOUS
 10
292.000000
 20
5.000000
 11
292.000000
 21
205.000000
  0
LINE
  8
5
 62
94
  6
CONTINUOUS
 10
5.000000
 20
205.000000
 11
5.000000
 21
5.000000
  0
LINE
  8
5
 62
94
  6
CONTINUOUS
 10
5.000000
 20
5.000000
 11
292.000000
 21
5.000000
  0
LINE
  8
1
 62
7
  6
DASHDOT
 10
269.963882
 20
161.235491
 11
269.963882
 21
106.126875
  0
LINE
  8
1
 62
7
  6
DASHDOT
 10
276.963882
 20
118.934192
 11
276.963882
 21
113.744280
  0
LINE
  8
1
 62
7
  6
DASHDOT
 10
279.331340
 20
116.409002
 11
274.450351
 21
116.409002
  0
LINE
  8
1
 62
7
  6
DASHDOT
 10
265.793598
 20
151.406238
 11
260.403159
 21
151.406238
  0
LINE
  8
1
 62
7
  6
DASHDOT
 10
262.963882
 20
153.886329
 11
262.963882
 21
148.466272
  0
LINE
  8
1
 62
7
  6
DOT
 10
268.463882
 20
113.406242
 11
268.463882
 21
117.406242
  0
LINE
  8
1
 62
7
  6
DOT
 10
271.463882
 20
113.406242
 11
271.463882
 21
117.406242
  0
LINE
  8
1
 62
7
  6
DOT
 10
268.663882
 20
113.406242
 11
268.663882
 21
117.406240
  0
LINE
  8
1
 62
7
  6
DOT
 10
271.269470
 20
113.406242
 11
271.269470
 21
117.406240
  0
LINE
  8
1
 62
7
  6
DOT
 10
268.463882
 20
117.406242
 11
271.469470
 21
117.406242
  0
CIRCLE
  8
1
 62
7
  6
CONTINUOUS
 10
276.963882
 20
116.409002
 40
2.000000
  0
LINE
  8
1
 62
7
  6
CONTINUOUS
 10
275.963882
 20
116.609002
 11
275.963882
 21
116.209002
  0
LINE
  8
1
 62
7
  6
CONTINUOUS
 10
276.763882
 20
117.409002
 11
277.163882
 21
117.409002
  0
LINE
  8
1
 62
7
  6
CONTINUOUS
 10
277.963882
 20
116.609002
 11
277.963882
 21
116.209002
  0
LINE
  8
1
 62
7
  6
CONTINUOUS
 10
277.163882
 20
115.409002
 11
276.763882
 21
115.409002
  0
LINE
  8
1
 62
7
  6
CONTINUOUS
 10
277.163882
 20
115.609002
 11
277.163882
 21
115.409002
  0
LINE
  8
1
 62
7
  6
CONTINUOUS
 10
277.963882
 20
116.209002
 11
277.763882
 21
116.209002
  0
ARC
  8
1
 62
7
  6
CONTINUOUS
 10
277.763882
 20
115.609002
 40
0.600000
 50
90.000000
 51
180.000000
  0
LINE
  8
1
 62
7
  6
CONTINUOUS
 10
277.763882
 20
116.609002
 11
277.963882
 21
116.609002
  0
LINE
  8
1
 62
7
  6
CONTINUOUS
 10
277.163882
 20
117.409002
 11
277.163882
 21
117.209002
  0
ARC
  8
1
 62
7
  6
CONTINUOUS
 10
277.763882
 20
117.209002
 40
0.600000
 50
180.000000
 51
-90.000000
  0
LINE
  8
1
 62
7
  6
CONTINUOUS
 10
275.963882
 20
116.609002
 11
276.163882
 21
116.609002
  0
LINE
  8
1
 62
7
  6
CONTINUOUS
 10
276.763882
 20
117.209002
 11
276.763882
 21
117.409002
  0
ARC
  8
1
 62
7
  6
CONTINUOUS
 10
276.163882
 20
117.209002
 40
0.600000
 50
-90.000000
 51
0.000000
  0
LINE
  8
1
 62
7
  6
CONTINUOUS
 10
276.163882
 20
116.209002
 11
275.963882
 21
116.209002
  0
LINE
  8
1
 62
7
  6
CONTINUOUS
 10
276.763882
 20
115.409002
 11
276.763882
 21
115.609002
  0
ARC
  8
1
 62
7
  6
CONTINUOUS
 10
276.163882
 20
115.609002
 40
0.600000
 50
0.000000
 51
90.000000
  0
CIRCLE
  8
1
 62
7
  6
CONTINUOUS
 10
262.963882
 20
151.406238
 40
2.000000
  0
LINE
  8
1
 62
7
  6
CONTINUOUS
 10
261.963882
 20
151.606238
 11
261.963882
 21
151.206238
  0
LINE
  8
1
 62
7
  6
CONTINUOUS
 10
262.763882
 20
152.406238
 11
263.163882
 21
152.406238
  0
LINE
  8
1
 62
7
  6
CONTINUOUS
 10
263.963882
 20
151.606238
 11
263.963882
 21
151.206238
  0
LINE
  8
1
 62
7
  6
CONTINUOUS
 10
263.163882
 20
150.406238
 11
262.763882
 21
150.406238
  0
LINE
  8
1
 62
7
  6
CONTINUOUS
 10
263.163882
 20
150.606238
 11
263.163882
 21
150.406238
  0
LINE
  8
1
 62
7
  6
CONTINUOUS
 10
263.963882
 20
151.206238
 11
263.763882
 21
151.206238
  0
ARC
  8
1
 62
7
  6
CONTINUOUS
 10
263.763882
 20
150.606238
 40
0.600000
 50
90.000000
 51
180.000000
  0
LINE
  8
1
 62
7
  6
CONTINUOUS
 10
263.763882
 20
151.606238
 11
263.963882
 21
151.606238
  0
LINE
  8
1
 62
7
  6
CONTINUOUS
 10
263.163882
 20
152.406238
 11
263.163882
 21
152.206238
  0
ARC
  8
1
 62
7
  6
CONTINUOUS
 10
263.763882
 20
152.206238
 40
0.600000
 50
180.000000
 51
-90.000000
  0
LINE
  8
1
 62
7
  6
CONTINUOUS
 10
261.963882
 20
151.606238
 11
262.163882
 21
151.606238
  0
LINE
  8
1
 62
7
  6
CONTINUOUS
 10
262.763882
 20
152.206238
 11
262.763882
 21
152.406238
  0
ARC
  8
1
 62
7
  6
CONTINUOUS
 10
262.163882
 20
152.206238
 40
0.600000
 50
-90.000000
 51
0.000000
  0
LINE
  8
1
 62
7
  6
CONTINUOUS
 10
262.163882
 20
151.206238
 11
261.963882
 21
151.206238
  0
LINE
  8
1
 62
7
  6
CONTINUOUS
 10
262.763882
 20
150.406238
 11
262.763882
 21
150.606238
  0
ARC
  8
1
 62
7
  6
CONTINUOUS
 10
262.163882
 20
150.606238
 40
0.600000
 50
0.000000
 51
90.000000
  0
CIRCLE
  8
1
 62
7
  6
CONTINUOUS
 10
269.963882
 20
145.906240
 40
2.400000
  0
LINE
  8
1
 62
7
  6
DASHDOT
 10
269.963882
 20
153.148921
 11
269.963882
 21
141.083448
  0
LINE
  8
1
 62
7
  6
DASHDOT
 10
264.168499
 20
145.906240
 11
275.537887
 21
145.906240
  0
ARC
  8
1
 62
7
  6
CONTINUOUS
 10
269.963882
 20
147.056240
 40
4.750000
 50
-152.154524
 51
-27.845476
  0
ARC
  8
1
 62
7
  6
CONTINUOUS
 10
269.963882
 20
147.056240
 40
4.750000
 50
27.845476
 51
152.154524
  0
LINE
  8
1
 62
7
  6
CONTINUOUS
 10
274.163882
 20
149.274911
 11
274.163882
 21
144.837570
  0
LINE
  8
1
 62
7
  6
CONTINUOUS
 10
265.763882
 20
149.274911
 11
265.763882
 21
144.837570
  0
ARC
  8
1
 62
7
  6
CONTINUOUS
 10
269.963882
 20
147.056240
 40
5.750000
 50
25.264411
 51
154.735589
  0
LINE
  8
1
 62
7
  6
CONTINUOUS
 10
275.163882
 20
149.510319
 11
275.163882
 21
144.602162
  0
LINE
  8
1
 62
7
  6
CONTINUOUS
 10
264.763882
 20
149.510319
 11
264.763882
 21
144.602162
  0
ARC
  8
1
 62
7
  6
CONTINUOUS
 10
269.963882
 20
147.056240
 40
5.750000
 50
-154.735589
 51
-107.718932
  0
ARC
  8
1
 62
7
  6
CONTINUOUS
 10
269.963882
 20
147.056240
 40
5.750000
 50
-72.281068
 51
-25.264411
  0
LINE
  8
1
 62
7
  6
CONTINUOUS
 10
268.213882
 20
141.579015
 11
268.213882
 21
141.054794
  0
ARC
  8
1
 62
7
  6
CONTINUOUS
 10
269.963882
 20
147.056240
 40
6.250000
 50
-106.256493
 51
-73.738983
  0
LINE
  8
1
 62
7
  6
CONTINUOUS
 10
271.713882
 20
141.579015
 11
271.713882
 21
141.056240
  0
LINE
  8
1
 62
7
  6
DOT
 10
280.713882
 20
114.406241
 11
280.713882
 21
120.406241
  0
LINE
  8
1
 62
7
  6
DOT
 10
280.713882
 20
120.406241
 11
283.213882
 21
120.406241
  0
LINE
  8
1
 62
7
  6
DOT
 10
282.945932
 20
114.406241
 11
280.713882
 21
114.406241
  0
LINE
  8
1
 62
7
  6
DOT
 10
259.213886
 20
114.406241
 11
259.213886
 21
120.406241
  0
LINE
  8
1
 62
7
  6
DOT
 10
259.213886
 20
120.406241
 11
256.713886
 21
120.406241
  0
LINE
  8
1
 62
7
  6
DOT
 10
256.981835
 20
114.406241
 11
259.213886
 21
114.406241
  0
LINE
  8
1
 62
7
  6
DASHDOT
 10
254.397878
 20
117.406240
 11
285.072936
 21
117.406240
  0
LINE
  8
1
 62
7
  6
DOT
 10
259.213886
 20
115.656242
 11
280.713882
 21
115.656242
  0
DIMENSION
  8
2
 62
134
  6
CONTINUOUS
  2
*D1
 10
256.713886
 20
170.106766
 11
269.745919
 21
170.106766
 70
     0
  1
26.5
 13
256.713886
 23
158.606240
 14
283.213886
 24
158.606240
 50
0.000000
  0
ARC
  8
1
 62
7
  6
CONTINUOUS
 10
281.213882
 20
152.606240
 40
2.000000
 50
0.000000
 51
90.000000
  0
LINE
  8
1
 62
7
  6
CONTINUOUS
 10
258.713882
 20
154.606240
 11
281.213882
 21
154.606240
  0
ARC
  8
1
 62
7
  6
CONTINUOUS
 10
258.713882
 20
152.606240
 40
2.000000
 50
90.000000
 51
180.000000
  0
LINE
  8
1
 62
7
  6
CONTINUOUS
 10
283.213882
 20
152.606240
 11
283.213882
 21
115.406240
  0
ARC
  8
1
 62
7
  6
CONTINUOUS
 10
281.213882
 20
115.406240
 40
2.000000
 50
-90.000000
 51
0.000000
  0
LINE
  8
1
 62
7
  6
CONTINUOUS
 10
281.213882
 20
113.406240
 11
258.713882
 21
113.406240
  0
LINE
  8
1
 62
7
  6
CONTINUOUS
 10
256.713882
 20
115.406240
 11
256.713882
 21
152.606240
  0
ARC
  8
1
 62
7
  6
CONTINUOUS
 10
258.713882
 20
115.406240
 40
2.000000
 50
180.000000
 51
-90.000000
  0
LINE
  8
1
 62
7
  6
DOT
 10
259.213886
 20
119.156242
 11
280.713882
 21
119.156242
  0
LINE
  8
1
 62
7
  6
DASHDOT
 10
113.018960
 20
128.406240
 11
100.483246
 21
128.406240
  0
LINE
  8
1
 62
7
  6
DASHDOT
 10
100.020000
 20
125.258963
 11
100.020000
 21
142.989901
  0
LINE
  8
8
 62
6
  6
DASHDOT
 10
101.598948
 20
129.985188
 11
100.020000
 21
141.406242
  0
LINE
  8
8
 62
6
  6
DASHDOT
 10
100.020000
 20
141.406242
 11
97.877143
 21
126.263383
  0
LINE
  8
1
 62
7
  6
DOT
 10
97.064382
 20
125.450622
 11
102.783792
 21
131.170032
  0
LINE
  8
1
 62
7
  6
CONTINUOUS
 10
81.020000
 20
113.406240
 11
81.020000
 21
154.606240
  0
LINE
  8
1
 62
7
  6
CONTINUOUS
 10
120.320000
 20
114.406240
 11
120.320000
 21
113.406240
  0
LINE
  8
1
 62
7
  6
CONTINUOUS
 10
120.320000
 20
113.406240
 11
81.020000
 21
113.406240
  0
LINE
  8
1
 62
7
  6
CONTINUOUS
 10
120.320000
 20
114.406240
 11
120.320000
 21
154.606240
  0
LINE
  8
1
 62
7
  6
CONTINUOUS
 10
120.320000
 20
113.406240
 11
122.020000
 21
113.406240
  0
LINE
  8
1
 62
7
  6
DOT
 10
119.720000
 20
152.306240
 11
122.020000
 21
152.306240
  0
LINE
  8
1
 62
7
  6
DOT
 10
119.720000
 20
142.806240
 11
122.020000
 21
142.806240
  0
LINE
  8
1
 62
7
  6
DOT
 10
122.020000
 20
148.306240
 11
126.520000
 21
148.306240
  0
LINE
  8
1
 62
7
  6
DOT
 10
122.020000
 20
143.506240
 11
126.520000
 21
143.506240
  0
LINE
  8
1
 62
7
  6
CONTINUOUS
 10
122.020000
 20
152.806240
 11
122.020000
 21
140.806240
  0
LINE
  8
1
 62
7
  6
CONTINUOUS
 10
122.020000
 20
140.806240
 11
126.520000
 21
140.806240
  0
LINE
  8
1
 62
7
  6
CONTINUOUS
 10
126.520000
 20
140.806240
 11
126.520000
 21
152.806240
  0
LINE
  8
1
 62
7
  6
CONTINUOUS
 10
126.520000
 20
152.806240
 11
122.020000
 21
152.806240
  0
DIMENSION
  8
2
 62
134
  6
CONTINUOUS
  2
*D2
 10
122.020000
 20
169.273468
 11
131.905627
 21
169.273468
 70
     0
  1
4.5
 13
122.020000
 23
154.806240
 14
126.520000
 24
154.806240
 50
0.000000
  0
LINE
  8
1
 62
7
  6
CONTINUOUS
 10
122.020000
 20
113.406240
 11
122.020000
 21
154.606240
  0
LINE
  8
1
 62
7
  6
CONTINUOUS
 10
81.020000
 20
154.606240
 11
122.020000
 21
154.606240
  0
DIMENSION
  8
2
 62
134
  6
CONTINUOUS
  2
*D3
 10
81.020000
 20
169.273468
 11
100.787329
 21
169.273468
 70
     0
  1
41
 13
81.020000
 23
156.606240
 14
122.020000
 24
156.606240
 50
0.000000
  0
CIRCLE
  8
1
 62
7
  6
CONTINUOUS
 10
93.220000
 20
117.406239
 40
1.750000
  0
CIRCLE
  8
1
 62
7
  6
CONTINUOUS
 10
113.220000
 20
117.406240
 40
1.750000
  0
LINE
  8
1
 62
7
  6
DASHDOT
 10
113.220000
 20
113.308532
 11
113.220000
 21
121.397433
  0
LINE
  8
1
 62
7
  6
DASHDOT
 10
108.843447
 20
117.406240
 11
117.406857
 21
117.406240
  0
LINE
  8
1
 62
7
  6
DASHDOT
 10
93.220000
 20
113.308531
 11
93.220000
 21
121.123373
  0
CIRCLE
  8
1
 62
7
  6
CONTINUOUS
 10
93.220000
 20
117.406239
 40
3.000000
  0
CIRCLE
  8
1
 62
7
  6
CONTINUOUS
 10
113.220000
 20
117.406237
 40
3.000000
  0
DIMENSION
  8
2
 62
134
  6
CONTINUOUS
  2
*D4
 10
81.020000
 20
105.715578
 11
87.120000
 21
105.715578
 70
     0
  1
12.2
 13
81.020000
 23
111.406240
 14
93.220000
 24
111.406240
 50
0.000000
  0
DIMENSION
  8
2
 62
134
  6
CONTINUOUS
  2
*D5
 10
93.220000
 20
105.715578
 11
103.220000
 21
105.715578
 70
     0
  1
20
 13
93.220000
 23
105.715578
 14
113.220000
 24
111.406240
 50
0.000000
  0
LINE
  8
1
 62
7
  6
DASHDOT
 10
107.720000
 20
112.332216
 11
107.720000
 21
118.203922
  0
LINE
  8
1
 62
7
  6
DASHDOT
 10
87.720000
 20
112.332216
 11
87.720000
 21
119.005340
  0
LINE
  8
1
 62
7
  6
DASHDOT
 10
89.840352
 20
117.406239
 11
97.606857
 21
117.406239
  0
LINE
  8
1
 62
7
  6
DOT
 10
104.170000
 20
147.521242
 11
104.170000
 21
141.406242
  0
LINE
  8
1
 62
7
  6
DOT
 10
95.870000
 20
147.521242
 11
95.870000
 21
141.406242
  0
LINE
  8
1
 62
7
  6
DOT
 10
102.860000
 20
151.406240
 11
102.860000
 21
148.031242
  0
LINE
  8
1
 62
7
  6
DOT
 10
102.260000
 20
148.031242
 11
102.260000
 21
151.406240
  0
LINE
  8
1
 62
7
  6
DOT
 10
100.320000
 20
151.406240
 11
100.320000
 21
148.031242
  0
LINE
  8
1
 62
7
  6
DOT
 10
99.720000
 20
148.031242
 11
99.720000
 21
151.406240
  0
LINE
  8
1
 62
7
  6
DOT
 10
97.780000
 20
151.406240
 11
97.780000
 21
148.031242
  0
LINE
  8
1
 62
7
  6
DOT
 10
97.180000
 20
148.031242
 11
97.180000
 21
151.406240
  0
LINE
  8
1
 62
7
  6
DOT
 10
95.870000
 20
141.506242
 11
104.170000
 21
141.506242
  0
LINE
  8
1
 62
7
  6
DOT
 10
105.170000
 20
147.521242
 11
94.870000
 21
147.521242
  0
LINE
  8
1
 62
7
  6
DOT
 10
105.170000
 20
148.031242
 11
105.170000
 21
147.521242
  0
LINE
  8
1
 62
7
  6
DOT
 10
94.870000
 20
148.031242
 11
105.170000
 21
148.031242
  0
LINE
  8
1
 62
7
  6
DOT
 10
94.870000
 20
147.521242
 11
94.870000
 21
148.031242
  0
LINE
  8
1
 62
7
  6
DOT
 10
102.260000
 20
151.406240
 11
102.860000
 21
151.406240
  0
LINE
  8
1
 62
7
  6
DOT
 10
99.720000
 20
151.406240
 11
100.320000
 21
151.406240
  0
LINE
  8
1
 62
7
  6
DOT
 10
97.180000
 20
151.406240
 11
97.780000
 21
151.406240
  0
LINE
  8
1
 62
7
  6
DASHDOT
 10
100.020000
 20
140.072533
 11
100.020000
 21
152.444133
  0
LINE
  8
1
 62
7
  6
CONTINUOUS
 10
99.519998
 20
142.701242
 11
100.519998
 21
142.701242
  0
LINE
  8
1
 62
7
  6
CONTINUOUS
 10
100.620000
 20
141.406242
 11
100.620000
 21
141.506242
  0
LINE
  8
1
 62
7
  6
DOT
 10
95.870000
 20
141.406242
 11
104.170000
 21
141.406242
  0
LINE
  8
1
 62
7
  6
CONTINUOUS
 10
99.420000
 20
141.406242
 11
99.420000
 21
141.506242
  0
LINE
  8
1
 62
7
  6
CONTINUOUS
 10
80.020000
 20
143.406240
 11
81.020000
 21
142.406240
  0
LINE
  8
1
 62
7
  6
CONTINUOUS
 10
80.020000
 20
113.406240
 11
81.020000
 21
114.406240
  0
LINE
  8
1
 62
7
  6
CONTINUOUS
 10
81.020000
 20
142.406240
 11
81.020000
 21
114.406240
  0
LINE
  8
2
 62
134
  6
CONTINUOUS
 10
114.483978
 20
116.195927
 11
132.679900
 21
95.590452
  0
LINE
  8
2
 62
134
  6
CONTINUOUS
 10
132.679900
 20
95.590452
 11
147.946232
 21
95.590452
  0
TEXT
  8
2
 62
134
  6
CONTINUOUS
 10
133.946232
 20
95.590452
 40
4.000000
 41
0.583333
  1
2-φ3.5
  7
KANJI
 50
0.000000
 51
30.000000
  0
LINE
  8
2
 62
134
  6
CONTINUOUS
 10
114.483978
 20
116.195927
 11
116.150719
 21
115.090496
  0
LINE
  8
2
 62
134
  6
CONTINUOUS
 10
114.483978
 20
116.195927
 11
115.374703
 21
114.405226
  0
LINE
  8
2
 62
134
  6
CONTINUOUS
 10
116.150719
 20
115.090496
 11
115.374703
 21
114.405226
  0
LINE
  8
2
 62
134
  6
CONTINUOUS
 10
114.803661
 20
115.833910
 11
115.637032
 21
115.281195
  0
LINE
  8
2
 62
134
  6
CONTINUOUS
 10
114.803661
 20
115.833910
 11
115.249024
 21
114.938560
  0
LINE
  8
2
 62
134
  6
CONTINUOUS
 10
115.637032
 20
115.281195
 11
115.249024
 21
114.938560
  0
TEXT
  8
3
 62
214
  6
CONTINUOUS
 10
133.265585
 20
91.051958
 40
4.000000
 41
0.625000
  1
φ6ｻﾞｸﾞﾘ深さ2.5
  7
KANJI
 50
0.000000
 51
0.000000
  0
TEXT
  8
6
 62
14
  6
CONTINUOUS
 10
133.066262
 20
100.554251
 40
4.000000
 41
1.000000
  1
④
  7
KANJI
 50
0.000000
 51
0.000000
  0
TEXT
  8
3
 62
214
  6
CONTINUOUS
 10
138.430751
 20
100.095555
 40
4.000000
 41
1.000000
  1
取付穴
  7
KANJI
 50
0.000000
 51
0.000000
  0
LINE
  8
1
 62
7
  6
CONTINUOUS
 10
122.020000
 20
64.117039
 11
126.520000
 21
64.117039
  0
LINE
  8
1
 62
7
  6
CONTINUOUS
 10
126.520000
 20
64.117039
 11
126.520000
 21
53.717039
  0
LINE
  8
1
 62
7
  6
CONTINUOUS
 10
126.520000
 20
53.717039
 11
122.020000
 21
53.717039
  0
LINE
  8
1
 62
7
  6
CONTINUOUS
 10
153.631075
 20
60.817039
 11
126.520000
 21
60.817039
  0
LINE
  8
1
 62
7
  6
CONTINUOUS
 10
126.520000
 20
57.017039
 11
152.681075
 21
57.017039
  0
LINE
  8
1
 62
7
  6
CONTINUOUS
 10
126.520000
 20
61.417039
 11
136.520000
 21
61.417039
  0
LINE
  8
1
 62
7
  6
CONTINUOUS
 10
136.520000
 20
61.417039
 11
136.520000
 21
56.417039
  0
LINE
  8
1
 62
7
  6
CONTINUOUS
 10
136.520000
 20
56.417039
 11
126.520000
 21
56.417039
  0
DIMENSION
  8
2
 62
134
  6
CONTINUOUS
  2
*D6
 10
72.461037
 20
45.667039
 11
72.461037
 21
58.973827
 70
     0
  1
26.5
 13
79.020000
 23
45.667039
 14
79.020000
 24
72.167039
 50
90.000000
  0
LINE
  8
1
 62
7
  6
CONTINUOUS
 10
81.020000
 20
72.167039
 11
81.020000
 21
45.667039
  0
LINE
  8
1
 62
7
  6
CONTINUOUS
 10
81.020000
 20
45.667039
 11
120.320000
 21
45.667039
  0
LINE
  8
1
 62
7
  6
CONTINUOUS
 10
120.320000
 20
45.667039
 11
120.320000
 21
72.167039
  0
LINE
  8
1
 62
7
  6
CONTINUOUS
 10
120.320000
 20
72.167039
 11
81.020000
 21
72.167039
  0
LINE
  8
1
 62
7
  6
CONTINUOUS
 10
120.320000
 20
72.167039
 11
120.320000
 21
45.667039
  0
LINE
  8
1
 62
7
  6
CONTINUOUS
 10
120.320000
 20
45.667039
 11
122.020000
 21
45.667039
  0
LINE
  8
1
 62
7
  6
CONTINUOUS
 10
122.020000
 20
45.667039
 11
122.020000
 21
72.167039
  0
LINE
  8
1
 62
7
  6
CONTINUOUS
 10
122.020000
 20
72.167039
 11
120.320000
 21
72.167039
  0
CIRCLE
  8
1
 62
7
  6
CONTINUOUS
 10
87.720000
 20
58.917039
 40
1.500000
  0
CIRCLE
  8
1
 62
7
  6
CONTINUOUS
 10
87.720000
 20
58.917039
 40
1.230000
  0
CIRCLE
  8
1
 62
7
  6
CONTINUOUS
 10
107.720000
 20
58.917039
 40
1.500000
  0
CIRCLE
  8
1
 62
7
  6
CONTINUOUS
 10
107.720000
 20
58.917039
 40
1.230000
  0
LINE
  8
1
 62
7
  6
DASHDOT
 10
107.720000
 20
60.918409
 11
107.720000
 21
57.001010
  0
LINE
  8
1
 62
7
  6
DASHDOT
 10
87.720000
 20
60.918409
 11
87.720000
 21
57.001010
  0
DIMENSION
  8
2
 62
134
  6
CONTINUOUS
  2
*D7
 10
87.720000
 20
39.449503
 11
98.036648
 21
39.449503
 70
     0
  1
20
 13
87.720000
 23
55.687039
 14
107.720000
 24
55.687039
 50
0.000000
  0
LINE
  8
3
 62
214
  6
CONTINUOUS
 10
108.778801
 20
57.854524
 11
119.544885
 21
40.856195
  0
LINE
  8
3
 62
214
  6
CONTINUOUS
 10
119.544885
 20
40.856195
 11
134.710465
 21
40.856195
  0
TEXT
  8
3
 62
214
  6
CONTINUOUS
 10
120.710465
 20
40.729594
 40
4.000000
 41
0.700000
  1
M3深さ4
  7
KANJI
 50
0.000000
 51
30.000000
  0
LINE
  8
3
 62
214
  6
CONTINUOUS
 10
108.778801
 20
57.854524
 11
110.249780
 21
56.499451
  0
LINE
  8
3
 62
214
  6
CONTINUOUS
 10
108.778801
 20
57.854524
 11
109.375170
 21
55.945507
  0
LINE
  8
3
 62
214
  6
CONTINUOUS
 10
110.249780
 20
56.499451
 11
109.375170
 21
55.945507
  0
LINE
  8
3
 62
214
  6
CONTINUOUS
 10
109.037220
 20
57.446512
 11
109.772709
 21
56.768976
  0
LINE
  8
3
 62
214
  6
CONTINUOUS
 10
109.037220
 20
57.446512
 11
109.335404
 21
56.492004
  0
LINE
  8
3
 62
214
  6
CONTINUOUS
 10
109.772709
 20
56.768976
 11
109.335404
 21
56.492004
  0
LINE
  8
3
 62
214
  6
CONTINUOUS
 10
88.561747
 20
60.158596
 11
93.622540
 21
76.324384
  0
LINE
  8
3
 62
214
  6
CONTINUOUS
 10
93.622540
 20
76.324384
 11
109.424095
 21
76.324384
  0
TEXT
  8
3
 62
214
  6
CONTINUOUS
 10
95.424095
 20
76.422180
 40
4.000000
 41
0.700000
  1
M3深さ4
  7
KANJI
 50
-0.000000
 51
30.000000
  0
LINE
  8
3
 62
214
  6
CONTINUOUS
 10
88.561747
 20
60.158596
 11
88.644906
 21
62.156866
  0
LINE
  8
3
 62
214
  6
CONTINUOUS
 10
88.561747
 20
60.158596
 11
89.632900
 21
61.847569
  0
LINE
  8
3
 62
214
  6
CONTINUOUS
 10
88.644906
 20
62.156866
 11
89.632900
 21
61.847569
  0
LINE
  8
3
 62
214
  6
CONTINUOUS
 10
88.706036
 20
60.619501
 11
88.747616
 21
61.618636
  0
LINE
  8
3
 62
214
  6
CONTINUOUS
 10
88.706036
 20
60.619501
 11
89.241613
 21
61.463988
  0
LINE
  8
3
 62
214
  6
CONTINUOUS
 10
88.747616
 20
61.618636
 11
89.241613
 21
61.463988
  0
TEXT
  8
6
 62
14
  6
CONTINUOUS
 10
95.366196
 20
72.215621
 40
4.000000
 41
1.000000
  1
⑥
  7
KANJI
 50
0.000000
 51
0.000000
  0
TEXT
  8
6
 62
14
  6
CONTINUOUS
 10
119.955662
 20
36.040456
 40
4.000000
 41
1.000000
  1
⑤
  7
KANJI
 50
0.000000
 51
0.000000
  0
TEXT
  8
3
 62
214
  6
CONTINUOUS
 10
125.612765
 20
36.000000
 40
4.000000
 41
0.700000
  1
取付ﾈｼﾞ
  7
KANJI
 50
0.000000
 51
0.000000
  0
TEXT
  8
3
 62
214
  6
CONTINUOUS
 10
100.065849
 20
72.199946
 40
4.000000
 41
0.700000
  1
取付ﾈｼﾞ
  7
KANJI
 50
0.000000
 51
0.000000
  0
LINE
  8
1
 62
7
  6
CONTINUOUS
 10
80.020000
 20
73.917039
 11
81.020000
 21
72.917039
  0
LINE
  8
1
 62
7
  6
CONTINUOUS
 10
80.020000
 20
43.917039
 11
81.020000
 21
44.917039
  0
LINE
  8
1
 62
7
  6
CONTINUOUS
 10
81.020000
 20
72.917039
 11
81.020000
 21
44.917039
  0
LINE
  8
1
 62
7
  6
CONTINUOUS
 10
80.020000
 20
73.917039
 11
37.020000
 21
73.917039
  0
LINE
  8
1
 62
7
  6
CONTINUOUS
 10
36.020000
 20
72.917039
 11
37.020000
 21
73.917039
  0
LINE
  8
1
 62
7
  6
CONTINUOUS
 10
80.020000
 20
43.917039
 11
37.020000
 21
43.917039
  0
LINE
  8
1
 62
7
  6
CONTINUOUS
 10
36.020000
 20
44.917039
 11
37.020000
 21
43.917039
  0
LINE
  8
1
 62
7
  6
CONTINUOUS
 10
36.020000
 20
72.917039
 11
36.020000
 21
44.917039
  0
LINE
  8
1
 62
7
  6
DASHDOT
 10
30.681033
 20
58.917039
 11
152.772059
 21
58.917039
  0
DIMENSION
  8
2
 62
134
  6
CONTINUOUS
  2
*D8
 10
22.940157
 20
73.917039
 11
22.940157
 21
59.084417
 70
     0
  1
φ30
 13
35.020000
 23
73.917039
 14
35.020000
 24
43.917039
 50
-90.000000
  0
LINE
  8
1
 62
7
  6
CONTINUOUS
 10
80.020000
 20
143.406240
 11
37.020000
 21
143.406240
  0
LINE
  8
1
 62
7
  6
CONTINUOUS
 10
36.020000
 20
142.406240
 11
37.020000
 21
143.406240
  0
LINE
  8
1
 62
7
  6
CONTINUOUS
 10
80.020000
 20
113.406240
 11
37.020000
 21
113.406240
  0
LINE
  8
1
 62
7
  6
CONTINUOUS
 10
36.020000
 20
114.406240
 11
37.020000
 21
113.406240
  0
LINE
  8
1
 62
7
  6
CONTINUOUS
 10
36.020000
 20
142.406240
 11
36.020000
 21
114.406240
  0
LINE
  8
1
 62
7
  6
DOT
 10
36.020000
 20
141.407474
 11
80.854854
 21
141.407474
  0
LINE
  8
1
 62
7
  6
DOT
 10
36.020000
 20
115.405006
 11
80.854854
 21
115.405006
  0
LINE
  8
1
 62
7
  6
DOT
 10
36.020000
 20
141.907474
 11
80.854854
 21
141.907474
  0
LINE
  8
1
 62
7
  6
DOT
 10
36.020000
 20
114.905006
 11
80.854854
 21
114.905006
  0
DIMENSION
  8
2
 62
134
  6
CONTINUOUS
  2
*D9
 10
81.020000
 20
105.715578
 11
56.629938
 21
105.715578
 70
     0
  1
45
 13
81.020000
 23
111.406240
 14
36.020000
 24
112.406240
 50
-180.000000
  0
LINE
  8
1
 62
7
  6
DASHDOT
 10
24.539825
 20
128.406240
 11
118.059985
 21
128.406240
  0
DIMENSION
  8
3
 62
214
  6
CONTINUOUS
  2
*D10
 10
27.758222
 20
116.906240
 11
27.758222
 21
160.000000
 70
     0
  1
φ23(ﾚﾝｽﾞ有効径）
 13
27.758222
 23
116.906240
 14
27.758222
 24
139.906240
 50
90.000000
  0
LINE
  8
1
 62
7
  6
DOT
 10
39.750158
 20
115.906240
 11
41.064959
 21
115.906240
  0
LINE
  8
1
 62
7
  6
DOT
 10
39.750158
 20
140.906240
 11
41.064959
 21
140.906240
  0
ARC
  8
1
 62
7
  6
DOT
 10
-48.062758
 20
128.406240
 40
90.000000
 50
-7.983571
 51
7.983556
  0
ARC
  8
1
 62
7
  6
DOT
 10
81.937242
 20
128.406240
 40
44.000000
 50
163.495484
 51
-163.495484
  0
LINE
  8
8
 62
6
  6
DASHDOT
 10
101.598947
 20
129.985188
 11
41.199496
 21
139.906240
  0
LINE
  8
8
 62
6
  6
DASHDOT
 10
97.877143
 20
126.263383
 11
41.199496
 21
116.906240
  0
LINE
  8
3
 62
214
  6
CONTINUOUS
 10
40.632946
 20
130.000000
 11
56.537261
 21
158.655270
  0
LINE
  8
3
 62
214
  6
CONTINUOUS
 10
56.537261
 20
158.655270
 11
68.914164
 21
158.655270
  0
TEXT
  8
3
 62
214
  6
CONTINUOUS
 10
60.914164
 20
158.735519
 40
4.000000
 41
0.500000
  1
ﾚﾝｽﾞ
  7
KANJI
 50
0.000000
 51
30.000000
  0
LINE
  8
3
 62
214
  6
CONTINUOUS
 10
40.632946
 20
130.000000
 11
41.117848
 21
131.940327
  0
LINE
  8
3
 62
214
  6
CONTINUOUS
 10
40.632946
 20
130.000000
 11
42.023048
 21
131.437922
  0
LINE
  8
3
 62
214
  6
CONTINUOUS
 10
41.117848
 20
131.940327
 11
42.023048
 21
131.437922
  0
LINE
  8
3
 62
214
  6
CONTINUOUS
 10
40.867322
 20
130.422281
 11
41.109773
 21
131.392445
  0
LINE
  8
3
 62
214
  6
CONTINUOUS
 10
40.867322
 20
130.422281
 11
41.562372
 21
131.141242
  0
LINE
  8
3
 62
214
  6
CONTINUOUS
 10
41.109773
 20
131.392445
 11
41.562372
 21
131.141242
  0
TEXT
  8
6
 62
14
  6
CONTINUOUS
 10
56.617009
 20
158.985271
 40
4.000000
 41
1.000000
  1
①
  7
KANJI
 50
0.000000
 51
0.000000
  0
LINE
  8
8
 62
6
  6
DASHDOT
 10
41.199496
 20
116.906240
 11
24.891584
 21
116.906240
  0
LINE
  8
8
 62
6
  6
DASHDOT
 10
41.199496
 20
139.906240
 11
24.891584
 21
139.906240
  0
DIMENSION
  8
2
 62
134
  6
CONTINUOUS
  2
*D11
 10
22.459855
 20
113.406240
 11
22.459855
 21
122.325958
 70
     0
  1
15
 13
35.020000
 23
113.406240
 14
22.459855
 24
128.406240
 50
90.000000
  0
DIMENSION
  8
2
 62
134
  6
CONTINUOUS
  2
*D12
 10
13.314126
 20
141.907474
 11
13.314126
 21
127.997491
 70
     0
  1
M27P0.75
 13
34.020000
 23
141.907474
 14
34.020000
 24
114.905006
 50
-90.000000
  0
LINE
  8
2
 62
134
  6
CONTINUOUS
 10
36.020000
 20
105.715578
 11
34.088148
 21
105.197940
  0
LINE
  8
2
 62
134
  6
CONTINUOUS
 10
36.020000
 20
105.715578
 11
34.088148
 21
106.233216
  0
LINE
  8
2
 62
134
  6
CONTINUOUS
 10
34.088148
 20
105.197940
 11
34.088148
 21
106.233216
  0
LINE
  8
2
 62
134
  6
CONTINUOUS
 10
35.537037
 20
105.715578
 11
34.571111
 21
105.456759
  0
LINE
  8
2
 62
134
  6
CONTINUOUS
 10
35.537037
 20
105.715578
 11
34.571111
 21
105.974397
  0
LINE
  8
2
 62
134
  6
CONTINUOUS
 10
34.571111
 20
105.456759
 11
34.571111
 21
105.974397
  0
LINE
  8
2
 62
134
  6
CONTINUOUS
 10
36.020000
 20
105.715578
 11
9.027066
 21
105.715578
  0
TEXT
  8
3
 62
214
  6
CONTINUOUS
 10
13.232320
 20
100.527136
 40
4.000000
 41
1.000000
  1
測定距離
  7
KANJI
 50
0.000000
 51
30.000000
  0
LINE
  8
1
 62
7
  6
DASHDOT
 10
112.102365
 20
145.906240
 11
139.122618
 21
145.906240
  0
TEXT
  8
6
 62
14
  6
CONTINUOUS
 10
151.136588
 20
125.811154
 40
4.000000
 41
1.000000
  1
②
  7
KANJI
 50
0.000000
 51
0.000000
  0
LINE
  8
3
 62
214
  6
CONTINUOUS
 10
137.809650
 20
144.006240
 11
151.136588
 21
125.811154
  0
LINE
  8
3
 62
214
  6
CONTINUOUS
 10
151.136588
 20
125.811154
 11
175.062758
 21
125.811154
  0
TEXT
  8
3
 62
214
  6
CONTINUOUS
 10
157.062758
 20
126.077692
 40
4.000000
 41
0.642857
  1
接続ｹｰﾌﾞﾙ
  7
KANJI
 50
0.000000
 51
30.000000
  0
LINE
  8
3
 62
214
  6
CONTINUOUS
 10
137.809650
 20
144.006240
 11
139.368781
 21
142.753599
  0
LINE
  8
3
 62
214
  6
CONTINUOUS
 10
137.809650
 20
144.006240
 11
138.533576
 21
142.141855
  0
LINE
  8
3
 62
214
  6
CONTINUOUS
 10
139.368781
 20
142.753599
 11
138.533576
 21
142.141855
  0
LINE
  8
3
 62
214
  6
CONTINUOUS
 10
138.095032
 20
143.616612
 11
138.874598
 21
142.990291
  0
LINE
  8
3
 62
214
  6
CONTINUOUS
 10
138.095032
 20
143.616612
 11
138.456995
 21
142.684420
  0
LINE
  8
3
 62
214
  6
CONTINUOUS
 10
138.874598
 20
142.990291
 11
138.456995
 21
142.684420
  0
LINE
  8
1
 62
7
  6
DASHDOT
 10
120.320000
 20
145.906240
 11
155.671026
 21
145.906240
  0
LINE
  8
1
 62
7
  6
CONTINUOUS
 10
157.450629
 20
143.706240
 11
157.450629
 21
148.106240
  0
DIMENSION
  8
3
 62
214
  6
CONTINUOUS
  2
*D13
 10
122.020000
 20
161.509385
 11
140.743636
 21
161.509385
 70
     0
  1
ｹｰﾌﾞﾙ長
 13
122.020000
 23
145.906240
 14
157.450629
 24
145.906240
 50
0.000000
  0
LINE
  8
1
 62
7
  6
CONTINUOUS
 10
163.096044
 20
147.506240
 11
157.450629
 21
147.506240
  0
LINE
  8
1
 62
7
  6
CONTINUOUS
 10
163.096044
 20
146.706240
 11
157.450629
 21
146.706240
  0
LINE
  8
1
 62
7
  6
CONTINUOUS
 10
163.096044
 20
145.906240
 11
157.450629
 21
145.906240
  0
LINE
  8
1
 62
7
  6
CONTINUOUS
 10
163.096044
 20
145.106240
 11
157.450629
 21
145.106240
  0
LINE
  8
1
 62
7
  6
CONTINUOUS
 10
163.096044
 20
144.306240
 11
157.450629
 21
144.306240
  0
LINE
  8
1
 62
7
  6
CONTINUOUS
 10
151.945957
 20
148.406240
 11
151.945957
 21
143.406240
  0
LINE
  8
1
 62
7
  6
CONTINUOUS
 10
151.945957
 20
143.406240
 11
163.096044
 21
143.406240
  0
LINE
  8
1
 62
7
  6
CONTINUOUS
 10
163.096044
 20
143.406240
 11
163.096044
 21
148.406240
  0
LINE
  8
1
 62
7
  6
CONTINUOUS
 10
163.096044
 20
148.406240
 11
151.945957
 21
148.406240
  0
LINE
  8
1
 62
7
  6
CONTINUOUS
 10
163.096044
 20
148.056240
 11
163.096044
 21
143.756240
  0
LINE
  8
1
 62
7
  6
DASHDOT
 10
163.096044
 20
145.906240
 11
159.625664
 21
145.906240
  0
LINE
  8
1
 62
7
  6
CONTINUOUS
 10
209.095311
 20
143.889466
 11
210.528101
 21
143.764113
  0
LINE
  8
1
 62
7
  6
CONTINUOUS
 10
208.746688
 20
139.904687
 11
210.179478
 21
139.779334
  0
ARC
  8
1
 62
7
  6
CONTINUOUS
 10
212.905779
 20
141.548453
 40
3.250000
 50
-147.020128
 51
137.020128
  0
LINE
  8
1
 62
7
  6
CONTINUOUS
 10
209.121458
 20
144.188324
 11
194.178537
 21
145.495660
  0
LINE
  8
1
 62
7
  6
CONTINUOUS
 10
194.178537
 20
145.495660
 11
193.777621
 21
140.913164
  0
LINE
  8
1
 62
7
  6
CONTINUOUS
 10
193.777621
 20
140.913164
 11
208.720542
 21
139.605828
  0
LINE
  8
1
 62
7
  6
CONTINUOUS
 10
208.720542
 20
139.605828
 11
209.121458
 21
144.188324
  0
LINE
  8
1
 62
7
  6
DASHDOT
 10
219.251185
 20
140.993302
 11
161.058206
 21
146.084528
  0
LINE
  8
1
 62
7
  6
CONTINUOUS
 10
194.021657
 20
143.702510
 11
163.139622
 21
146.404338
  0
LINE
  8
1
 62
7
  6
CONTINUOUS
 10
193.934501
 20
142.706315
 11
163.052466
 21
145.408143
  0
LINE
  8
1
 62
7
  6
CONTINUOUS
 10
208.046270
 20
135.932416
 11
209.435524
 21
135.560166
  0
LINE
  8
1
 62
7
  6
CONTINUOUS
 10
207.010994
 20
132.068713
 11
208.400248
 21
131.696463
  0
ARC
  8
1
 62
7
  6
CONTINUOUS
 10
211.392335
 20
132.965288
 40
3.250000
 50
-157.020128
 51
127.020128
  0
LINE
  8
1
 62
7
  6
CONTINUOUS
 10
208.123915
 20
136.222194
 11
193.635028
 21
140.104479
  0
LINE
  8
1
 62
7
  6
CONTINUOUS
 10
193.635028
 20
140.104479
 11
192.444460
 21
135.661220
  0
LINE
  8
1
 62
7
  6
CONTINUOUS
 10
192.444460
 20
135.661220
 11
206.933348
 21
131.778935
  0
LINE
  8
1
 62
7
  6
CONTINUOUS
 10
206.933348
 20
131.778935
 11
208.123915
 21
136.222194
  0
LINE
  8
1
 62
7
  6
DASHDOT
 10
217.544939
 20
131.316703
 11
161.120125
 21
146.435686
  0
LINE
  8
1
 62
7
  6
CONTINUOUS
 10
193.169154
 20
138.365813
 11
163.225453
 21
146.389203
  0
LINE
  8
1
 62
7
  6
CONTINUOUS
 10
192.910335
 20
137.399887
 11
162.966634
 21
145.423277
  0
LINE
  8
1
 62
7
  6
CONTINUOUS
 10
208.746688
 20
151.907794
 11
210.179478
 21
152.033147
  0
LINE
  8
1
 62
7
  6
CONTINUOUS
 10
209.095311
 20
147.923015
 11
210.528101
 21
148.048368
  0
ARC
  8
1
 62
7
  6
CONTINUOUS
 10
212.905779
 20
150.264027
 40
3.250000
 50
-137.020128
 51
147.020128
  0
LINE
  8
1
 62
7
  6
CONTINUOUS
 10
208.720542
 20
152.206652
 11
193.777621
 21
150.899316
  0
LINE
  8
1
 62
7
  6
CONTINUOUS
 10
193.777621
 20
150.899316
 11
194.178537
 21
146.316821
  0
LINE
  8
1
 62
7
  6
CONTINUOUS
 10
194.178537
 20
146.316821
 11
209.121458
 21
147.624157
  0
LINE
  8
1
 62
7
  6
CONTINUOUS
 10
209.121458
 20
147.624157
 11
208.720542
 21
152.206652
  0
LINE
  8
1
 62
7
  6
DASHDOT
 10
219.251185
 20
150.819179
 11
161.058206
 21
145.727953
  0
LINE
  8
1
 62
7
  6
CONTINUOUS
 10
193.934501
 20
149.106166
 11
163.052466
 21
146.404338
  0
LINE
  8
1
 62
7
  6
CONTINUOUS
 10
194.021657
 20
148.109971
 11
163.139622
 21
145.408143
  0
LINE
  8
1
 62
7
  6
CONTINUOUS
 10
207.010994
 20
159.743768
 11
208.400248
 21
160.116018
  0
LINE
  8
1
 62
7
  6
CONTINUOUS
 10
208.046270
 20
155.880065
 11
209.435524
 21
156.252314
  0
ARC
  8
1
 62
7
  6
CONTINUOUS
 10
211.392335
 20
158.847193
 40
3.250000
 50
-127.020128
 51
157.020128
  0
LINE
  8
1
 62
7
  6
CONTINUOUS
 10
206.933348
 20
160.033546
 11
192.444460
 21
156.151260
  0
LINE
  8
1
 62
7
  6
CONTINUOUS
 10
192.444460
 20
156.151260
 11
193.635028
 21
151.708001
  0
LINE
  8
1
 62
7
  6
CONTINUOUS
 10
193.635028
 20
151.708001
 11
208.123915
 21
155.590287
  0
LINE
  8
1
 62
7
  6
CONTINUOUS
 10
208.123915
 20
155.590287
 11
206.933348
 21
160.033546
  0
LINE
  8
1
 62
7
  6
DASHDOT
 10
217.544939
 20
160.495778
 11
161.120125
 21
145.376794
  0
LINE
  8
1
 62
7
  6
CONTINUOUS
 10
192.910335
 20
154.412594
 11
162.966634
 21
146.389203
  0
LINE
  8
1
 62
7
  6
CONTINUOUS
 10
193.169154
 20
153.446668
 11
163.225453
 21
145.423277
  0
CIRCLE
  8
1
 62
7
  6
CONTINUOUS
 10
211.392335
 20
158.847193
 40
1.500000
  0
CIRCLE
  8
1
 62
7
  6
CONTINUOUS
 10
212.905779
 20
150.264027
 40
1.500000
  0
CIRCLE
  8
1
 62
7
  6
CONTINUOUS
 10
212.905779
 20
141.548453
 40
1.500000
  0
CIRCLE
  8
1
 62
7
  6
CONTINUOUS
 10
211.392335
 20
132.965288
 40
1.500000
  0
DIMENSION
  8
2
 62
134
  6
CONTINUOUS
  2
*D14
 10
157.450629
 20
161.509385
 11
183.585136
 21
161.509385
 70
     0
  1
100
 13
157.450629
 23
147.906240
 14
208.921000
 24
151.915404
 50
0.000000
  0
LINE
  8
1
 62
7
  6
CONTINUOUS
 10
157.450629
 20
148.056240
 11
163.096044
 21
148.056240
  0
LINE
  8
1
 62
7
  6
CONTINUOUS
 10
163.096044
 20
143.756240
 11
157.450629
 21
143.756240
  0
TEXT
  8
3
 62
214
  6
CONTINUOUS
 10
184.825125
 20
135.439689
 40
4.000000
 41
0.500000
  1
ｱｶ
  7
KANJI
 50
-15.000000
 51
0.000000
  0
TEXT
  8
3
 62
214
  6
CONTINUOUS
 10
186.249027
 20
152.290180
 40
4.000000
 41
0.500000
  1
ｸﾛ
  7
KANJI
 50
15.000000
 51
0.000000
  0
TEXT
  8
3
 62
214
  6
CONTINUOUS
 10
185.276143
 20
147.693604
 40
4.000000
 41
0.500000
  1
ﾐﾄﾞﾘ
  7
KANJI
 50
5.000000
 51
0.000000
  0
TEXT
  8
3
 62
214
  6
CONTINUOUS
 10
185.524762
 20
143.069824
 40
4.000000
 41
0.500000
  1
ｼﾛ
  7
KANJI
 50
-5.000000
 51
0.000000
  0
LINE
  8
3
 62
214
  6
CONTINUOUS
 10
211.392335
 20
129.715288
 11
180.391762
 21
114.049987
  0
LINE
  8
3
 62
214
  6
CONTINUOUS
 10
180.391762
 20
114.049987
 11
156.078388
 21
114.049987
  0
TEXT
  8
3
 62
214
  6
CONTINUOUS
 10
156.078388
 20
114.049987
 40
4.000000
 41
0.500000
  1
4-M3
  7
KANJI
 50
0.000000
 51
30.000000
  0
LINE
  8
3
 62
214
  6
CONTINUOUS
 10
211.392335
 20
129.715288
 11
209.901581
 21
128.382001
  0
LINE
  8
3
 62
214
  6
CONTINUOUS
 10
211.392335
 20
129.715288
 11
209.434661
 21
129.306005
  0
LINE
  8
3
 62
214
  6
CONTINUOUS
 10
209.901581
 20
128.382001
 11
209.434661
 21
129.306005
  0
LINE
  8
3
 62
214
  6
CONTINUOUS
 10
210.961281
 20
129.497467
 11
210.215905
 21
128.830824
  0
LINE
  8
3
 62
214
  6
CONTINUOUS
 10
210.961281
 20
129.497467
 11
209.982444
 21
129.292825
  0
LINE
  8
3
 62
214
  6
CONTINUOUS
 10
210.215905
 20
128.830824
 11
209.982444
 21
129.292825
  0
TEXT
  8
3
 62
214
  6
CONTINUOUS
 10
157.154327
 20
109.700045
 40
4.000000
 41
1.000000
  1
圧着端子
  7
KANJI
 50
0.000000
 51
0.000000
  0
TEXT
  8
6
 62
14
  6
CONTINUOUS
 10
151.601427
 20
109.524125
 40
4.000000
 41
1.000000
  1
③
  7
KANJI
 50
0.000000
 51
0.000000
  0
LINE
  8
1
 62
7
  6
DASHDOT
 10
112.237944
 20
145.906240
 11
136.220000
 21
145.906240
  0
LINE
  8
1
 62
7
  6
CONTINUOUS
 10
126.520000
 20
148.406240
 11
136.520000
 21
148.406240
  0
LINE
  8
1
 62
7
  6
CONTINUOUS
 10
136.520000
 20
148.406240
 11
136.520000
 21
143.406240
  0
LINE
  8
1
 62
7
  6
CONTINUOUS
 10
136.520000
 20
143.406240
 11
126.520000
 21
143.406240
  0
DIMENSION
  8
2
 62
134
  6
CONTINUOUS
  2
*D15
 10
134.725872
 20
113.406240
 11
134.725872
 21
131.250000
 70
     0
  1
32.5
 13
124.020000
 23
113.406240
 14
128.520000
 24
145.906240
 50
90.000000
  0
LINE
  8
1
 62
7
  6
CONTINUOUS
 10
144.172808
 20
148.714745
 11
142.728389
 21
142.937071
  0
LINE
  8
1
 62
7
  6
CONTINUOUS
 10
143.123885
 20
148.757734
 11
141.675167
 21
142.962864
  0
LINE
  8
1
 62
7
  6
CONTINUOUS
 10
142.886012
 20
147.806240
 11
126.520000
 21
147.806240
  0
LINE
  8
1
 62
7
  6
CONTINUOUS
 10
126.520000
 20
144.006240
 11
141.936012
 21
144.006240
  0
LINE
  8
1
 62
7
  6
CONTINUOUS
 10
157.450629
 20
147.806240
 11
143.945682
 21
147.806240
  0
LINE
  8
1
 62
7
  6
CONTINUOUS
 10
142.995682
 20
144.006240
 11
157.450629
 21
144.006240
  0
DIMENSION
  8
2
 62
134
  6
CONTINUOUS
  2
*D16
 10
127.271609
 20
113.406240
 11
127.271609
 21
114.406240
 70
     0
  1
4
 13
126.020000
 23
113.406240
 14
120.635505
 24
117.406240
 50
90.000000
  0
DIMENSION
  8
2
 62
134
  6
CONTINUOUS
  2
*D17
 10
73.552820
 20
113.406240
 11
73.552820
 21
166.165374
 70
     0
  1
41.2
 13
79.020000
 23
113.406240
 14
79.020000
 24
154.606240
 50
90.000000
  0
DIMENSION
  8
2
 62
134
  6
CONTINUOUS
  2
*D18
 10
148.906149
 20
144.006240
 11
148.906149
 21
154.357894
 70
     0
  1
φ3.8
 13
148.906149
 23
144.006240
 14
148.906149
 24
147.806240
 50
90.000000
  0
DIMENSION
  8
2
 62
134
  6
CONTINUOUS
  2
*D19
 10
81.020000
 20
39.449503
 11
84.748843
 21
39.449503
 70
     0
  1
6.7
 13
81.020000
 23
43.667039
 14
87.720000
 24
56.917039
 50
0.000000
  0
DIMENSION
  8
2
 62
134
  6
CONTINUOUS
  2
*D20
 10
143.206123
 20
53.717039
 11
143.206123
 21
47.661300
 70
     0
  1
11
 13
128.520000
 23
53.717039
 14
128.520000
 24
64.117039
 50
90.000000
  0
TEXT
  8
1
 62
7
  6
DASHDOT
 10
222.142101
 20
159.635345
 40
4.000000
 41
0.600000
  1
1：GND
  7
KANJI
 50
0.000000
 51
0.000000
  0
TEXT
  8
1
 62
7
  6
DASHDOT
 10
222.052042
 20
149.478307
 40
4.000000
 41
0.541667
  1
2：RS232C RXD
  7
KANJI
 50
0.000000
 51
0.000000
  0
TEXT
  8
1
 62
7
  6
DASHDOT
 10
221.926221
 20
139.906240
 40
4.000000
 41
0.541667
  1
3：RS232C TXD
  7
KANJI
 50
0.000000
 51
0.000000
  0
TEXT
  8
1
 62
7
  6
DASHDOT
 10
221.961983
 20
129.657032
 40
4.000000
 41
0.583333
  1
4：DC+4.7～27V
  7
KANJI
 50
0.000000
 51
0.000000
  0
TEXT
  8
5
 62
94
  6
CONTINUOUS
 10
179.772351
 20
22.782285
 40
4.000000
 41
0.500000
  1
2010/08/16
  7
KANJI
 50
-0.091868
 51
0.000000
  0
TEXT
  8
5
 62
94
  6
CONTINUOUS
 10
242.059225
 20
23.437914
 40
4.000000
 41
0.875000
  1
ＲＳ２３２Ｃ出力タイプ外形図
  7
KANJI
 50
0.000000
 51
0.000000
  0
TEXT
  8
5
 62
94
  6
CONTINUOUS
 10
246.646523
 20
30.322020
 40
4.000000
 41
1.000000
  1
ＴＭＨ９２
  7
KANJI
 50
0.000000
 51
0.000000
  0
TEXT
  8
5
 62
94
  6
CONTINUOUS
 10
245.382623
 20
15.437914
 40
4.000000
 41
0.875000
  1
００５－０６０－Ａ１０１
  7
KANJI
 50
0.000000
 51
0.000000
  0
TEXT
  8
3
 62
214
  6
CONTINUOUS
 10
199.397203
 20
59.510930
 40
4.000000
 41
0.647059
  1
重量 ；100g(ｹｰﾌﾞﾙ除く)
  7
KANJI
 50
0.000000
 51
0.000000
  0
ENDSEC
  0
EOF
