  0
SECTION
  2
HEADER
  9
$ACADVER
  1
AC1004
  9
$INSBASE
 10
0.000000
 20
0.000000
  9
$EXTMIN
 10
0.000000
 20
0.000000
  9
$EXTMAX
 10
297.000000
 20
210.000000
  9
$LIMMIN
 10
0.000000
 20
0.000000
  9
$LIMMAX
 10
297.000000
 20
210.000000
  9
$VIEWCTR
 10
148.500000
 20
105.000000
  9
$VIEWSIZE
 40
210.000000
  9
$PEXTMIN
 10
0.000000
 20
0.000000
 30
0.000000
  9
$PEXTMAX
 10
297.000000
 20
210.000000
 30
0.000000
  9
$SNAPMODE
 70
     0
  9
$SNAPUNIT
 10
1.000000
 20
1.000000
  9
$SNAPBASE
 10
0.000000
 20
0.000000
  9
$SNAPANG
 50
0.000000
  9
$SNAPISOPAIR
 70
     0
  9
$SNAPSTYLE
 70
     0
  9
$GRIDMODE
 70
     0
  9
$GRIDUNIT
 10
0.000000
 20
0.000000
  9
$ORTHOMODE
 70
     0
  9
$REGENMODE
 70
     1
  9
$FILLMODE
 70
     1
  9
$QTEXTMODE
 70
     0
  9
$DRAGMODE
 70
     2
  9
$LTSCALE
 40
0.250000
  9
$OSMODE
 70
     0
  9
$ATTMODE
 70
     1
  9
$TEXTSIZE
 40
2.500000
  9
$TRACEWID
 40
0.050000
  9
$TEXTSTYLE
  7
STANDARD
  9
$CLAYER
  8
0
  9
$CELTYPE
  6
BYLAYER
  9
$CECOLOR
 62
   256
  9
$DIMSCALE
 40
1.000000
  9
$DIMASZ
 40
1.000000
  9
$DIMEXO
 40
0.000000
  9
$DIMDLI
 40
0.500000
  9
$DIMRND
 40
0.000000
  9
$DIMDLE
 40
0.000000
  9
$DIMEXE
 40
0.000000
  9
$DIMTP
 40
0.000000
  9
$DIMTM
 40
0.000000
  9
$DIMTXT
 40
4.000000
  9
$DIMCEN
 40
0.000000
  9
$DIMTSZ
 40
0.000000
  9
$DIMTOL
 70
     0
  9
$DIMLIM
 70
     0
  9
$DIMTIH
 70
     1
  9
$DIMTOH
 70
     1
  9
$DIMSE1
 70
     0
  9
$DIMSE2
 70
     0
  9
$DIMTAD
 70
     0
  9
$DIMZIN
 70
     0
  9
$DIMBLK
  1

  9
$DIMASO
 70
     0
  9
$DIMSHO
 70
     0
  9
$DIMPOST
  1

  9
$DIMAPOST
  1

  9
$DIMALT
 70
     0
  9
$DIMALTD
 70
     0
  9
$DIMALTF
 40
25.400000
  9
$DIMLFAC
 40
1.000000
  9
$DIMTOFL
 70
     0
  9
$DIMTVP
 40
0.000000
  9
$DIMTIX
 70
     0
  9
$DIMSOXD
 70
     0
  9
$DIMSAH
 70
     0
  9
$DIMBLKL
  1

  9
$DIMBLKR
  1

  9
$LUNITS
 70
     2
  9
$LUPREC
 70
     2
  9
$AXISMODE
 70
     0
  9
$AXISUNIT
 10
1.000000
 20
1.000000
  9
$SKETCHINC
 40
0.000000
  9
$FILLETRAD
 40
0.000000
  9
$AUNITS
 70
     1
  9
$AUPREC
 70
     2
  9
$MENU
  1
ACAD
  9
$ELEVATION
 40
0.000000
  9
$THICKNESS
 40
0.000000
  9
$VIEWDIR
 10
0.000000
 20
0.000000
 30
1.000000
  9
$LIMCHECK
 70
     1
  9
$BLIPMODE
 70
     1
  9
$CHAMFERA
 40
0.000000
  9
$CHAMFERB
 40
0.000000
  9
$FASTZOOM
 70
     1
  9
$SKPOLY
 70
     0
  9
$TDCREATE
 40
0.000000
  9
$TDUPDATE
 40
0.000000
  9
$TDINDWG
 40
0.000000
  9
$TDUSRTIMER
 40
0.000000
  9
$USRTIMER
 70
     1
  9
$ANGBASE
 50
0.000000
  9
$ANGDIR
 70
     0
  9
$PDMODE
 70
     0
  9
$PDSIZE
 40
0.000000
  9
$PLINEWID
 40
0.000000
  9
$COORDS
 70
     2
  9
$USERI1
 70
     0
  9
$USERI2
 70
     0
  9
$USERI3
 70
     0
  9
$USERI4
 70
     0
  9
$USERI5
 70
     0
  9
$USERR1
 40
0.000000
  9
$USERR2
 40
0.000000
  9
$USERR3
 40
0.000000
  9
$USERR4
 40
0.000000
  9
$USERR5
 40
0.000000
  0
ENDSEC
  0
SECTION
  2
TABLES
  0
TABLE
  2
LTYPE
 70
     5
  0
LTYPE
  2
CONTINUOUS
 70
    64
  3
Solid line
 72
    65
 73
     0
 40
0.0
  0
LTYPE
  2
HIDDEN
 70
    64
  3
------------------------
 72
    65
 73
     2
 40
12.6
 49
8.4
 49
-4.2
  0
LTYPE
  2
DOT
 70
    64
  3
････････････････････････
 72
    65
 73
     2
 40
8.0
 49
6.0
 49
-2.0
  0
LTYPE
  2
DASHDOT
 70
    64
  3
--･--･--･--･--･--･--･--
 72
    65
 73
     4
 40
50.5
 49
30.0
 49
-9.0
 49
2.5
 49
-9.0
  0
LTYPE
  2
DIVIDE
 70
    64
  3
--･･--･･--･･--･･--･･--
 72
    65
 73
     6
 40
58.0
 49
30.0
 49
-9.0
 49
2.5
 49
-5.0
 49
2.5
 49
-9.0
  0
LTYPE
  2
ACAD_ISO06W100
 70
    64
  3
____ ... ____ ... ____
 72
    65
 73
     8
 40
37.5
 49
24.0
 49
-3.0
 49
0.5
 49
-3.0
 49
0.5
 49
-3.0
 49
0.5
 49
-3.0
  0
LTYPE
  2
ACAD_ISO14W100
 70
    64
  3
__ . . . __ . . . __ . . . 
 72
    65
 73
     8
 40
25.5
 49
12.0
 49
-3.0
 49
0.5
 49
-3.0
 49
0.5
 49
-3.0
 49
0.5
 49
-3.0
  0
ENDTAB
  0
TABLE
  2
LAYER
 70
1
  0
LAYER
  2
1
 70
64
 62
7
  6
CONTINUOUS
  0
ENDTAB
  0
TABLE
  2
STYLE
 70
     2
  0
STYLE
  2
STANDARD
 70
    64
 40
0.0
 41
1.0
 50
0.0
 71
     0
 42
0.2
  3
TXT
  4

  0
STYLE
  2
KANJI
 70
    64
 40
0.0
 41
1.0
 50
0.0
 71
     0
 42
0.2
  3
TXT
  4
BIGFONT
  0
ENDTAB
  0
TABLE
  2
VIEW
 70
     0
  0
ENDTAB
  0
ENDSEC
  0
SECTION
  2
BLOCKS
  0
BLOCK
  8
1
 62
7
  6
CONTINUOUS
  2
*D1
 70
    65
 10
0.0
 20
0.0
  0
LINE
  8
1
 62
7
  6
CONTINUOUS
 10
6.049480
 20
410.072704
 11
6.049480
 21
380.072704
  0
LINE
  8
1
 62
7
  6
CONTINUOUS
 10
4.049480
 20
410.072704
 11
18.129323
 21
410.072704
  0
LINE
  8
1
 62
7
  6
CONTINUOUS
 10
4.049480
 20
380.072704
 11
18.129323
 21
380.072704
  0
LINE
  8
1
 62
7
  6
CONTINUOUS
 10
6.049480
 20
410.072704
 11
6.567118
 21
408.140852
  0
LINE
  8
1
 62
7
  6
CONTINUOUS
 10
6.049480
 20
410.072704
 11
5.531842
 21
408.140852
  0
LINE
  8
1
 62
7
  6
CONTINUOUS
 10
6.567118
 20
408.140852
 11
5.531842
 21
408.140852
  0
LINE
  8
1
 62
7
  6
CONTINUOUS
 10
6.049480
 20
409.589741
 11
6.308299
 21
408.623815
  0
LINE
  8
1
 62
7
  6
CONTINUOUS
 10
6.049480
 20
409.589741
 11
5.790661
 21
408.623815
  0
LINE
  8
1
 62
7
  6
CONTINUOUS
 10
6.308299
 20
408.623815
 11
5.790661
 21
408.623815
  0
LINE
  8
1
 62
7
  6
CONTINUOUS
 10
6.049480
 20
380.072704
 11
5.531842
 21
382.004556
  0
LINE
  8
1
 62
7
  6
CONTINUOUS
 10
6.049480
 20
380.072704
 11
6.567118
 21
382.004556
  0
LINE
  8
1
 62
7
  6
CONTINUOUS
 10
5.531842
 20
382.004556
 11
6.567118
 21
382.004556
  0
LINE
  8
1
 62
7
  6
CONTINUOUS
 10
6.049480
 20
380.555667
 11
5.790661
 21
381.521593
  0
LINE
  8
1
 62
7
  6
CONTINUOUS
 10
6.049480
 20
380.555667
 11
6.308299
 21
381.521593
  0
LINE
  8
1
 62
7
  6
CONTINUOUS
 10
5.790661
 20
381.521593
 11
6.308299
 21
381.521593
  0
TEXT
  8
1
 62
7
  6
CONTINUOUS
 10
6.049480
 20
391.240082
 40
4.000000
 41
0.666667
  1
φ30
  7
KANJI
 50
90.000000
 51
30.000000
  0
ENDBLK
  0
BLOCK
  8
1
 62
7
  6
CONTINUOUS
  2
*D2
 70
    65
 10
0.0
 20
0.0
  0
LINE
  8
1
 62
7
  6
CONTINUOUS
 10
74.129323
 20
375.605168
 11
96.829323
 21
375.605168
  0
LINE
  8
1
 62
7
  6
CONTINUOUS
 10
82.129323
 20
373.605168
 11
82.129323
 21
379.822704
  0
LINE
  8
1
 62
7
  6
CONTINUOUS
 10
88.829323
 20
373.605168
 11
88.829323
 21
393.072704
  0
LINE
  8
1
 62
7
  6
CONTINUOUS
 10
82.129323
 20
375.605168
 11
80.197472
 21
375.087530
  0
LINE
  8
1
 62
7
  6
CONTINUOUS
 10
82.129323
 20
375.605168
 11
80.197472
 21
376.122806
  0
LINE
  8
1
 62
7
  6
CONTINUOUS
 10
80.197472
 20
375.087530
 11
80.197472
 21
376.122806
  0
LINE
  8
1
 62
7
  6
CONTINUOUS
 10
81.646360
 20
375.605168
 11
80.680435
 21
375.346349
  0
LINE
  8
1
 62
7
  6
CONTINUOUS
 10
81.646360
 20
375.605168
 11
80.680435
 21
375.863987
  0
LINE
  8
1
 62
7
  6
CONTINUOUS
 10
80.680435
 20
375.346349
 11
80.680435
 21
375.863987
  0
LINE
  8
1
 62
7
  6
CONTINUOUS
 10
88.829323
 20
375.605168
 11
90.761175
 21
376.122806
  0
LINE
  8
1
 62
7
  6
CONTINUOUS
 10
88.829323
 20
375.605168
 11
90.761175
 21
375.087530
  0
LINE
  8
1
 62
7
  6
CONTINUOUS
 10
90.761175
 20
376.122806
 11
90.761175
 21
375.087530
  0
LINE
  8
1
 62
7
  6
CONTINUOUS
 10
89.312286
 20
375.605168
 11
90.278212
 21
375.863987
  0
LINE
  8
1
 62
7
  6
CONTINUOUS
 10
89.312286
 20
375.605168
 11
90.278212
 21
375.346349
  0
LINE
  8
1
 62
7
  6
CONTINUOUS
 10
90.278212
 20
375.863987
 11
90.278212
 21
375.346349
  0
TEXT
  8
1
 62
7
  6
CONTINUOUS
 10
82.858166
 20
375.605168
 40
4.000000
 41
0.500000
  1
6.7
  7
KANJI
 50
0.000000
 51
30.000000
  0
ENDBLK
  0
BLOCK
  8
1
 62
7
  6
CONTINUOUS
  2
*D3
 70
    65
 10
0.0
 20
0.0
  0
LINE
  8
1
 62
7
  6
CONTINUOUS
 10
88.829323
 20
375.605168
 11
108.829323
 21
375.605168
  0
LINE
  8
1
 62
7
  6
CONTINUOUS
 10
88.829323
 20
373.605168
 11
88.829323
 21
391.842704
  0
LINE
  8
1
 62
7
  6
CONTINUOUS
 10
108.829323
 20
373.605168
 11
108.829323
 21
391.842704
  0
LINE
  8
1
 62
7
  6
CONTINUOUS
 10
88.829323
 20
375.605168
 11
90.761175
 21
376.122806
  0
LINE
  8
1
 62
7
  6
CONTINUOUS
 10
88.829323
 20
375.605168
 11
90.761175
 21
375.087530
  0
LINE
  8
1
 62
7
  6
CONTINUOUS
 10
90.761175
 20
376.122806
 11
90.761175
 21
375.087530
  0
LINE
  8
1
 62
7
  6
CONTINUOUS
 10
89.312286
 20
375.605168
 11
90.278212
 21
375.863987
  0
LINE
  8
1
 62
7
  6
CONTINUOUS
 10
89.312286
 20
375.605168
 11
90.278212
 21
375.346349
  0
LINE
  8
1
 62
7
  6
CONTINUOUS
 10
90.278212
 20
375.863987
 11
90.278212
 21
375.346349
  0
LINE
  8
1
 62
7
  6
CONTINUOUS
 10
108.829323
 20
375.605168
 11
106.897472
 21
375.087530
  0
LINE
  8
1
 62
7
  6
CONTINUOUS
 10
108.829323
 20
375.605168
 11
106.897472
 21
376.122806
  0
LINE
  8
1
 62
7
  6
CONTINUOUS
 10
106.897472
 20
375.087530
 11
106.897472
 21
376.122806
  0
LINE
  8
1
 62
7
  6
CONTINUOUS
 10
108.346360
 20
375.605168
 11
107.380435
 21
375.346349
  0
LINE
  8
1
 62
7
  6
CONTINUOUS
 10
108.346360
 20
375.605168
 11
107.380435
 21
375.863987
  0
LINE
  8
1
 62
7
  6
CONTINUOUS
 10
107.380435
 20
375.346349
 11
107.380435
 21
375.863987
  0
TEXT
  8
1
 62
7
  6
CONTINUOUS
 10
97.145971
 20
375.605168
 40
4.000000
 41
0.500000
  1
20
  7
KANJI
 50
0.000000
 51
30.000000
  0
ENDBLK
  0
BLOCK
  8
1
 62
7
  6
CONTINUOUS
  2
*D4
 70
    65
 10
0.0
 20
0.0
  0
LINE
  8
1
 62
7
  6
CONTINUOUS
 10
73.570361
 20
381.822704
 11
73.570361
 21
408.322704
  0
LINE
  8
1
 62
7
  6
CONTINUOUS
 10
71.570361
 20
381.822704
 11
80.129323
 21
381.822704
  0
LINE
  8
1
 62
7
  6
CONTINUOUS
 10
71.570361
 20
408.322704
 11
80.129323
 21
408.322704
  0
LINE
  8
1
 62
7
  6
CONTINUOUS
 10
73.570361
 20
381.822704
 11
73.052723
 21
383.754556
  0
LINE
  8
1
 62
7
  6
CONTINUOUS
 10
73.570361
 20
381.822704
 11
74.087999
 21
383.754556
  0
LINE
  8
1
 62
7
  6
CONTINUOUS
 10
73.052723
 20
383.754556
 11
74.087999
 21
383.754556
  0
LINE
  8
1
 62
7
  6
CONTINUOUS
 10
73.570361
 20
382.305667
 11
73.311542
 21
383.271593
  0
LINE
  8
1
 62
7
  6
CONTINUOUS
 10
73.570361
 20
382.305667
 11
73.829180
 21
383.271593
  0
LINE
  8
1
 62
7
  6
CONTINUOUS
 10
73.311542
 20
383.271593
 11
73.829180
 21
383.271593
  0
LINE
  8
1
 62
7
  6
CONTINUOUS
 10
73.570361
 20
408.322704
 11
74.087999
 21
406.390852
  0
LINE
  8
1
 62
7
  6
CONTINUOUS
 10
73.570361
 20
408.322704
 11
73.052723
 21
406.390852
  0
LINE
  8
1
 62
7
  6
CONTINUOUS
 10
74.087999
 20
406.390852
 11
73.052723
 21
406.390852
  0
LINE
  8
1
 62
7
  6
CONTINUOUS
 10
73.570361
 20
407.839741
 11
73.829180
 21
406.873815
  0
LINE
  8
1
 62
7
  6
CONTINUOUS
 10
73.570361
 20
407.839741
 11
73.311542
 21
406.873815
  0
LINE
  8
1
 62
7
  6
CONTINUOUS
 10
73.829180
 20
406.873815
 11
73.311542
 21
406.873815
  0
TEXT
  8
1
 62
7
  6
CONTINUOUS
 10
73.570361
 20
391.129492
 40
4.000000
 41
0.500000
  1
26.5
  7
KANJI
 50
90.000000
 51
30.000000
  0
ENDBLK
  0
BLOCK
  8
1
 62
7
  6
CONTINUOUS
  2
*D5
 70
    65
 10
0.0
 20
0.0
  0
LINE
  8
1
 62
7
  6
CONTINUOUS
 10
144.315447
 20
380.816964
 11
144.315447
 21
408.272704
  0
LINE
  8
1
 62
7
  6
CONTINUOUS
 10
146.315447
 20
389.872704
 11
129.629323
 21
389.872704
  0
LINE
  8
1
 62
7
  6
CONTINUOUS
 10
146.315447
 20
400.272704
 11
129.629323
 21
400.272704
  0
LINE
  8
1
 62
7
  6
CONTINUOUS
 10
144.315447
 20
389.872704
 11
144.833085
 21
387.940852
  0
LINE
  8
1
 62
7
  6
CONTINUOUS
 10
144.315447
 20
389.872704
 11
143.797808
 21
387.940852
  0
LINE
  8
1
 62
7
  6
CONTINUOUS
 10
144.833085
 20
387.940852
 11
143.797808
 21
387.940852
  0
LINE
  8
1
 62
7
  6
CONTINUOUS
 10
144.315447
 20
389.389741
 11
144.574266
 21
388.423815
  0
LINE
  8
1
 62
7
  6
CONTINUOUS
 10
144.315447
 20
389.389741
 11
144.056627
 21
388.423815
  0
LINE
  8
1
 62
7
  6
CONTINUOUS
 10
144.574266
 20
388.423815
 11
144.056627
 21
388.423815
  0
LINE
  8
1
 62
7
  6
CONTINUOUS
 10
144.315447
 20
400.272704
 11
143.797808
 21
402.204556
  0
LINE
  8
1
 62
7
  6
CONTINUOUS
 10
144.315447
 20
400.272704
 11
144.833085
 21
402.204556
  0
LINE
  8
1
 62
7
  6
CONTINUOUS
 10
143.797808
 20
402.204556
 11
144.833085
 21
402.204556
  0
LINE
  8
1
 62
7
  6
CONTINUOUS
 10
144.315447
 20
400.755667
 11
144.056627
 21
401.721593
  0
LINE
  8
1
 62
7
  6
CONTINUOUS
 10
144.315447
 20
400.755667
 11
144.574266
 21
401.721593
  0
LINE
  8
1
 62
7
  6
CONTINUOUS
 10
144.056627
 20
401.721593
 11
144.574266
 21
401.721593
  0
TEXT
  8
1
 62
7
  6
CONTINUOUS
 10
144.315447
 20
381.816964
 40
4.000000
 41
0.500000
  1
11
  7
KANJI
 50
90.000000
 51
30.000000
  0
ENDBLK
  0
BLOCK
  8
1
 62
7
  6
CONTINUOUS
  2
*D6
 70
    65
 10
0.0
 20
0.0
  0
LINE
  8
1
 62
7
  6
CONTINUOUS
 10
69.087801
 20
433.325838
 11
69.087801
 21
495.084972
  0
LINE
  8
1
 62
7
  6
CONTINUOUS
 10
67.087801
 20
437.325838
 11
80.129323
 21
437.325838
  0
LINE
  8
1
 62
7
  6
CONTINUOUS
 10
67.087801
 20
478.525838
 11
80.129323
 21
478.525838
  0
LINE
  8
1
 62
7
  6
CONTINUOUS
 10
69.087801
 20
437.325838
 11
69.605440
 21
435.393987
  0
LINE
  8
1
 62
7
  6
CONTINUOUS
 10
69.087801
 20
437.325838
 11
68.570163
 21
435.393987
  0
LINE
  8
1
 62
7
  6
CONTINUOUS
 10
69.605440
 20
435.393987
 11
68.570163
 21
435.393987
  0
LINE
  8
1
 62
7
  6
CONTINUOUS
 10
69.087801
 20
436.842875
 11
69.346620
 21
435.876950
  0
LINE
  8
1
 62
7
  6
CONTINUOUS
 10
69.087801
 20
436.842875
 11
68.828982
 21
435.876950
  0
LINE
  8
1
 62
7
  6
CONTINUOUS
 10
69.346620
 20
435.876950
 11
68.828982
 21
435.876950
  0
LINE
  8
1
 62
7
  6
CONTINUOUS
 10
69.087801
 20
478.525838
 11
68.570163
 21
480.457690
  0
LINE
  8
1
 62
7
  6
CONTINUOUS
 10
69.087801
 20
478.525838
 11
69.605440
 21
480.457690
  0
LINE
  8
1
 62
7
  6
CONTINUOUS
 10
68.570163
 20
480.457690
 11
69.605440
 21
480.457690
  0
LINE
  8
1
 62
7
  6
CONTINUOUS
 10
69.087801
 20
479.008801
 11
68.828982
 21
479.974727
  0
LINE
  8
1
 62
7
  6
CONTINUOUS
 10
69.087801
 20
479.008801
 11
69.346620
 21
479.974727
  0
LINE
  8
1
 62
7
  6
CONTINUOUS
 10
68.828982
 20
479.974727
 11
69.346620
 21
479.974727
  0
TEXT
  8
1
 62
7
  6
CONTINUOUS
 10
69.087801
 20
486.084972
 40
4.000000
 41
0.500000
  1
41.2
  7
KANJI
 50
90.000000
 51
30.000000
  0
ENDBLK
  0
BLOCK
  8
1
 62
7
  6
CONTINUOUS
  2
*D7
 70
    65
 10
0.0
 20
0.0
  0
LINE
  8
1
 62
7
  6
CONTINUOUS
 10
82.129323
 20
429.635176
 11
19.129323
 21
429.635176
  0
LINE
  8
1
 62
7
  6
CONTINUOUS
 10
82.129323
 20
427.635176
 11
82.129323
 21
435.325838
  0
LINE
  8
1
 62
7
  6
CONTINUOUS
 10
19.129323
 20
427.635176
 11
19.129323
 21
436.325838
  0
LINE
  8
1
 62
7
  6
CONTINUOUS
 10
82.129323
 20
429.635176
 11
80.197472
 21
429.117538
  0
LINE
  8
1
 62
7
  6
CONTINUOUS
 10
82.129323
 20
429.635176
 11
80.197472
 21
430.152814
  0
LINE
  8
1
 62
7
  6
CONTINUOUS
 10
80.197472
 20
429.117538
 11
80.197472
 21
430.152814
  0
LINE
  8
1
 62
7
  6
CONTINUOUS
 10
81.646360
 20
429.635176
 11
80.680435
 21
429.376357
  0
LINE
  8
1
 62
7
  6
CONTINUOUS
 10
81.646360
 20
429.635176
 11
80.680435
 21
429.893995
  0
LINE
  8
1
 62
7
  6
CONTINUOUS
 10
80.680435
 20
429.376357
 11
80.680435
 21
429.893995
  0
LINE
  8
1
 62
7
  6
CONTINUOUS
 10
19.129323
 20
429.635176
 11
21.061175
 21
430.152814
  0
LINE
  8
1
 62
7
  6
CONTINUOUS
 10
19.129323
 20
429.635176
 11
21.061175
 21
429.117538
  0
LINE
  8
1
 62
7
  6
CONTINUOUS
 10
21.061175
 20
430.152814
 11
21.061175
 21
429.117538
  0
LINE
  8
1
 62
7
  6
CONTINUOUS
 10
19.612286
 20
429.635176
 11
20.578212
 21
429.893995
  0
LINE
  8
1
 62
7
  6
CONTINUOUS
 10
19.612286
 20
429.635176
 11
20.578212
 21
429.376357
  0
LINE
  8
1
 62
7
  6
CONTINUOUS
 10
20.578212
 20
429.893995
 11
20.578212
 21
429.376357
  0
TEXT
  8
1
 62
7
  6
CONTINUOUS
 10
46.739261
 20
429.635176
 40
4.000000
 41
0.500000
  1
63
  7
KANJI
 50
0.000000
 51
30.000000
  0
ENDBLK
  0
BLOCK
  8
1
 62
7
  6
CONTINUOUS
  2
*D8
 70
    65
 10
0.0
 20
0.0
  0
LINE
  8
1
 62
7
  6
CONTINUOUS
 10
82.129323
 20
429.635176
 11
94.329323
 21
429.635176
  0
LINE
  8
1
 62
7
  6
CONTINUOUS
 10
82.129323
 20
427.635176
 11
82.129323
 21
435.325838
  0
LINE
  8
1
 62
7
  6
CONTINUOUS
 10
94.329323
 20
427.635176
 11
94.329323
 21
435.325838
  0
LINE
  8
1
 62
7
  6
CONTINUOUS
 10
82.129323
 20
429.635176
 11
84.061175
 21
430.152814
  0
LINE
  8
1
 62
7
  6
CONTINUOUS
 10
82.129323
 20
429.635176
 11
84.061175
 21
429.117538
  0
LINE
  8
1
 62
7
  6
CONTINUOUS
 10
84.061175
 20
430.152814
 11
84.061175
 21
429.117538
  0
LINE
  8
1
 62
7
  6
CONTINUOUS
 10
82.612286
 20
429.635176
 11
83.578212
 21
429.893995
  0
LINE
  8
1
 62
7
  6
CONTINUOUS
 10
82.612286
 20
429.635176
 11
83.578212
 21
429.376357
  0
LINE
  8
1
 62
7
  6
CONTINUOUS
 10
83.578212
 20
429.893995
 11
83.578212
 21
429.376357
  0
LINE
  8
1
 62
7
  6
CONTINUOUS
 10
94.329323
 20
429.635176
 11
92.397472
 21
429.117538
  0
LINE
  8
1
 62
7
  6
CONTINUOUS
 10
94.329323
 20
429.635176
 11
92.397472
 21
430.152814
  0
LINE
  8
1
 62
7
  6
CONTINUOUS
 10
92.397472
 20
429.117538
 11
92.397472
 21
430.152814
  0
LINE
  8
1
 62
7
  6
CONTINUOUS
 10
93.846360
 20
429.635176
 11
92.880435
 21
429.376357
  0
LINE
  8
1
 62
7
  6
CONTINUOUS
 10
93.846360
 20
429.635176
 11
92.880435
 21
429.893995
  0
LINE
  8
1
 62
7
  6
CONTINUOUS
 10
92.880435
 20
429.376357
 11
92.880435
 21
429.893995
  0
TEXT
  8
1
 62
7
  6
CONTINUOUS
 10
84.229323
 20
429.635176
 40
4.000000
 41
0.500000
  1
12.2
  7
KANJI
 50
0.000000
 51
30.000000
  0
ENDBLK
  0
BLOCK
  8
1
 62
7
  6
CONTINUOUS
  2
*D9
 70
    65
 10
0.0
 20
0.0
  0
LINE
  8
1
 62
7
  6
CONTINUOUS
 10
94.329323
 20
429.635176
 11
114.329323
 21
429.635176
  0
LINE
  8
1
 62
7
  6
CONTINUOUS
 10
114.329323
 20
427.635176
 11
114.329323
 21
435.325838
  0
LINE
  8
1
 62
7
  6
CONTINUOUS
 10
94.329323
 20
429.635176
 11
96.261175
 21
430.152814
  0
LINE
  8
1
 62
7
  6
CONTINUOUS
 10
94.329323
 20
429.635176
 11
96.261175
 21
429.117538
  0
LINE
  8
1
 62
7
  6
CONTINUOUS
 10
96.261175
 20
430.152814
 11
96.261175
 21
429.117538
  0
LINE
  8
1
 62
7
  6
CONTINUOUS
 10
94.812286
 20
429.635176
 11
95.778212
 21
429.893995
  0
LINE
  8
1
 62
7
  6
CONTINUOUS
 10
94.812286
 20
429.635176
 11
95.778212
 21
429.376357
  0
LINE
  8
1
 62
7
  6
CONTINUOUS
 10
95.778212
 20
429.893995
 11
95.778212
 21
429.376357
  0
LINE
  8
1
 62
7
  6
CONTINUOUS
 10
114.329323
 20
429.635176
 11
112.397472
 21
429.117538
  0
LINE
  8
1
 62
7
  6
CONTINUOUS
 10
114.329323
 20
429.635176
 11
112.397472
 21
430.152814
  0
LINE
  8
1
 62
7
  6
CONTINUOUS
 10
112.397472
 20
429.117538
 11
112.397472
 21
430.152814
  0
LINE
  8
1
 62
7
  6
CONTINUOUS
 10
113.846360
 20
429.635176
 11
112.880435
 21
429.376357
  0
LINE
  8
1
 62
7
  6
CONTINUOUS
 10
113.846360
 20
429.635176
 11
112.880435
 21
429.893995
  0
LINE
  8
1
 62
7
  6
CONTINUOUS
 10
112.880435
 20
429.376357
 11
112.880435
 21
429.893995
  0
TEXT
  8
1
 62
7
  6
CONTINUOUS
 10
102.329323
 20
429.635176
 40
4.000000
 41
0.500000
  1
20
  7
KANJI
 50
0.000000
 51
30.000000
  0
ENDBLK
  0
BLOCK
  8
1
 62
7
  6
CONTINUOUS
  2
*D10
 70
    65
 10
0.0
 20
0.0
  0
LINE
  8
1
 62
7
  6
CONTINUOUS
 10
82.129323
 20
493.193066
 11
123.129323
 21
493.193066
  0
LINE
  8
1
 62
7
  6
CONTINUOUS
 10
82.129323
 20
495.193066
 11
82.129323
 21
480.525838
  0
LINE
  8
1
 62
7
  6
CONTINUOUS
 10
123.129323
 20
495.193066
 11
123.129323
 21
480.525838
  0
LINE
  8
1
 62
7
  6
CONTINUOUS
 10
82.129323
 20
493.193066
 11
84.061175
 21
493.710704
  0
LINE
  8
1
 62
7
  6
CONTINUOUS
 10
82.129323
 20
493.193066
 11
84.061175
 21
492.675428
  0
LINE
  8
1
 62
7
  6
CONTINUOUS
 10
84.061175
 20
493.710704
 11
84.061175
 21
492.675428
  0
LINE
  8
1
 62
7
  6
CONTINUOUS
 10
82.612286
 20
493.193066
 11
83.578212
 21
493.451885
  0
LINE
  8
1
 62
7
  6
CONTINUOUS
 10
82.612286
 20
493.193066
 11
83.578212
 21
492.934247
  0
LINE
  8
1
 62
7
  6
CONTINUOUS
 10
83.578212
 20
493.451885
 11
83.578212
 21
492.934247
  0
LINE
  8
1
 62
7
  6
CONTINUOUS
 10
123.129323
 20
493.193066
 11
121.197472
 21
492.675428
  0
LINE
  8
1
 62
7
  6
CONTINUOUS
 10
123.129323
 20
493.193066
 11
121.197472
 21
493.710704
  0
LINE
  8
1
 62
7
  6
CONTINUOUS
 10
121.197472
 20
492.675428
 11
121.197472
 21
493.710704
  0
LINE
  8
1
 62
7
  6
CONTINUOUS
 10
122.646360
 20
493.193066
 11
121.680435
 21
492.934247
  0
LINE
  8
1
 62
7
  6
CONTINUOUS
 10
122.646360
 20
493.193066
 11
121.680435
 21
493.451885
  0
LINE
  8
1
 62
7
  6
CONTINUOUS
 10
121.680435
 20
492.934247
 11
121.680435
 21
493.451885
  0
TEXT
  8
1
 62
7
  6
CONTINUOUS
 10
99.896652
 20
493.193066
 40
4.000000
 41
0.500000
  1
41
  7
KANJI
 50
0.000000
 51
30.000000
  0
ENDBLK
  0
BLOCK
  8
1
 62
7
  6
CONTINUOUS
  2
*D11
 70
    65
 10
0.0
 20
0.0
  0
LINE
  8
1
 62
7
  6
CONTINUOUS
 10
115.129323
 20
493.193066
 11
137.014950
 21
493.193066
  0
LINE
  8
1
 62
7
  6
CONTINUOUS
 10
123.129323
 20
495.193066
 11
123.129323
 21
478.725838
  0
LINE
  8
1
 62
7
  6
CONTINUOUS
 10
127.629323
 20
495.193066
 11
127.629323
 21
478.725838
  0
LINE
  8
1
 62
7
  6
CONTINUOUS
 10
123.129323
 20
493.193066
 11
121.197472
 21
492.675428
  0
LINE
  8
1
 62
7
  6
CONTINUOUS
 10
123.129323
 20
493.193066
 11
121.197472
 21
493.710704
  0
LINE
  8
1
 62
7
  6
CONTINUOUS
 10
121.197472
 20
492.675428
 11
121.197472
 21
493.710704
  0
LINE
  8
1
 62
7
  6
CONTINUOUS
 10
122.646360
 20
493.193066
 11
121.680435
 21
492.934247
  0
LINE
  8
1
 62
7
  6
CONTINUOUS
 10
122.646360
 20
493.193066
 11
121.680435
 21
493.451885
  0
LINE
  8
1
 62
7
  6
CONTINUOUS
 10
121.680435
 20
492.934247
 11
121.680435
 21
493.451885
  0
LINE
  8
1
 62
7
  6
CONTINUOUS
 10
127.629323
 20
493.193066
 11
129.561175
 21
493.710704
  0
LINE
  8
1
 62
7
  6
CONTINUOUS
 10
127.629323
 20
493.193066
 11
129.561175
 21
492.675428
  0
LINE
  8
1
 62
7
  6
CONTINUOUS
 10
129.561175
 20
493.710704
 11
129.561175
 21
492.675428
  0
LINE
  8
1
 62
7
  6
CONTINUOUS
 10
128.112286
 20
493.193066
 11
129.078212
 21
493.451885
  0
LINE
  8
1
 62
7
  6
CONTINUOUS
 10
128.112286
 20
493.193066
 11
129.078212
 21
492.934247
  0
LINE
  8
1
 62
7
  6
CONTINUOUS
 10
129.078212
 20
493.451885
 11
129.078212
 21
492.934247
  0
TEXT
  8
1
 62
7
  6
CONTINUOUS
 10
130.014950
 20
493.193066
 40
4.000000
 41
0.500000
  1
4.5
  7
KANJI
 50
0.000000
 51
30.000000
  0
ENDBLK
  0
BLOCK
  8
1
 62
7
  6
CONTINUOUS
  2
*D12
 70
    65
 10
0.0
 20
0.0
  0
LINE
  8
1
 62
7
  6
CONTINUOUS
 10
139.262642
 20
437.325838
 11
139.262642
 21
469.825838
  0
LINE
  8
1
 62
7
  6
CONTINUOUS
 10
141.262642
 20
437.325838
 11
125.129323
 21
437.325838
  0
LINE
  8
1
 62
7
  6
CONTINUOUS
 10
141.262642
 20
469.825838
 11
129.629323
 21
469.825838
  0
LINE
  8
1
 62
7
  6
CONTINUOUS
 10
139.262642
 20
437.325838
 11
138.745004
 21
439.257690
  0
LINE
  8
1
 62
7
  6
CONTINUOUS
 10
139.262642
 20
437.325838
 11
139.780280
 21
439.257690
  0
LINE
  8
1
 62
7
  6
CONTINUOUS
 10
138.745004
 20
439.257690
 11
139.780280
 21
439.257690
  0
LINE
  8
1
 62
7
  6
CONTINUOUS
 10
139.262642
 20
437.808801
 11
139.003823
 21
438.774727
  0
LINE
  8
1
 62
7
  6
CONTINUOUS
 10
139.262642
 20
437.808801
 11
139.521461
 21
438.774727
  0
LINE
  8
1
 62
7
  6
CONTINUOUS
 10
139.003823
 20
438.774727
 11
139.521461
 21
438.774727
  0
LINE
  8
1
 62
7
  6
CONTINUOUS
 10
139.262642
 20
469.825838
 11
139.780280
 21
467.893987
  0
LINE
  8
1
 62
7
  6
CONTINUOUS
 10
139.262642
 20
469.825838
 11
138.745004
 21
467.893987
  0
LINE
  8
1
 62
7
  6
CONTINUOUS
 10
139.780280
 20
467.893987
 11
138.745004
 21
467.893987
  0
LINE
  8
1
 62
7
  6
CONTINUOUS
 10
139.262642
 20
469.342875
 11
139.521461
 21
468.376950
  0
LINE
  8
1
 62
7
  6
CONTINUOUS
 10
139.262642
 20
469.342875
 11
139.003823
 21
468.376950
  0
LINE
  8
1
 62
7
  6
CONTINUOUS
 10
139.521461
 20
468.376950
 11
139.003823
 21
468.376950
  0
TEXT
  8
1
 62
7
  6
CONTINUOUS
 10
139.262642
 20
448.068839
 40
4.000000
 41
0.500000
  1
32.5
  7
KANJI
 50
90.000000
 51
30.000000
  0
ENDBLK
  0
BLOCK
  8
1
 62
7
  6
CONTINUOUS
  2
*D13
 70
    65
 10
0.0
 20
0.0
  0
LINE
  8
1
 62
7
  6
CONTINUOUS
 10
123.129323
 20
485.428983
 11
165.755097
 21
485.428983
  0
LINE
  8
1
 62
7
  6
CONTINUOUS
 10
123.129323
 20
487.428983
 11
123.129323
 21
469.825838
  0
LINE
  8
1
 62
7
  6
CONTINUOUS
 10
165.755097
 20
487.428983
 11
165.755097
 21
469.825838
  0
LINE
  8
1
 62
7
  6
CONTINUOUS
 10
123.129323
 20
485.428983
 11
125.061175
 21
485.946621
  0
LINE
  8
1
 62
7
  6
CONTINUOUS
 10
123.129323
 20
485.428983
 11
125.061175
 21
484.911345
  0
LINE
  8
1
 62
7
  6
CONTINUOUS
 10
125.061175
 20
485.946621
 11
125.061175
 21
484.911345
  0
LINE
  8
1
 62
7
  6
CONTINUOUS
 10
123.612286
 20
485.428983
 11
124.578212
 21
485.687802
  0
LINE
  8
1
 62
7
  6
CONTINUOUS
 10
123.612286
 20
485.428983
 11
124.578212
 21
485.170164
  0
LINE
  8
1
 62
7
  6
CONTINUOUS
 10
124.578212
 20
485.687802
 11
124.578212
 21
485.170164
  0
LINE
  8
1
 62
7
  6
CONTINUOUS
 10
165.755097
 20
485.428983
 11
163.823245
 21
484.911345
  0
LINE
  8
1
 62
7
  6
CONTINUOUS
 10
165.755097
 20
485.428983
 11
163.823245
 21
485.946621
  0
LINE
  8
1
 62
7
  6
CONTINUOUS
 10
163.823245
 20
484.911345
 11
163.823245
 21
485.946621
  0
LINE
  8
1
 62
7
  6
CONTINUOUS
 10
165.272134
 20
485.428983
 11
164.306208
 21
485.170164
  0
LINE
  8
1
 62
7
  6
CONTINUOUS
 10
165.272134
 20
485.428983
 11
164.306208
 21
485.687802
  0
LINE
  8
1
 62
7
  6
CONTINUOUS
 10
164.306208
 20
485.170164
 11
164.306208
 21
485.687802
  0
TEXT
  8
1
 62
7
  6
CONTINUOUS
 10
138.450532
 20
485.428983
 40
4.000000
 41
0.583333
  1
ｹｰﾌﾞﾙ長
  7
KANJI
 50
0.000000
 51
30.000000
  0
ENDBLK
  0
BLOCK
  8
1
 62
7
  6
CONTINUOUS
  2
*D14
 70
    65
 10
0.0
 20
0.0
  0
LINE
  8
1
 62
7
  6
CONTINUOUS
 10
165.755097
 20
485.428983
 11
221.580053
 21
485.428983
  0
LINE
  8
1
 62
7
  6
CONTINUOUS
 10
165.755097
 20
487.428983
 11
165.755097
 21
471.825838
  0
LINE
  8
1
 62
7
  6
CONTINUOUS
 10
221.580053
 20
487.428983
 11
221.580053
 21
475.835002
  0
LINE
  8
1
 62
7
  6
CONTINUOUS
 10
165.755097
 20
485.428983
 11
167.686948
 21
485.946621
  0
LINE
  8
1
 62
7
  6
CONTINUOUS
 10
165.755097
 20
485.428983
 11
167.686948
 21
484.911345
  0
LINE
  8
1
 62
7
  6
CONTINUOUS
 10
167.686948
 20
485.946621
 11
167.686948
 21
484.911345
  0
LINE
  8
1
 62
7
  6
CONTINUOUS
 10
166.238060
 20
485.428983
 11
167.203985
 21
485.687802
  0
LINE
  8
1
 62
7
  6
CONTINUOUS
 10
166.238060
 20
485.428983
 11
167.203985
 21
485.170164
  0
LINE
  8
1
 62
7
  6
CONTINUOUS
 10
167.203985
 20
485.687802
 11
167.203985
 21
485.170164
  0
LINE
  8
1
 62
7
  6
CONTINUOUS
 10
221.580053
 20
485.428983
 11
219.648201
 21
484.911345
  0
LINE
  8
1
 62
7
  6
CONTINUOUS
 10
221.580053
 20
485.428983
 11
219.648201
 21
485.946621
  0
LINE
  8
1
 62
7
  6
CONTINUOUS
 10
219.648201
 20
484.911345
 11
219.648201
 21
485.946621
  0
LINE
  8
1
 62
7
  6
CONTINUOUS
 10
221.097090
 20
485.428983
 11
220.131164
 21
485.170164
  0
LINE
  8
1
 62
7
  6
CONTINUOUS
 10
221.097090
 20
485.428983
 11
220.131164
 21
485.687802
  0
LINE
  8
1
 62
7
  6
CONTINUOUS
 10
220.131164
 20
485.170164
 11
220.131164
 21
485.687802
  0
TEXT
  8
1
 62
7
  6
CONTINUOUS
 10
191.066897
 20
485.428983
 40
4.000000
 41
0.500000
  1
100
  7
KANJI
 50
0.000000
 51
30.000000
  0
ENDBLK
  0
BLOCK
  8
1
 62
7
  6
CONTINUOUS
  2
*D15
 70
    65
 10
0.0
 20
0.0
  0
LINE
  8
1
 62
7
  6
CONTINUOUS
 10
149.631486
 20
459.925838
 11
149.631486
 21
484.525838
  0
LINE
  8
1
 62
7
  6
CONTINUOUS
 10
149.631486
 20
467.925838
 11
150.149124
 21
465.993987
  0
LINE
  8
1
 62
7
  6
CONTINUOUS
 10
149.631486
 20
467.925838
 11
149.113848
 21
465.993987
  0
LINE
  8
1
 62
7
  6
CONTINUOUS
 10
150.149124
 20
465.993987
 11
149.113848
 21
465.993987
  0
LINE
  8
1
 62
7
  6
CONTINUOUS
 10
149.631486
 20
467.442875
 11
149.890305
 21
466.476950
  0
LINE
  8
1
 62
7
  6
CONTINUOUS
 10
149.631486
 20
467.442875
 11
149.372667
 21
466.476950
  0
LINE
  8
1
 62
7
  6
CONTINUOUS
 10
149.890305
 20
466.476950
 11
149.372667
 21
466.476950
  0
LINE
  8
1
 62
7
  6
CONTINUOUS
 10
149.631486
 20
471.725838
 11
149.113848
 21
473.657690
  0
LINE
  8
1
 62
7
  6
CONTINUOUS
 10
149.631486
 20
471.725838
 11
150.149124
 21
473.657690
  0
LINE
  8
1
 62
7
  6
CONTINUOUS
 10
149.113848
 20
473.657690
 11
150.149124
 21
473.657690
  0
LINE
  8
1
 62
7
  6
CONTINUOUS
 10
149.631486
 20
472.208801
 11
149.372667
 21
473.174727
  0
LINE
  8
1
 62
7
  6
CONTINUOUS
 10
149.631486
 20
472.208801
 11
149.890305
 21
473.174727
  0
LINE
  8
1
 62
7
  6
CONTINUOUS
 10
149.372667
 20
473.174727
 11
149.890305
 21
473.174727
  0
TEXT
  8
1
 62
7
  6
CONTINUOUS
 10
149.631486
 20
473.525838
 40
4.000000
 41
0.625000
  1
φ3.8
  7
KANJI
 50
90.000000
 51
30.000000
  0
ENDBLK
  0
BLOCK
  8
1
 62
7
  6
CONTINUOUS
  2
*D16
 70
    65
 10
0.0
 20
0.0
  0
LINE
  8
1
 62
7
  6
CONTINUOUS
 10
130.566208
 20
429.325838
 11
130.566208
 21
449.325838
  0
LINE
  8
1
 62
7
  6
CONTINUOUS
 10
134.566208
 20
437.325838
 11
127.129323
 21
437.325838
  0
LINE
  8
1
 62
7
  6
CONTINUOUS
 10
134.566208
 20
441.325838
 11
121.744828
 21
441.325838
  0
LINE
  8
1
 62
7
  6
CONTINUOUS
 10
130.566208
 20
437.325838
 11
131.083846
 21
435.393987
  0
LINE
  8
1
 62
7
  6
CONTINUOUS
 10
130.566208
 20
437.325838
 11
130.048570
 21
435.393987
  0
LINE
  8
1
 62
7
  6
CONTINUOUS
 10
131.083846
 20
435.393987
 11
130.048570
 21
435.393987
  0
LINE
  8
1
 62
7
  6
CONTINUOUS
 10
130.566208
 20
436.842875
 11
130.825027
 21
435.876950
  0
LINE
  8
1
 62
7
  6
CONTINUOUS
 10
130.566208
 20
436.842875
 11
130.307389
 21
435.876950
  0
LINE
  8
1
 62
7
  6
CONTINUOUS
 10
130.825027
 20
435.876950
 11
130.307389
 21
435.876950
  0
LINE
  8
1
 62
7
  6
CONTINUOUS
 10
130.566208
 20
441.325838
 11
130.048570
 21
443.257690
  0
LINE
  8
1
 62
7
  6
CONTINUOUS
 10
130.566208
 20
441.325838
 11
131.083846
 21
443.257690
  0
LINE
  8
1
 62
7
  6
CONTINUOUS
 10
130.048570
 20
443.257690
 11
131.083846
 21
443.257690
  0
LINE
  8
1
 62
7
  6
CONTINUOUS
 10
130.566208
 20
441.808801
 11
130.307389
 21
442.774727
  0
LINE
  8
1
 62
7
  6
CONTINUOUS
 10
130.566208
 20
441.808801
 11
130.825027
 21
442.774727
  0
LINE
  8
1
 62
7
  6
CONTINUOUS
 10
130.307389
 20
442.774727
 11
130.825027
 21
442.774727
  0
TEXT
  8
1
 62
7
  6
CONTINUOUS
 10
130.566208
 20
438.332098
 40
4.000000
 41
0.500000
  1
4
  7
KANJI
 50
90.000000
 51
30.000000
  0
ENDBLK
  0
BLOCK
  8
1
 62
7
  6
CONTINUOUS
  2
*D17
 70
    65
 10
0.0
 20
0.0
  0
LINE
  8
1
 62
7
  6
CONTINUOUS
 10
305.635396
 20
437.325838
 11
305.635396
 21
463.325840
  0
LINE
  8
1
 62
7
  6
CONTINUOUS
 10
307.635396
 20
437.325838
 11
289.925930
 21
437.325838
  0
LINE
  8
1
 62
7
  6
CONTINUOUS
 10
307.635396
 20
463.325840
 11
286.784055
 21
463.325840
  0
LINE
  8
1
 62
7
  6
CONTINUOUS
 10
305.635396
 20
437.325838
 11
305.117758
 21
439.257690
  0
LINE
  8
1
 62
7
  6
CONTINUOUS
 10
305.635396
 20
437.325838
 11
306.153034
 21
439.257690
  0
LINE
  8
1
 62
7
  6
CONTINUOUS
 10
305.117758
 20
439.257690
 11
306.153034
 21
439.257690
  0
LINE
  8
1
 62
7
  6
CONTINUOUS
 10
305.635396
 20
437.808801
 11
305.376577
 21
438.774727
  0
LINE
  8
1
 62
7
  6
CONTINUOUS
 10
305.635396
 20
437.808801
 11
305.894215
 21
438.774727
  0
LINE
  8
1
 62
7
  6
CONTINUOUS
 10
305.376577
 20
438.774727
 11
305.894215
 21
438.774727
  0
LINE
  8
1
 62
7
  6
CONTINUOUS
 10
305.635396
 20
463.325840
 11
306.153034
 21
461.393989
  0
LINE
  8
1
 62
7
  6
CONTINUOUS
 10
305.635396
 20
463.325840
 11
305.117758
 21
461.393989
  0
LINE
  8
1
 62
7
  6
CONTINUOUS
 10
306.153034
 20
461.393989
 11
305.117758
 21
461.393989
  0
LINE
  8
1
 62
7
  6
CONTINUOUS
 10
305.635396
 20
462.842877
 11
305.894215
 21
461.876951
  0
LINE
  8
1
 62
7
  6
CONTINUOUS
 10
305.635396
 20
462.842877
 11
305.376577
 21
461.876951
  0
LINE
  8
1
 62
7
  6
CONTINUOUS
 10
305.894215
 20
461.876951
 11
305.376577
 21
461.876951
  0
TEXT
  8
1
 62
7
  6
CONTINUOUS
 10
305.635396
 20
450.015537
 40
4.000000
 41
0.500000
  1
26
  7
KANJI
 50
90.000000
 51
30.000000
  0
ENDBLK
  0
BLOCK
  8
1
 62
7
  6
CONTINUOUS
  2
*D18
 70
    65
 10
0.0
 20
0.0
  0
LINE
  8
1
 62
7
  6
CONTINUOUS
 10
299.102237
 20
437.325838
 11
299.102237
 21
458.725840
  0
LINE
  8
1
 62
7
  6
CONTINUOUS
 10
301.102237
 20
437.325838
 11
288.217027
 21
437.325838
  0
LINE
  8
1
 62
7
  6
CONTINUOUS
 10
301.102237
 20
458.725840
 11
287.425930
 21
458.725840
  0
LINE
  8
1
 62
7
  6
CONTINUOUS
 10
299.102237
 20
437.325838
 11
298.584599
 21
439.257690
  0
LINE
  8
1
 62
7
  6
CONTINUOUS
 10
299.102237
 20
437.325838
 11
299.619875
 21
439.257690
  0
LINE
  8
1
 62
7
  6
CONTINUOUS
 10
298.584599
 20
439.257690
 11
299.619875
 21
439.257690
  0
LINE
  8
1
 62
7
  6
CONTINUOUS
 10
299.102237
 20
437.808801
 11
298.843418
 21
438.774727
  0
LINE
  8
1
 62
7
  6
CONTINUOUS
 10
299.102237
 20
437.808801
 11
299.361056
 21
438.774727
  0
LINE
  8
1
 62
7
  6
CONTINUOUS
 10
298.843418
 20
438.774727
 11
299.361056
 21
438.774727
  0
LINE
  8
1
 62
7
  6
CONTINUOUS
 10
299.102237
 20
458.725840
 11
299.619875
 21
456.793989
  0
LINE
  8
1
 62
7
  6
CONTINUOUS
 10
299.102237
 20
458.725840
 11
298.584599
 21
456.793989
  0
LINE
  8
1
 62
7
  6
CONTINUOUS
 10
299.619875
 20
456.793989
 11
298.584599
 21
456.793989
  0
LINE
  8
1
 62
7
  6
CONTINUOUS
 10
299.102237
 20
458.242877
 11
299.361056
 21
457.276951
  0
LINE
  8
1
 62
7
  6
CONTINUOUS
 10
299.102237
 20
458.242877
 11
298.843418
 21
457.276951
  0
LINE
  8
1
 62
7
  6
CONTINUOUS
 10
299.361056
 20
457.276951
 11
298.843418
 21
457.276951
  0
TEXT
  8
1
 62
7
  6
CONTINUOUS
 10
299.102237
 20
445.590053
 40
4.000000
 41
0.500000
  1
21.4
  7
KANJI
 50
90.000000
 51
30.000000
  0
ENDBLK
  0
BLOCK
  8
1
 62
7
  6
CONTINUOUS
  2
*D19
 70
    65
 10
0.0
 20
0.0
  0
LINE
  8
1
 62
7
  6
CONTINUOUS
 10
263.925934
 20
494.026364
 11
289.925934
 21
494.026364
  0
LINE
  8
1
 62
7
  6
CONTINUOUS
 10
263.925934
 20
498.026364
 11
263.925934
 21
482.325838
  0
LINE
  8
1
 62
7
  6
CONTINUOUS
 10
289.925934
 20
498.026364
 11
289.925934
 21
482.325838
  0
LINE
  8
1
 62
7
  6
CONTINUOUS
 10
263.925934
 20
494.026364
 11
265.857786
 21
494.544002
  0
LINE
  8
1
 62
7
  6
CONTINUOUS
 10
263.925934
 20
494.026364
 11
265.857786
 21
493.508726
  0
LINE
  8
1
 62
7
  6
CONTINUOUS
 10
265.857786
 20
494.544002
 11
265.857786
 21
493.508726
  0
LINE
  8
1
 62
7
  6
CONTINUOUS
 10
264.408897
 20
494.026364
 11
265.374823
 21
494.285183
  0
LINE
  8
1
 62
7
  6
CONTINUOUS
 10
264.408897
 20
494.026364
 11
265.374823
 21
493.767545
  0
LINE
  8
1
 62
7
  6
CONTINUOUS
 10
265.374823
 20
494.285183
 11
265.374823
 21
493.767545
  0
LINE
  8
1
 62
7
  6
CONTINUOUS
 10
289.925934
 20
494.026364
 11
287.994082
 21
493.508726
  0
LINE
  8
1
 62
7
  6
CONTINUOUS
 10
289.925934
 20
494.026364
 11
287.994082
 21
494.544002
  0
LINE
  8
1
 62
7
  6
CONTINUOUS
 10
287.994082
 20
493.508726
 11
287.994082
 21
494.544002
  0
LINE
  8
1
 62
7
  6
CONTINUOUS
 10
289.442971
 20
494.026364
 11
288.477045
 21
493.767545
  0
LINE
  8
1
 62
7
  6
CONTINUOUS
 10
289.442971
 20
494.026364
 11
288.477045
 21
494.285183
  0
LINE
  8
1
 62
7
  6
CONTINUOUS
 10
288.477045
 20
493.767545
 11
288.477045
 21
494.285183
  0
TEXT
  8
1
 62
7
  6
CONTINUOUS
 10
272.925934
 20
494.026364
 40
4.000000
 41
0.500000
  1
26.5
  7
KANJI
 50
0.000000
 51
30.000000
  0
ENDBLK
  0
BLOCK
  8
1
 62
7
  6
CONTINUOUS
  2
*D20
 70
    65
 10
0.0
 20
0.0
  0
LINE
  8
1
 62
7
  6
CONTINUOUS
 10
15.114819
 20
432.825838
 11
15.114819
 21
501.247376
  0
LINE
  8
1
 62
7
  6
CONTINUOUS
 10
15.114819
 20
440.825838
 11
15.632457
 21
438.893987
  0
LINE
  8
1
 62
7
  6
CONTINUOUS
 10
15.114819
 20
440.825838
 11
14.597181
 21
438.893987
  0
LINE
  8
1
 62
7
  6
CONTINUOUS
 10
15.632457
 20
438.893987
 11
14.597181
 21
438.893987
  0
LINE
  8
1
 62
7
  6
CONTINUOUS
 10
15.114819
 20
440.342875
 11
15.373638
 21
439.376950
  0
LINE
  8
1
 62
7
  6
CONTINUOUS
 10
15.114819
 20
440.342875
 11
14.856000
 21
439.376950
  0
LINE
  8
1
 62
7
  6
CONTINUOUS
 10
15.373638
 20
439.376950
 11
14.856000
 21
439.376950
  0
LINE
  8
1
 62
7
  6
CONTINUOUS
 10
15.114819
 20
463.825838
 11
14.597181
 21
465.757690
  0
LINE
  8
1
 62
7
  6
CONTINUOUS
 10
15.114819
 20
463.825838
 11
15.632457
 21
465.757690
  0
LINE
  8
1
 62
7
  6
CONTINUOUS
 10
14.597181
 20
465.757690
 11
15.632457
 21
465.757690
  0
LINE
  8
1
 62
7
  6
CONTINUOUS
 10
15.114819
 20
464.308801
 11
14.856000
 21
465.274727
  0
LINE
  8
1
 62
7
  6
CONTINUOUS
 10
15.114819
 20
464.308801
 11
15.373638
 21
465.274727
  0
LINE
  8
1
 62
7
  6
CONTINUOUS
 10
14.856000
 20
465.274727
 11
15.373638
 21
465.274727
  0
TEXT
  8
1
 62
7
  6
CONTINUOUS
 10
15.114819
 20
466.247376
 40
4.000000
 41
0.708333
  1
φ23(ﾚﾝｽﾞ有効径）
  7
KANJI
 50
90.000000
 51
30.000000
  0
ENDBLK
  0
BLOCK
  8
1
 62
7
  6
CONTINUOUS
  2
*D21
 70
    65
 10
0.0
 20
0.0
  0
LINE
  8
1
 62
7
  6
CONTINUOUS
 10
10.837041
 20
437.325838
 11
10.837041
 21
452.325838
  0
LINE
  8
1
 62
7
  6
CONTINUOUS
 10
8.837041
 20
437.325838
 11
18.129323
 21
437.325838
  0
LINE
  8
1
 62
7
  6
CONTINUOUS
 10
8.837041
 20
452.325838
 11
12.131141
 21
452.325838
  0
LINE
  8
1
 62
7
  6
CONTINUOUS
 10
10.837041
 20
437.325838
 11
10.319403
 21
439.257690
  0
LINE
  8
1
 62
7
  6
CONTINUOUS
 10
10.837041
 20
437.325838
 11
11.354679
 21
439.257690
  0
LINE
  8
1
 62
7
  6
CONTINUOUS
 10
10.319403
 20
439.257690
 11
11.354679
 21
439.257690
  0
LINE
  8
1
 62
7
  6
CONTINUOUS
 10
10.837041
 20
437.808801
 11
10.578222
 21
438.774727
  0
LINE
  8
1
 62
7
  6
CONTINUOUS
 10
10.837041
 20
437.808801
 11
11.095860
 21
438.774727
  0
LINE
  8
1
 62
7
  6
CONTINUOUS
 10
10.578222
 20
438.774727
 11
11.095860
 21
438.774727
  0
LINE
  8
1
 62
7
  6
CONTINUOUS
 10
10.837041
 20
452.325838
 11
11.354679
 21
450.393987
  0
LINE
  8
1
 62
7
  6
CONTINUOUS
 10
10.837041
 20
452.325838
 11
10.319403
 21
450.393987
  0
LINE
  8
1
 62
7
  6
CONTINUOUS
 10
11.354679
 20
450.393987
 11
10.319403
 21
450.393987
  0
LINE
  8
1
 62
7
  6
CONTINUOUS
 10
10.837041
 20
451.842875
 11
11.095860
 21
450.876950
  0
LINE
  8
1
 62
7
  6
CONTINUOUS
 10
10.837041
 20
451.842875
 11
10.578222
 21
450.876950
  0
LINE
  8
1
 62
7
  6
CONTINUOUS
 10
11.095860
 20
450.876950
 11
10.578222
 21
450.876950
  0
TEXT
  8
1
 62
7
  6
CONTINUOUS
 10
10.837041
 20
443.525154
 40
4.000000
 41
0.500000
  1
15
  7
KANJI
 50
90.000000
 51
30.000000
  0
ENDBLK
  0
BLOCK
  8
1
 62
7
  6
CONTINUOUS
  2
*D22
 70
    65
 10
0.0
 20
0.0
  0
LINE
  8
1
 62
7
  6
CONTINUOUS
 10
3.781486
 20
465.827072
 11
3.781486
 21
438.824604
  0
LINE
  8
1
 62
7
  6
CONTINUOUS
 10
1.781486
 20
465.827072
 11
17.129323
 21
465.827072
  0
LINE
  8
1
 62
7
  6
CONTINUOUS
 10
1.781486
 20
438.824604
 11
17.129323
 21
438.824604
  0
LINE
  8
1
 62
7
  6
CONTINUOUS
 10
3.781486
 20
465.827072
 11
4.299124
 21
463.895221
  0
LINE
  8
1
 62
7
  6
CONTINUOUS
 10
3.781486
 20
465.827072
 11
3.263848
 21
463.895221
  0
LINE
  8
1
 62
7
  6
CONTINUOUS
 10
4.299124
 20
463.895221
 11
3.263848
 21
463.895221
  0
LINE
  8
1
 62
7
  6
CONTINUOUS
 10
3.781486
 20
465.344109
 11
4.040305
 21
464.378183
  0
LINE
  8
1
 62
7
  6
CONTINUOUS
 10
3.781486
 20
465.344109
 11
3.522667
 21
464.378183
  0
LINE
  8
1
 62
7
  6
CONTINUOUS
 10
4.040305
 20
464.378183
 11
3.522667
 21
464.378183
  0
LINE
  8
1
 62
7
  6
CONTINUOUS
 10
3.781486
 20
438.824604
 11
3.263848
 21
440.756456
  0
LINE
  8
1
 62
7
  6
CONTINUOUS
 10
3.781486
 20
438.824604
 11
4.299124
 21
440.756456
  0
LINE
  8
1
 62
7
  6
CONTINUOUS
 10
3.263848
 20
440.756456
 11
4.299124
 21
440.756456
  0
LINE
  8
1
 62
7
  6
CONTINUOUS
 10
3.781486
 20
439.307567
 11
3.522667
 21
440.273493
  0
LINE
  8
1
 62
7
  6
CONTINUOUS
 10
3.781486
 20
439.307567
 11
4.040305
 21
440.273493
  0
LINE
  8
1
 62
7
  6
CONTINUOUS
 10
3.522667
 20
440.273493
 11
4.040305
 21
440.273493
  0
TEXT
  8
1
 62
7
  6
CONTINUOUS
 10
3.781486
 20
444.325838
 40
4.000000
 41
0.500000
  1
M27P0.75
  7
KANJI
 50
90.000000
 51
30.000000
  0
ENDBLK
  0
BLOCK
  8
1
 62
7
  6
CONTINUOUS
  2
*D23
 70
    65
 10
0.0
 20
0.0
  0
LINE
  8
1
 62
7
  6
CONTINUOUS
 10
278.625930
 20
484.607936
 11
293.925930
 21
484.607936
  0
LINE
  8
1
 62
7
  6
CONTINUOUS
 10
282.625930
 20
486.607936
 11
282.625930
 21
467.282303
  0
LINE
  8
1
 62
7
  6
CONTINUOUS
 10
289.925930
 20
486.607936
 11
289.925930
 21
467.595269
  0
LINE
  8
1
 62
7
  6
CONTINUOUS
 10
282.625930
 20
484.607936
 11
280.694078
 21
484.090298
  0
LINE
  8
1
 62
7
  6
CONTINUOUS
 10
282.625930
 20
484.607936
 11
280.694078
 21
485.125574
  0
LINE
  8
1
 62
7
  6
CONTINUOUS
 10
280.694078
 20
484.090298
 11
280.694078
 21
485.125574
  0
LINE
  8
1
 62
7
  6
CONTINUOUS
 10
282.142967
 20
484.607936
 11
281.177041
 21
484.349117
  0
LINE
  8
1
 62
7
  6
CONTINUOUS
 10
282.142967
 20
484.607936
 11
281.177041
 21
484.866755
  0
LINE
  8
1
 62
7
  6
CONTINUOUS
 10
281.177041
 20
484.349117
 11
281.177041
 21
484.866755
  0
LINE
  8
1
 62
7
  6
CONTINUOUS
 10
289.925930
 20
484.607936
 11
291.857782
 21
485.125574
  0
LINE
  8
1
 62
7
  6
CONTINUOUS
 10
289.925930
 20
484.607936
 11
291.857782
 21
484.090298
  0
LINE
  8
1
 62
7
  6
CONTINUOUS
 10
291.857782
 20
485.125574
 11
291.857782
 21
484.090298
  0
LINE
  8
1
 62
7
  6
CONTINUOUS
 10
290.408893
 20
484.607936
 11
291.374819
 21
484.866755
  0
LINE
  8
1
 62
7
  6
CONTINUOUS
 10
290.408893
 20
484.607936
 11
291.374819
 21
484.349117
  0
LINE
  8
1
 62
7
  6
CONTINUOUS
 10
291.374819
 20
484.866755
 11
291.374819
 21
484.349117
  0
TEXT
  8
1
 62
7
  6
CONTINUOUS
 10
283.153280
 20
484.607936
 40
4.000000
 41
0.500000
  1
7.6
  7
KANJI
 50
0.000000
 51
30.000000
  0
ENDBLK
  0
BLOCK
  8
1
 62
7
  6
CONTINUOUS
  2
*D24
 70
    65
 10
0.0
 20
0.0
  0
LINE
  8
1
 62
7
  6
CONTINUOUS
 10
279.225930
 20
449.590053
 11
293.925930
 21
449.590053
  0
LINE
  8
1
 62
7
  6
CONTINUOUS
 10
283.225930
 20
447.590053
 11
283.225930
 21
453.947697
  0
LINE
  8
1
 62
7
  6
CONTINUOUS
 10
289.925930
 20
447.590053
 11
289.925930
 21
452.015537
  0
LINE
  8
1
 62
7
  6
CONTINUOUS
 10
283.225930
 20
449.590053
 11
281.294078
 21
449.072414
  0
LINE
  8
1
 62
7
  6
CONTINUOUS
 10
283.225930
 20
449.590053
 11
281.294078
 21
450.107691
  0
LINE
  8
1
 62
7
  6
CONTINUOUS
 10
281.294078
 20
449.072414
 11
281.294078
 21
450.107691
  0
LINE
  8
1
 62
7
  6
CONTINUOUS
 10
282.742967
 20
449.590053
 11
281.777041
 21
449.331233
  0
LINE
  8
1
 62
7
  6
CONTINUOUS
 10
282.742967
 20
449.590053
 11
281.777041
 21
449.848872
  0
LINE
  8
1
 62
7
  6
CONTINUOUS
 10
281.777041
 20
449.331233
 11
281.777041
 21
449.848872
  0
LINE
  8
1
 62
7
  6
CONTINUOUS
 10
289.925930
 20
449.590053
 11
291.857782
 21
450.107691
  0
LINE
  8
1
 62
7
  6
CONTINUOUS
 10
289.925930
 20
449.590053
 11
291.857782
 21
449.072414
  0
LINE
  8
1
 62
7
  6
CONTINUOUS
 10
291.857782
 20
450.107691
 11
291.857782
 21
449.072414
  0
LINE
  8
1
 62
7
  6
CONTINUOUS
 10
290.408893
 20
449.590053
 11
291.374819
 21
449.848872
  0
LINE
  8
1
 62
7
  6
CONTINUOUS
 10
290.408893
 20
449.590053
 11
291.374819
 21
449.331233
  0
LINE
  8
1
 62
7
  6
CONTINUOUS
 10
291.374819
 20
449.848872
 11
291.374819
 21
449.331233
  0
TEXT
  8
1
 62
7
  6
CONTINUOUS
 10
285.192401
 20
449.590053
 40
4.000000
 41
0.500000
  1
7
  7
KANJI
 50
0.000000
 51
30.000000
  0
ENDBLK
  0
BLOCK
  8
1
 62
7
  6
CONTINUOUS
  2
*D25
 70
    65
 10
0.0
 20
0.0
  0
LINE
  8
1
 62
7
  6
CONTINUOUS
 10
256.713886
 20
170.106766
 11
283.213886
 21
170.106766
  0
LINE
  8
1
 62
7
  6
CONTINUOUS
 10
256.713886
 20
174.106766
 11
256.713886
 21
158.606240
  0
LINE
  8
1
 62
7
  6
CONTINUOUS
 10
283.213886
 20
174.106766
 11
283.213886
 21
158.606240
  0
LINE
  8
1
 62
7
  6
CONTINUOUS
 10
256.713886
 20
170.106766
 11
258.645737
 21
170.624404
  0
LINE
  8
1
 62
7
  6
CONTINUOUS
 10
256.713886
 20
170.106766
 11
258.645737
 21
169.589128
  0
LINE
  8
1
 62
7
  6
CONTINUOUS
 10
258.645737
 20
170.624404
 11
258.645737
 21
169.589128
  0
LINE
  8
1
 62
7
  6
CONTINUOUS
 10
257.196849
 20
170.106766
 11
258.162774
 21
170.365585
  0
LINE
  8
1
 62
7
  6
CONTINUOUS
 10
257.196849
 20
170.106766
 11
258.162774
 21
169.847947
  0
LINE
  8
1
 62
7
  6
CONTINUOUS
 10
258.162774
 20
170.365585
 11
258.162774
 21
169.847947
  0
LINE
  8
1
 62
7
  6
CONTINUOUS
 10
283.213886
 20
170.106766
 11
281.282034
 21
169.589128
  0
LINE
  8
1
 62
7
  6
CONTINUOUS
 10
283.213886
 20
170.106766
 11
281.282034
 21
170.624404
  0
LINE
  8
1
 62
7
  6
CONTINUOUS
 10
281.282034
 20
169.589128
 11
281.282034
 21
170.624404
  0
LINE
  8
1
 62
7
  6
CONTINUOUS
 10
282.730923
 20
170.106766
 11
281.764997
 21
169.847947
  0
LINE
  8
1
 62
7
  6
CONTINUOUS
 10
282.730923
 20
170.106766
 11
281.764997
 21
170.365585
  0
LINE
  8
1
 62
7
  6
CONTINUOUS
 10
281.764997
 20
169.847947
 11
281.764997
 21
170.365585
  0
TEXT
  8
1
 62
7
  6
CONTINUOUS
 10
265.745919
 20
170.106766
 40
4.000000
 41
0.500000
  1
26.5
  7
KANJI
 50
0.000000
 51
30.000000
  0
ENDBLK
  0
BLOCK
  8
1
 62
7
  6
CONTINUOUS
  2
*D26
 70
    65
 10
0.0
 20
0.0
  0
LINE
  8
1
 62
7
  6
CONTINUOUS
 10
160.000000
 20
161.509385
 11
211.470371
 21
161.509385
  0
LINE
  8
1
 62
7
  6
CONTINUOUS
 10
160.000000
 20
163.509385
 11
160.000000
 21
147.906240
  0
LINE
  8
1
 62
7
  6
CONTINUOUS
 10
211.470371
 20
163.509385
 11
211.470371
 21
151.915404
  0
LINE
  8
1
 62
7
  6
CONTINUOUS
 10
160.000000
 20
161.509385
 11
161.931852
 21
162.027023
  0
LINE
  8
1
 62
7
  6
CONTINUOUS
 10
160.000000
 20
161.509385
 11
161.931852
 21
160.991747
  0
LINE
  8
1
 62
7
  6
CONTINUOUS
 10
161.931852
 20
162.027023
 11
161.931852
 21
160.991747
  0
LINE
  8
1
 62
7
  6
CONTINUOUS
 10
160.482963
 20
161.509385
 11
161.448889
 21
161.768204
  0
LINE
  8
1
 62
7
  6
CONTINUOUS
 10
160.482963
 20
161.509385
 11
161.448889
 21
161.250566
  0
LINE
  8
1
 62
7
  6
CONTINUOUS
 10
161.448889
 20
161.768204
 11
161.448889
 21
161.250566
  0
LINE
  8
1
 62
7
  6
CONTINUOUS
 10
211.470371
 20
161.509385
 11
209.538519
 21
160.991747
  0
LINE
  8
1
 62
7
  6
CONTINUOUS
 10
211.470371
 20
161.509385
 11
209.538519
 21
162.027023
  0
LINE
  8
1
 62
7
  6
CONTINUOUS
 10
209.538519
 20
160.991747
 11
209.538519
 21
162.027023
  0
LINE
  8
1
 62
7
  6
CONTINUOUS
 10
210.987408
 20
161.509385
 11
210.021482
 21
161.250566
  0
LINE
  8
1
 62
7
  6
CONTINUOUS
 10
210.987408
 20
161.509385
 11
210.021482
 21
161.768204
  0
LINE
  8
1
 62
7
  6
CONTINUOUS
 10
210.021482
 20
161.250566
 11
210.021482
 21
161.768204
  0
TEXT
  8
1
 62
7
  6
CONTINUOUS
 10
183.134507
 20
161.509385
 40
4.000000
 41
0.500000
  1
100
  7
KANJI
 50
0.000000
 51
30.000000
  0
ENDBLK
  0
BLOCK
  8
1
 62
7
  6
CONTINUOUS
  2
*D27
 70
    65
 10
0.0
 20
0.0
  0
LINE
  8
1
 62
7
  6
CONTINUOUS
 10
130.461331
 20
161.509385
 11
160.000000
 21
161.509385
  0
LINE
  8
1
 62
7
  6
CONTINUOUS
 10
130.461331
 20
163.509385
 11
130.461331
 21
145.906240
  0
LINE
  8
1
 62
7
  6
CONTINUOUS
 10
160.000000
 20
163.509385
 11
160.000000
 21
145.906240
  0
LINE
  8
1
 62
7
  6
CONTINUOUS
 10
130.461331
 20
161.509385
 11
132.393182
 21
162.027023
  0
LINE
  8
1
 62
7
  6
CONTINUOUS
 10
130.461331
 20
161.509385
 11
132.393182
 21
160.991747
  0
LINE
  8
1
 62
7
  6
CONTINUOUS
 10
132.393182
 20
162.027023
 11
132.393182
 21
160.991747
  0
LINE
  8
1
 62
7
  6
CONTINUOUS
 10
130.944294
 20
161.509385
 11
131.910219
 21
161.768204
  0
LINE
  8
1
 62
7
  6
CONTINUOUS
 10
130.944294
 20
161.509385
 11
131.910219
 21
161.250566
  0
LINE
  8
1
 62
7
  6
CONTINUOUS
 10
131.910219
 20
161.768204
 11
131.910219
 21
161.250566
  0
LINE
  8
1
 62
7
  6
CONTINUOUS
 10
160.000000
 20
161.509385
 11
158.068148
 21
160.991747
  0
LINE
  8
1
 62
7
  6
CONTINUOUS
 10
160.000000
 20
161.509385
 11
158.068148
 21
162.027023
  0
LINE
  8
1
 62
7
  6
CONTINUOUS
 10
158.068148
 20
160.991747
 11
158.068148
 21
162.027023
  0
LINE
  8
1
 62
7
  6
CONTINUOUS
 10
159.517037
 20
161.509385
 11
158.551111
 21
161.250566
  0
LINE
  8
1
 62
7
  6
CONTINUOUS
 10
159.517037
 20
161.509385
 11
158.551111
 21
161.768204
  0
LINE
  8
1
 62
7
  6
CONTINUOUS
 10
158.551111
 20
161.250566
 11
158.551111
 21
161.768204
  0
TEXT
  8
1
 62
7
  6
CONTINUOUS
 10
139.238987
 20
161.509385
 40
4.000000
 41
0.583333
  1
ｹｰﾌﾞﾙ長
  7
KANJI
 50
0.000000
 51
30.000000
  0
ENDBLK
  0
BLOCK
  8
1
 62
7
  6
CONTINUOUS
  2
*D28
 70
    65
 10
0.0
 20
0.0
  0
LINE
  8
1
 62
7
  6
CONTINUOUS
 10
152.560654
 20
136.006240
 11
152.560654
 21
160.357894
  0
LINE
  8
1
 62
7
  6
CONTINUOUS
 10
152.560654
 20
144.006240
 11
153.078292
 21
142.074389
  0
LINE
  8
1
 62
7
  6
CONTINUOUS
 10
152.560654
 20
144.006240
 11
152.043016
 21
142.074389
  0
LINE
  8
1
 62
7
  6
CONTINUOUS
 10
153.078292
 20
142.074389
 11
152.043016
 21
142.074389
  0
LINE
  8
1
 62
7
  6
CONTINUOUS
 10
152.560654
 20
143.523277
 11
152.819473
 21
142.557352
  0
LINE
  8
1
 62
7
  6
CONTINUOUS
 10
152.560654
 20
143.523277
 11
152.301835
 21
142.557352
  0
LINE
  8
1
 62
7
  6
CONTINUOUS
 10
152.819473
 20
142.557352
 11
152.301835
 21
142.557352
  0
LINE
  8
1
 62
7
  6
CONTINUOUS
 10
152.560654
 20
147.806240
 11
152.043016
 21
149.738092
  0
LINE
  8
1
 62
7
  6
CONTINUOUS
 10
152.560654
 20
147.806240
 11
153.078292
 21
149.738092
  0
LINE
  8
1
 62
7
  6
CONTINUOUS
 10
152.043016
 20
149.738092
 11
153.078292
 21
149.738092
  0
LINE
  8
1
 62
7
  6
CONTINUOUS
 10
152.560654
 20
148.289203
 11
152.301835
 21
149.255129
  0
LINE
  8
1
 62
7
  6
CONTINUOUS
 10
152.560654
 20
148.289203
 11
152.819473
 21
149.255129
  0
LINE
  8
1
 62
7
  6
CONTINUOUS
 10
152.301835
 20
149.255129
 11
152.819473
 21
149.255129
  0
TEXT
  8
1
 62
7
  6
CONTINUOUS
 10
152.560654
 20
149.357894
 40
4.000000
 41
0.625000
  1
φ3.8
  7
KANJI
 50
90.000000
 51
30.000000
  0
ENDBLK
  0
BLOCK
  8
1
 62
7
  6
CONTINUOUS
  2
*D29
 70
    65
 10
0.0
 20
0.0
  0
LINE
  8
1
 62
7
  6
CONTINUOUS
 10
138.834799
 20
113.406240
 11
138.834799
 21
145.906240
  0
LINE
  8
1
 62
7
  6
CONTINUOUS
 10
140.834799
 20
113.406240
 11
132.461331
 21
113.406240
  0
LINE
  8
1
 62
7
  6
CONTINUOUS
 10
140.834799
 20
145.906240
 11
136.961331
 21
145.906240
  0
LINE
  8
1
 62
7
  6
CONTINUOUS
 10
138.834799
 20
113.406240
 11
138.317161
 21
115.338092
  0
LINE
  8
1
 62
7
  6
CONTINUOUS
 10
138.834799
 20
113.406240
 11
139.352437
 21
115.338092
  0
LINE
  8
1
 62
7
  6
CONTINUOUS
 10
138.317161
 20
115.338092
 11
139.352437
 21
115.338092
  0
LINE
  8
1
 62
7
  6
CONTINUOUS
 10
138.834799
 20
113.889203
 11
138.575980
 21
114.855129
  0
LINE
  8
1
 62
7
  6
CONTINUOUS
 10
138.834799
 20
113.889203
 11
139.093618
 21
114.855129
  0
LINE
  8
1
 62
7
  6
CONTINUOUS
 10
138.575980
 20
114.855129
 11
139.093618
 21
114.855129
  0
LINE
  8
1
 62
7
  6
CONTINUOUS
 10
138.834799
 20
145.906240
 11
139.352437
 21
143.974389
  0
LINE
  8
1
 62
7
  6
CONTINUOUS
 10
138.834799
 20
145.906240
 11
138.317161
 21
143.974389
  0
LINE
  8
1
 62
7
  6
CONTINUOUS
 10
139.352437
 20
143.974389
 11
138.317161
 21
143.974389
  0
LINE
  8
1
 62
7
  6
CONTINUOUS
 10
138.834799
 20
145.423277
 11
139.093618
 21
144.457352
  0
LINE
  8
1
 62
7
  6
CONTINUOUS
 10
138.834799
 20
145.423277
 11
138.575980
 21
144.457352
  0
LINE
  8
1
 62
7
  6
CONTINUOUS
 10
139.093618
 20
144.457352
 11
138.575980
 21
144.457352
  0
TEXT
  8
1
 62
7
  6
CONTINUOUS
 10
138.834799
 20
127.250000
 40
4.000000
 41
0.500000
  1
32.5
  7
KANJI
 50
90.000000
 51
30.000000
  0
ENDBLK
  0
BLOCK
  8
1
 62
7
  6
CONTINUOUS
  2
*D30
 70
    65
 10
0.0
 20
0.0
  0
LINE
  8
1
 62
7
  6
CONTINUOUS
 10
135.712940
 20
105.406240
 11
135.712940
 21
125.406240
  0
LINE
  8
1
 62
7
  6
CONTINUOUS
 10
139.712940
 20
113.406240
 11
134.461331
 21
113.406240
  0
LINE
  8
1
 62
7
  6
CONTINUOUS
 10
139.712940
 20
117.406240
 11
129.076836
 21
117.406240
  0
LINE
  8
1
 62
7
  6
CONTINUOUS
 10
135.712940
 20
113.406240
 11
136.230578
 21
111.474389
  0
LINE
  8
1
 62
7
  6
CONTINUOUS
 10
135.712940
 20
113.406240
 11
135.195302
 21
111.474389
  0
LINE
  8
1
 62
7
  6
CONTINUOUS
 10
136.230578
 20
111.474389
 11
135.195302
 21
111.474389
  0
LINE
  8
1
 62
7
  6
CONTINUOUS
 10
135.712940
 20
112.923277
 11
135.971759
 21
111.957352
  0
LINE
  8
1
 62
7
  6
CONTINUOUS
 10
135.712940
 20
112.923277
 11
135.454121
 21
111.957352
  0
LINE
  8
1
 62
7
  6
CONTINUOUS
 10
135.971759
 20
111.957352
 11
135.454121
 21
111.957352
  0
LINE
  8
1
 62
7
  6
CONTINUOUS
 10
135.712940
 20
117.406240
 11
135.195302
 21
119.338092
  0
LINE
  8
1
 62
7
  6
CONTINUOUS
 10
135.712940
 20
117.406240
 11
136.230578
 21
119.338092
  0
LINE
  8
1
 62
7
  6
CONTINUOUS
 10
135.195302
 20
119.338092
 11
136.230578
 21
119.338092
  0
LINE
  8
1
 62
7
  6
CONTINUOUS
 10
135.712940
 20
117.889203
 11
135.454121
 21
118.855129
  0
LINE
  8
1
 62
7
  6
CONTINUOUS
 10
135.712940
 20
117.889203
 11
135.971759
 21
118.855129
  0
LINE
  8
1
 62
7
  6
CONTINUOUS
 10
135.454121
 20
118.855129
 11
135.971759
 21
118.855129
  0
TEXT
  8
1
 62
7
  6
CONTINUOUS
 10
135.712940
 20
113.406240
 40
4.000000
 41
0.500000
  1
4
  7
KANJI
 50
90.000000
 51
30.000000
  0
ENDBLK
  0
BLOCK
  8
1
 62
7
  6
CONTINUOUS
  2
*D31
 70
    65
 10
0.0
 20
0.0
  0
LINE
  8
1
 62
7
  6
CONTINUOUS
 10
13.327392
 20
73.917039
 11
13.327392
 21
43.917039
  0
LINE
  8
1
 62
7
  6
CONTINUOUS
 10
11.327392
 20
73.917039
 11
25.407235
 21
73.917039
  0
LINE
  8
1
 62
7
  6
CONTINUOUS
 10
11.327392
 20
43.917039
 11
25.407235
 21
43.917039
  0
LINE
  8
1
 62
7
  6
CONTINUOUS
 10
13.327392
 20
73.917039
 11
13.845030
 21
71.985188
  0
LINE
  8
1
 62
7
  6
CONTINUOUS
 10
13.327392
 20
73.917039
 11
12.809754
 21
71.985188
  0
LINE
  8
1
 62
7
  6
CONTINUOUS
 10
13.845030
 20
71.985188
 11
12.809754
 21
71.985188
  0
LINE
  8
1
 62
7
  6
CONTINUOUS
 10
13.327392
 20
73.434077
 11
13.586211
 21
72.468151
  0
LINE
  8
1
 62
7
  6
CONTINUOUS
 10
13.327392
 20
73.434077
 11
13.068573
 21
72.468151
  0
LINE
  8
1
 62
7
  6
CONTINUOUS
 10
13.586211
 20
72.468151
 11
13.068573
 21
72.468151
  0
LINE
  8
1
 62
7
  6
CONTINUOUS
 10
13.327392
 20
43.917039
 11
12.809754
 21
45.848891
  0
LINE
  8
1
 62
7
  6
CONTINUOUS
 10
13.327392
 20
43.917039
 11
13.845030
 21
45.848891
  0
LINE
  8
1
 62
7
  6
CONTINUOUS
 10
12.809754
 20
45.848891
 11
13.845030
 21
45.848891
  0
LINE
  8
1
 62
7
  6
CONTINUOUS
 10
13.327392
 20
44.400002
 11
13.068573
 21
45.365928
  0
LINE
  8
1
 62
7
  6
CONTINUOUS
 10
13.327392
 20
44.400002
 11
13.586211
 21
45.365928
  0
LINE
  8
1
 62
7
  6
CONTINUOUS
 10
13.068573
 20
45.365928
 11
13.586211
 21
45.365928
  0
TEXT
  8
1
 62
7
  6
CONTINUOUS
 10
13.327392
 20
55.084417
 40
4.000000
 41
0.666667
  1
φ30
  7
KANJI
 50
90.000000
 51
30.000000
  0
ENDBLK
  0
BLOCK
  8
1
 62
7
  6
CONTINUOUS
  2
*D32
 70
    65
 10
0.0
 20
0.0
  0
LINE
  8
1
 62
7
  6
CONTINUOUS
 10
81.407235
 20
39.449503
 11
104.107235
 21
39.449503
  0
LINE
  8
1
 62
7
  6
CONTINUOUS
 10
89.407235
 20
37.449503
 11
89.407235
 21
43.667039
  0
LINE
  8
1
 62
7
  6
CONTINUOUS
 10
96.107235
 20
37.449503
 11
96.107235
 21
56.917039
  0
LINE
  8
1
 62
7
  6
CONTINUOUS
 10
89.407235
 20
39.449503
 11
87.475384
 21
38.931865
  0
LINE
  8
1
 62
7
  6
CONTINUOUS
 10
89.407235
 20
39.449503
 11
87.475384
 21
39.967141
  0
LINE
  8
1
 62
7
  6
CONTINUOUS
 10
87.475384
 20
38.931865
 11
87.475384
 21
39.967141
  0
LINE
  8
1
 62
7
  6
CONTINUOUS
 10
88.924272
 20
39.449503
 11
87.958347
 21
39.190684
  0
LINE
  8
1
 62
7
  6
CONTINUOUS
 10
88.924272
 20
39.449503
 11
87.958347
 21
39.708322
  0
LINE
  8
1
 62
7
  6
CONTINUOUS
 10
87.958347
 20
39.190684
 11
87.958347
 21
39.708322
  0
LINE
  8
1
 62
7
  6
CONTINUOUS
 10
96.107235
 20
39.449503
 11
98.039087
 21
39.967141
  0
LINE
  8
1
 62
7
  6
CONTINUOUS
 10
96.107235
 20
39.449503
 11
98.039087
 21
38.931865
  0
LINE
  8
1
 62
7
  6
CONTINUOUS
 10
98.039087
 20
39.967141
 11
98.039087
 21
38.931865
  0
LINE
  8
1
 62
7
  6
CONTINUOUS
 10
96.590198
 20
39.449503
 11
97.556124
 21
39.708322
  0
LINE
  8
1
 62
7
  6
CONTINUOUS
 10
96.590198
 20
39.449503
 11
97.556124
 21
39.190684
  0
LINE
  8
1
 62
7
  6
CONTINUOUS
 10
97.556124
 20
39.708322
 11
97.556124
 21
39.190684
  0
TEXT
  8
1
 62
7
  6
CONTINUOUS
 10
90.136078
 20
39.449503
 40
4.000000
 41
0.500000
  1
6.7
  7
KANJI
 50
0.000000
 51
30.000000
  0
ENDBLK
  0
BLOCK
  8
1
 62
7
  6
CONTINUOUS
  2
*D33
 70
    65
 10
0.0
 20
0.0
  0
LINE
  8
1
 62
7
  6
CONTINUOUS
 10
96.107235
 20
39.449503
 11
116.107235
 21
39.449503
  0
LINE
  8
1
 62
7
  6
CONTINUOUS
 10
96.107235
 20
37.449503
 11
96.107235
 21
55.687039
  0
LINE
  8
1
 62
7
  6
CONTINUOUS
 10
116.107235
 20
37.449503
 11
116.107235
 21
55.687039
  0
LINE
  8
1
 62
7
  6
CONTINUOUS
 10
96.107235
 20
39.449503
 11
98.039087
 21
39.967141
  0
LINE
  8
1
 62
7
  6
CONTINUOUS
 10
96.107235
 20
39.449503
 11
98.039087
 21
38.931865
  0
LINE
  8
1
 62
7
  6
CONTINUOUS
 10
98.039087
 20
39.967141
 11
98.039087
 21
38.931865
  0
LINE
  8
1
 62
7
  6
CONTINUOUS
 10
96.590198
 20
39.449503
 11
97.556124
 21
39.708322
  0
LINE
  8
1
 62
7
  6
CONTINUOUS
 10
96.590198
 20
39.449503
 11
97.556124
 21
39.190684
  0
LINE
  8
1
 62
7
  6
CONTINUOUS
 10
97.556124
 20
39.708322
 11
97.556124
 21
39.190684
  0
LINE
  8
1
 62
7
  6
CONTINUOUS
 10
116.107235
 20
39.449503
 11
114.175384
 21
38.931865
  0
LINE
  8
1
 62
7
  6
CONTINUOUS
 10
116.107235
 20
39.449503
 11
114.175384
 21
39.967141
  0
LINE
  8
1
 62
7
  6
CONTINUOUS
 10
114.175384
 20
38.931865
 11
114.175384
 21
39.967141
  0
LINE
  8
1
 62
7
  6
CONTINUOUS
 10
115.624272
 20
39.449503
 11
114.658347
 21
39.190684
  0
LINE
  8
1
 62
7
  6
CONTINUOUS
 10
115.624272
 20
39.449503
 11
114.658347
 21
39.708322
  0
LINE
  8
1
 62
7
  6
CONTINUOUS
 10
114.658347
 20
39.190684
 11
114.658347
 21
39.708322
  0
TEXT
  8
1
 62
7
  6
CONTINUOUS
 10
104.423883
 20
39.449503
 40
4.000000
 41
0.500000
  1
20
  7
KANJI
 50
0.000000
 51
30.000000
  0
ENDBLK
  0
BLOCK
  8
1
 62
7
  6
CONTINUOUS
  2
*D34
 70
    65
 10
0.0
 20
0.0
  0
LINE
  8
1
 62
7
  6
CONTINUOUS
 10
80.848273
 20
45.667039
 11
80.848273
 21
72.167039
  0
LINE
  8
1
 62
7
  6
CONTINUOUS
 10
78.848273
 20
45.667039
 11
87.407235
 21
45.667039
  0
LINE
  8
1
 62
7
  6
CONTINUOUS
 10
78.848273
 20
72.167039
 11
87.407235
 21
72.167039
  0
LINE
  8
1
 62
7
  6
CONTINUOUS
 10
80.848273
 20
45.667039
 11
80.330635
 21
47.598891
  0
LINE
  8
1
 62
7
  6
CONTINUOUS
 10
80.848273
 20
45.667039
 11
81.365911
 21
47.598891
  0
LINE
  8
1
 62
7
  6
CONTINUOUS
 10
80.330635
 20
47.598891
 11
81.365911
 21
47.598891
  0
LINE
  8
1
 62
7
  6
CONTINUOUS
 10
80.848273
 20
46.150002
 11
80.589454
 21
47.115928
  0
LINE
  8
1
 62
7
  6
CONTINUOUS
 10
80.848273
 20
46.150002
 11
81.107092
 21
47.115928
  0
LINE
  8
1
 62
7
  6
CONTINUOUS
 10
80.589454
 20
47.115928
 11
81.107092
 21
47.115928
  0
LINE
  8
1
 62
7
  6
CONTINUOUS
 10
80.848273
 20
72.167039
 11
81.365911
 21
70.235188
  0
LINE
  8
1
 62
7
  6
CONTINUOUS
 10
80.848273
 20
72.167039
 11
80.330635
 21
70.235188
  0
LINE
  8
1
 62
7
  6
CONTINUOUS
 10
81.365911
 20
70.235188
 11
80.330635
 21
70.235188
  0
LINE
  8
1
 62
7
  6
CONTINUOUS
 10
80.848273
 20
71.684077
 11
81.107092
 21
70.718151
  0
LINE
  8
1
 62
7
  6
CONTINUOUS
 10
80.848273
 20
71.684077
 11
80.589454
 21
70.718151
  0
LINE
  8
1
 62
7
  6
CONTINUOUS
 10
81.107092
 20
70.718151
 11
80.589454
 21
70.718151
  0
TEXT
  8
1
 62
7
  6
CONTINUOUS
 10
80.848273
 20
54.973827
 40
4.000000
 41
0.500000
  1
26.5
  7
KANJI
 50
90.000000
 51
30.000000
  0
ENDBLK
  0
BLOCK
  8
1
 62
7
  6
CONTINUOUS
  2
*D35
 70
    65
 10
0.0
 20
0.0
  0
LINE
  8
1
 62
7
  6
CONTINUOUS
 10
151.593359
 20
44.661300
 11
151.593359
 21
72.117039
  0
LINE
  8
1
 62
7
  6
CONTINUOUS
 10
153.593359
 20
53.717039
 11
136.907235
 21
53.717039
  0
LINE
  8
1
 62
7
  6
CONTINUOUS
 10
153.593359
 20
64.117039
 11
136.907235
 21
64.117039
  0
LINE
  8
1
 62
7
  6
CONTINUOUS
 10
151.593359
 20
53.717039
 11
152.110997
 21
51.785188
  0
LINE
  8
1
 62
7
  6
CONTINUOUS
 10
151.593359
 20
53.717039
 11
151.075721
 21
51.785188
  0
LINE
  8
1
 62
7
  6
CONTINUOUS
 10
152.110997
 20
51.785188
 11
151.075721
 21
51.785188
  0
LINE
  8
1
 62
7
  6
CONTINUOUS
 10
151.593359
 20
53.234077
 11
151.852178
 21
52.268151
  0
LINE
  8
1
 62
7
  6
CONTINUOUS
 10
151.593359
 20
53.234077
 11
151.334540
 21
52.268151
  0
LINE
  8
1
 62
7
  6
CONTINUOUS
 10
151.852178
 20
52.268151
 11
151.334540
 21
52.268151
  0
LINE
  8
1
 62
7
  6
CONTINUOUS
 10
151.593359
 20
64.117039
 11
151.075721
 21
66.048891
  0
LINE
  8
1
 62
7
  6
CONTINUOUS
 10
151.593359
 20
64.117039
 11
152.110997
 21
66.048891
  0
LINE
  8
1
 62
7
  6
CONTINUOUS
 10
151.075721
 20
66.048891
 11
152.110997
 21
66.048891
  0
LINE
  8
1
 62
7
  6
CONTINUOUS
 10
151.593359
 20
64.600002
 11
151.334540
 21
65.565928
  0
LINE
  8
1
 62
7
  6
CONTINUOUS
 10
151.593359
 20
64.600002
 11
151.852178
 21
65.565928
  0
LINE
  8
1
 62
7
  6
CONTINUOUS
 10
151.334540
 20
65.565928
 11
151.852178
 21
65.565928
  0
TEXT
  8
1
 62
7
  6
CONTINUOUS
 10
151.593359
 20
45.661300
 40
4.000000
 41
0.500000
  1
11
  7
KANJI
 50
90.000000
 51
30.000000
  0
ENDBLK
  0
BLOCK
  8
1
 62
7
  6
CONTINUOUS
  2
*D36
 70
    65
 10
0.0
 20
0.0
  0
LINE
  8
1
 62
7
  6
CONTINUOUS
 10
15.882538
 20
113.406240
 11
15.882538
 21
128.406240
  0
LINE
  8
1
 62
7
  6
CONTINUOUS
 10
13.882538
 20
113.406240
 11
25.461331
 21
113.406240
  0
LINE
  8
1
 62
7
  6
CONTINUOUS
 10
15.882538
 20
113.406240
 11
15.364900
 21
115.338092
  0
LINE
  8
1
 62
7
  6
CONTINUOUS
 10
15.882538
 20
113.406240
 11
16.400176
 21
115.338092
  0
LINE
  8
1
 62
7
  6
CONTINUOUS
 10
15.364900
 20
115.338092
 11
16.400176
 21
115.338092
  0
LINE
  8
1
 62
7
  6
CONTINUOUS
 10
15.882538
 20
113.889203
 11
15.623719
 21
114.855129
  0
LINE
  8
1
 62
7
  6
CONTINUOUS
 10
15.882538
 20
113.889203
 11
16.141357
 21
114.855129
  0
LINE
  8
1
 62
7
  6
CONTINUOUS
 10
15.623719
 20
114.855129
 11
16.141357
 21
114.855129
  0
LINE
  8
1
 62
7
  6
CONTINUOUS
 10
15.882538
 20
128.406240
 11
16.400176
 21
126.474389
  0
LINE
  8
1
 62
7
  6
CONTINUOUS
 10
15.882538
 20
128.406240
 11
15.364900
 21
126.474389
  0
LINE
  8
1
 62
7
  6
CONTINUOUS
 10
16.400176
 20
126.474389
 11
15.364900
 21
126.474389
  0
LINE
  8
1
 62
7
  6
CONTINUOUS
 10
15.882538
 20
127.923277
 11
16.141357
 21
126.957352
  0
LINE
  8
1
 62
7
  6
CONTINUOUS
 10
15.882538
 20
127.923277
 11
15.623719
 21
126.957352
  0
LINE
  8
1
 62
7
  6
CONTINUOUS
 10
16.141357
 20
126.957352
 11
15.623719
 21
126.957352
  0
TEXT
  8
1
 62
7
  6
CONTINUOUS
 10
15.882538
 20
120.325958
 40
4.000000
 41
0.500000
  1
15
  7
KANJI
 50
90.000000
 51
30.000000
  0
ENDBLK
  0
BLOCK
  8
1
 62
7
  6
CONTINUOUS
  2
*D37
 70
    65
 10
0.0
 20
0.0
  0
LINE
  8
1
 62
7
  6
CONTINUOUS
 10
11.133794
 20
141.907474
 11
11.133794
 21
114.905006
  0
LINE
  8
1
 62
7
  6
CONTINUOUS
 10
9.133794
 20
141.907474
 11
24.461331
 21
141.907474
  0
LINE
  8
1
 62
7
  6
CONTINUOUS
 10
9.133794
 20
114.905006
 11
24.461331
 21
114.905006
  0
LINE
  8
1
 62
7
  6
CONTINUOUS
 10
11.133794
 20
141.907474
 11
11.651432
 21
139.975623
  0
LINE
  8
1
 62
7
  6
CONTINUOUS
 10
11.133794
 20
141.907474
 11
10.616156
 21
139.975623
  0
LINE
  8
1
 62
7
  6
CONTINUOUS
 10
11.651432
 20
139.975623
 11
10.616156
 21
139.975623
  0
LINE
  8
1
 62
7
  6
CONTINUOUS
 10
11.133794
 20
141.424511
 11
11.392613
 21
140.458585
  0
LINE
  8
1
 62
7
  6
CONTINUOUS
 10
11.133794
 20
141.424511
 11
10.874975
 21
140.458585
  0
LINE
  8
1
 62
7
  6
CONTINUOUS
 10
11.392613
 20
140.458585
 11
10.874975
 21
140.458585
  0
LINE
  8
1
 62
7
  6
CONTINUOUS
 10
11.133794
 20
114.905006
 11
10.616156
 21
116.836858
  0
LINE
  8
1
 62
7
  6
CONTINUOUS
 10
11.133794
 20
114.905006
 11
11.651432
 21
116.836858
  0
LINE
  8
1
 62
7
  6
CONTINUOUS
 10
10.616156
 20
116.836858
 11
11.651432
 21
116.836858
  0
LINE
  8
1
 62
7
  6
CONTINUOUS
 10
11.133794
 20
115.387969
 11
10.874975
 21
116.353895
  0
LINE
  8
1
 62
7
  6
CONTINUOUS
 10
11.133794
 20
115.387969
 11
11.392613
 21
116.353895
  0
LINE
  8
1
 62
7
  6
CONTINUOUS
 10
10.874975
 20
116.353895
 11
11.392613
 21
116.353895
  0
TEXT
  8
1
 62
7
  6
CONTINUOUS
 10
11.133794
 20
119.997491
 40
4.000000
 41
0.500000
  1
M27P0.75
  7
KANJI
 50
90.000000
 51
30.000000
  0
ENDBLK
  0
BLOCK
  8
1
 62
7
  6
CONTINUOUS
  2
*D38
 70
    65
 10
0.0
 20
0.0
  0
LINE
  8
1
 62
7
  6
CONTINUOUS
 10
21.576633
 20
108.906240
 11
21.576633
 21
178.000000
  0
LINE
  8
1
 62
7
  6
CONTINUOUS
 10
21.576633
 20
116.906240
 11
22.094271
 21
114.974389
  0
LINE
  8
1
 62
7
  6
CONTINUOUS
 10
21.576633
 20
116.906240
 11
21.058995
 21
114.974389
  0
LINE
  8
1
 62
7
  6
CONTINUOUS
 10
22.094271
 20
114.974389
 11
21.058995
 21
114.974389
  0
LINE
  8
1
 62
7
  6
CONTINUOUS
 10
21.576633
 20
116.423277
 11
21.835452
 21
115.457352
  0
LINE
  8
1
 62
7
  6
CONTINUOUS
 10
21.576633
 20
116.423277
 11
21.317814
 21
115.457352
  0
LINE
  8
1
 62
7
  6
CONTINUOUS
 10
21.835452
 20
115.457352
 11
21.317814
 21
115.457352
  0
LINE
  8
1
 62
7
  6
CONTINUOUS
 10
21.576633
 20
139.906240
 11
21.058995
 21
141.838092
  0
LINE
  8
1
 62
7
  6
CONTINUOUS
 10
21.576633
 20
139.906240
 11
22.094271
 21
141.838092
  0
LINE
  8
1
 62
7
  6
CONTINUOUS
 10
21.058995
 20
141.838092
 11
22.094271
 21
141.838092
  0
LINE
  8
1
 62
7
  6
CONTINUOUS
 10
21.576633
 20
140.389203
 11
21.317814
 21
141.355129
  0
LINE
  8
1
 62
7
  6
CONTINUOUS
 10
21.576633
 20
140.389203
 11
21.835452
 21
141.355129
  0
LINE
  8
1
 62
7
  6
CONTINUOUS
 10
21.317814
 20
141.355129
 11
21.835452
 21
141.355129
  0
TEXT
  8
1
 62
7
  6
CONTINUOUS
 10
21.576633
 20
143.000000
 40
4.000000
 41
0.708333
  1
φ23(ﾚﾝｽﾞ有効径）
  7
KANJI
 50
90.000000
 51
30.000000
  0
ENDBLK
  0
BLOCK
  8
1
 62
7
  6
CONTINUOUS
  2
*D39
 70
    65
 10
0.0
 20
0.0
  0
LINE
  8
1
 62
7
  6
CONTINUOUS
 10
76.419809
 20
109.406240
 11
76.419809
 21
171.165374
  0
LINE
  8
1
 62
7
  6
CONTINUOUS
 10
74.419809
 20
113.406240
 11
87.461331
 21
113.406240
  0
LINE
  8
1
 62
7
  6
CONTINUOUS
 10
74.419809
 20
154.606240
 11
87.461331
 21
154.606240
  0
LINE
  8
1
 62
7
  6
CONTINUOUS
 10
76.419809
 20
113.406240
 11
76.937447
 21
111.474389
  0
LINE
  8
1
 62
7
  6
CONTINUOUS
 10
76.419809
 20
113.406240
 11
75.902171
 21
111.474389
  0
LINE
  8
1
 62
7
  6
CONTINUOUS
 10
76.937447
 20
111.474389
 11
75.902171
 21
111.474389
  0
LINE
  8
1
 62
7
  6
CONTINUOUS
 10
76.419809
 20
112.923277
 11
76.678628
 21
111.957352
  0
LINE
  8
1
 62
7
  6
CONTINUOUS
 10
76.419809
 20
112.923277
 11
76.160990
 21
111.957352
  0
LINE
  8
1
 62
7
  6
CONTINUOUS
 10
76.678628
 20
111.957352
 11
76.160990
 21
111.957352
  0
LINE
  8
1
 62
7
  6
CONTINUOUS
 10
76.419809
 20
154.606240
 11
75.902171
 21
156.538092
  0
LINE
  8
1
 62
7
  6
CONTINUOUS
 10
76.419809
 20
154.606240
 11
76.937447
 21
156.538092
  0
LINE
  8
1
 62
7
  6
CONTINUOUS
 10
75.902171
 20
156.538092
 11
76.937447
 21
156.538092
  0
LINE
  8
1
 62
7
  6
CONTINUOUS
 10
76.419809
 20
155.089203
 11
76.160990
 21
156.055129
  0
LINE
  8
1
 62
7
  6
CONTINUOUS
 10
76.419809
 20
155.089203
 11
76.678628
 21
156.055129
  0
LINE
  8
1
 62
7
  6
CONTINUOUS
 10
76.160990
 20
156.055129
 11
76.678628
 21
156.055129
  0
TEXT
  8
1
 62
7
  6
CONTINUOUS
 10
76.419809
 20
162.165374
 40
4.000000
 41
0.500000
  1
41.2
  7
KANJI
 50
90.000000
 51
30.000000
  0
ENDBLK
  0
BLOCK
  8
1
 62
7
  6
CONTINUOUS
  2
*D40
 70
    65
 10
0.0
 20
0.0
  0
LINE
  8
1
 62
7
  6
CONTINUOUS
 10
89.461331
 20
105.715578
 11
26.461331
 21
105.715578
  0
LINE
  8
1
 62
7
  6
CONTINUOUS
 10
89.461331
 20
103.715578
 11
89.461331
 21
111.406240
  0
LINE
  8
1
 62
7
  6
CONTINUOUS
 10
26.461331
 20
103.715578
 11
26.461331
 21
112.406240
  0
LINE
  8
1
 62
7
  6
CONTINUOUS
 10
89.461331
 20
105.715578
 11
87.529479
 21
105.197940
  0
LINE
  8
1
 62
7
  6
CONTINUOUS
 10
89.461331
 20
105.715578
 11
87.529479
 21
106.233216
  0
LINE
  8
1
 62
7
  6
CONTINUOUS
 10
87.529479
 20
105.197940
 11
87.529479
 21
106.233216
  0
LINE
  8
1
 62
7
  6
CONTINUOUS
 10
88.978368
 20
105.715578
 11
88.012442
 21
105.456759
  0
LINE
  8
1
 62
7
  6
CONTINUOUS
 10
88.978368
 20
105.715578
 11
88.012442
 21
105.974397
  0
LINE
  8
1
 62
7
  6
CONTINUOUS
 10
88.012442
 20
105.456759
 11
88.012442
 21
105.974397
  0
LINE
  8
1
 62
7
  6
CONTINUOUS
 10
26.461331
 20
105.715578
 11
28.393182
 21
106.233216
  0
LINE
  8
1
 62
7
  6
CONTINUOUS
 10
26.461331
 20
105.715578
 11
28.393182
 21
105.197940
  0
LINE
  8
1
 62
7
  6
CONTINUOUS
 10
28.393182
 20
106.233216
 11
28.393182
 21
105.197940
  0
LINE
  8
1
 62
7
  6
CONTINUOUS
 10
26.944294
 20
105.715578
 11
27.910219
 21
105.974397
  0
LINE
  8
1
 62
7
  6
CONTINUOUS
 10
26.944294
 20
105.715578
 11
27.910219
 21
105.456759
  0
LINE
  8
1
 62
7
  6
CONTINUOUS
 10
27.910219
 20
105.974397
 11
27.910219
 21
105.456759
  0
TEXT
  8
1
 62
7
  6
CONTINUOUS
 10
54.071269
 20
105.715578
 40
4.000000
 41
0.500000
  1
63
  7
KANJI
 50
0.000000
 51
30.000000
  0
ENDBLK
  0
BLOCK
  8
1
 62
7
  6
CONTINUOUS
  2
*D41
 70
    65
 10
0.0
 20
0.0
  0
LINE
  8
1
 62
7
  6
CONTINUOUS
 10
89.461331
 20
105.715578
 11
101.661331
 21
105.715578
  0
LINE
  8
1
 62
7
  6
CONTINUOUS
 10
89.461331
 20
103.715578
 11
89.461331
 21
111.406240
  0
LINE
  8
1
 62
7
  6
CONTINUOUS
 10
101.661331
 20
103.715578
 11
101.661331
 21
111.406240
  0
LINE
  8
1
 62
7
  6
CONTINUOUS
 10
89.461331
 20
105.715578
 11
91.393182
 21
106.233216
  0
LINE
  8
1
 62
7
  6
CONTINUOUS
 10
89.461331
 20
105.715578
 11
91.393182
 21
105.197940
  0
LINE
  8
1
 62
7
  6
CONTINUOUS
 10
91.393182
 20
106.233216
 11
91.393182
 21
105.197940
  0
LINE
  8
1
 62
7
  6
CONTINUOUS
 10
89.944294
 20
105.715578
 11
90.910219
 21
105.974397
  0
LINE
  8
1
 62
7
  6
CONTINUOUS
 10
89.944294
 20
105.715578
 11
90.910219
 21
105.456759
  0
LINE
  8
1
 62
7
  6
CONTINUOUS
 10
90.910219
 20
105.974397
 11
90.910219
 21
105.456759
  0
LINE
  8
1
 62
7
  6
CONTINUOUS
 10
101.661331
 20
105.715578
 11
99.729479
 21
105.197940
  0
LINE
  8
1
 62
7
  6
CONTINUOUS
 10
101.661331
 20
105.715578
 11
99.729479
 21
106.233216
  0
LINE
  8
1
 62
7
  6
CONTINUOUS
 10
99.729479
 20
105.197940
 11
99.729479
 21
106.233216
  0
LINE
  8
1
 62
7
  6
CONTINUOUS
 10
101.178368
 20
105.715578
 11
100.212442
 21
105.456759
  0
LINE
  8
1
 62
7
  6
CONTINUOUS
 10
101.178368
 20
105.715578
 11
100.212442
 21
105.974397
  0
LINE
  8
1
 62
7
  6
CONTINUOUS
 10
100.212442
 20
105.456759
 11
100.212442
 21
105.974397
  0
TEXT
  8
1
 62
7
  6
CONTINUOUS
 10
91.561331
 20
105.715578
 40
4.000000
 41
0.500000
  1
12.2
  7
KANJI
 50
0.000000
 51
30.000000
  0
ENDBLK
  0
BLOCK
  8
1
 62
7
  6
CONTINUOUS
  2
*D42
 70
    65
 10
0.0
 20
0.0
  0
LINE
  8
1
 62
7
  6
CONTINUOUS
 10
101.661331
 20
105.715578
 11
121.661331
 21
105.715578
  0
LINE
  8
1
 62
7
  6
CONTINUOUS
 10
121.661331
 20
103.715578
 11
121.661331
 21
111.406240
  0
LINE
  8
1
 62
7
  6
CONTINUOUS
 10
101.661331
 20
105.715578
 11
103.593182
 21
106.233216
  0
LINE
  8
1
 62
7
  6
CONTINUOUS
 10
101.661331
 20
105.715578
 11
103.593182
 21
105.197940
  0
LINE
  8
1
 62
7
  6
CONTINUOUS
 10
103.593182
 20
106.233216
 11
103.593182
 21
105.197940
  0
LINE
  8
1
 62
7
  6
CONTINUOUS
 10
102.144294
 20
105.715578
 11
103.110219
 21
105.974397
  0
LINE
  8
1
 62
7
  6
CONTINUOUS
 10
102.144294
 20
105.715578
 11
103.110219
 21
105.456759
  0
LINE
  8
1
 62
7
  6
CONTINUOUS
 10
103.110219
 20
105.974397
 11
103.110219
 21
105.456759
  0
LINE
  8
1
 62
7
  6
CONTINUOUS
 10
121.661331
 20
105.715578
 11
119.729479
 21
105.197940
  0
LINE
  8
1
 62
7
  6
CONTINUOUS
 10
121.661331
 20
105.715578
 11
119.729479
 21
106.233216
  0
LINE
  8
1
 62
7
  6
CONTINUOUS
 10
119.729479
 20
105.197940
 11
119.729479
 21
106.233216
  0
LINE
  8
1
 62
7
  6
CONTINUOUS
 10
121.178368
 20
105.715578
 11
120.212442
 21
105.456759
  0
LINE
  8
1
 62
7
  6
CONTINUOUS
 10
121.178368
 20
105.715578
 11
120.212442
 21
105.974397
  0
LINE
  8
1
 62
7
  6
CONTINUOUS
 10
120.212442
 20
105.456759
 11
120.212442
 21
105.974397
  0
TEXT
  8
1
 62
7
  6
CONTINUOUS
 10
109.661331
 20
105.715578
 40
4.000000
 41
0.500000
  1
20
  7
KANJI
 50
0.000000
 51
30.000000
  0
ENDBLK
  0
BLOCK
  8
1
 62
7
  6
CONTINUOUS
  2
*D43
 70
    65
 10
0.0
 20
0.0
  0
LINE
  8
1
 62
7
  6
CONTINUOUS
 10
89.461331
 20
169.273468
 11
130.461331
 21
169.273468
  0
LINE
  8
1
 62
7
  6
CONTINUOUS
 10
89.461331
 20
171.273468
 11
89.461331
 21
156.606240
  0
LINE
  8
1
 62
7
  6
CONTINUOUS
 10
130.461331
 20
171.273468
 11
130.461331
 21
156.606240
  0
LINE
  8
1
 62
7
  6
CONTINUOUS
 10
89.461331
 20
169.273468
 11
91.393182
 21
169.791106
  0
LINE
  8
1
 62
7
  6
CONTINUOUS
 10
89.461331
 20
169.273468
 11
91.393182
 21
168.755830
  0
LINE
  8
1
 62
7
  6
CONTINUOUS
 10
91.393182
 20
169.791106
 11
91.393182
 21
168.755830
  0
LINE
  8
1
 62
7
  6
CONTINUOUS
 10
89.944294
 20
169.273468
 11
90.910219
 21
169.532287
  0
LINE
  8
1
 62
7
  6
CONTINUOUS
 10
89.944294
 20
169.273468
 11
90.910219
 21
169.014649
  0
LINE
  8
1
 62
7
  6
CONTINUOUS
 10
90.910219
 20
169.532287
 11
90.910219
 21
169.014649
  0
LINE
  8
1
 62
7
  6
CONTINUOUS
 10
130.461331
 20
169.273468
 11
128.529479
 21
168.755830
  0
LINE
  8
1
 62
7
  6
CONTINUOUS
 10
130.461331
 20
169.273468
 11
128.529479
 21
169.791106
  0
LINE
  8
1
 62
7
  6
CONTINUOUS
 10
128.529479
 20
168.755830
 11
128.529479
 21
169.791106
  0
LINE
  8
1
 62
7
  6
CONTINUOUS
 10
129.978368
 20
169.273468
 11
129.012442
 21
169.014649
  0
LINE
  8
1
 62
7
  6
CONTINUOUS
 10
129.978368
 20
169.273468
 11
129.012442
 21
169.532287
  0
LINE
  8
1
 62
7
  6
CONTINUOUS
 10
129.012442
 20
169.014649
 11
129.012442
 21
169.532287
  0
TEXT
  8
1
 62
7
  6
CONTINUOUS
 10
107.228659
 20
169.273468
 40
4.000000
 41
0.500000
  1
41
  7
KANJI
 50
0.000000
 51
30.000000
  0
ENDBLK
  0
BLOCK
  8
1
 62
7
  6
CONTINUOUS
  2
*D44
 70
    65
 10
0.0
 20
0.0
  0
LINE
  8
1
 62
7
  6
CONTINUOUS
 10
122.461331
 20
169.273468
 11
144.346958
 21
169.273468
  0
LINE
  8
1
 62
7
  6
CONTINUOUS
 10
130.461331
 20
171.273468
 11
130.461331
 21
154.806240
  0
LINE
  8
1
 62
7
  6
CONTINUOUS
 10
134.961331
 20
171.273468
 11
134.961331
 21
154.806240
  0
LINE
  8
1
 62
7
  6
CONTINUOUS
 10
130.461331
 20
169.273468
 11
128.529479
 21
168.755830
  0
LINE
  8
1
 62
7
  6
CONTINUOUS
 10
130.461331
 20
169.273468
 11
128.529479
 21
169.791106
  0
LINE
  8
1
 62
7
  6
CONTINUOUS
 10
128.529479
 20
168.755830
 11
128.529479
 21
169.791106
  0
LINE
  8
1
 62
7
  6
CONTINUOUS
 10
129.978368
 20
169.273468
 11
129.012442
 21
169.014649
  0
LINE
  8
1
 62
7
  6
CONTINUOUS
 10
129.978368
 20
169.273468
 11
129.012442
 21
169.532287
  0
LINE
  8
1
 62
7
  6
CONTINUOUS
 10
129.012442
 20
169.014649
 11
129.012442
 21
169.532287
  0
LINE
  8
1
 62
7
  6
CONTINUOUS
 10
134.961331
 20
169.273468
 11
136.893182
 21
169.791106
  0
LINE
  8
1
 62
7
  6
CONTINUOUS
 10
134.961331
 20
169.273468
 11
136.893182
 21
168.755830
  0
LINE
  8
1
 62
7
  6
CONTINUOUS
 10
136.893182
 20
169.791106
 11
136.893182
 21
168.755830
  0
LINE
  8
1
 62
7
  6
CONTINUOUS
 10
135.444294
 20
169.273468
 11
136.410219
 21
169.532287
  0
LINE
  8
1
 62
7
  6
CONTINUOUS
 10
135.444294
 20
169.273468
 11
136.410219
 21
169.014649
  0
LINE
  8
1
 62
7
  6
CONTINUOUS
 10
136.410219
 20
169.532287
 11
136.410219
 21
169.014649
  0
TEXT
  8
1
 62
7
  6
CONTINUOUS
 10
137.346958
 20
169.273468
 40
4.000000
 41
0.500000
  1
4.5
  7
KANJI
 50
0.000000
 51
30.000000
  0
ENDBLK
  0
ENDSEC
  0
SECTION
  2
ENTITIES
  0
TEXT
  8
1
 62
7
  6
CONTINUOUS
 10
48.809091
 20
482.904869
 40
4.000000
 41
1.000000
  1
①
  7
KANJI
 50
0.000000
 51
0.000000
  0
LINE
  8
1
 62
7
  6
CONTINUOUS
 10
32.825028
 20
453.919598
 11
48.729342
 21
482.574868
  0
LINE
  8
1
 62
7
  6
CONTINUOUS
 10
48.729342
 20
482.574868
 11
61.106245
 21
482.574868
  0
TEXT
  8
1
 62
7
  6
CONTINUOUS
 10
53.106245
 20
482.655117
 40
4.000000
 41
0.500000
  1
ﾚﾝｽﾞ
  7
KANJI
 50
0.000000
 51
30.000000
  0
LINE
  8
1
 62
7
  6
CONTINUOUS
 10
32.825028
 20
453.919598
 11
33.309930
 21
455.859925
  0
LINE
  8
1
 62
7
  6
CONTINUOUS
 10
32.825028
 20
453.919598
 11
34.215129
 21
455.357520
  0
LINE
  8
1
 62
7
  6
CONTINUOUS
 10
33.309930
 20
455.859925
 11
34.215129
 21
455.357520
  0
LINE
  8
1
 62
7
  6
CONTINUOUS
 10
33.059403
 20
454.341879
 11
33.301854
 21
455.312043
  0
LINE
  8
1
 62
7
  6
CONTINUOUS
 10
33.059403
 20
454.341879
 11
33.754454
 21
455.060840
  0
LINE
  8
1
 62
7
  6
CONTINUOUS
 10
33.301854
 20
455.312043
 11
33.754454
 21
455.060840
  0
DIMENSION
  8
1
 62
7
  6
CONTINUOUS
  2
*D1
 10
6.049480
 20
410.072704
 11
6.049480
 21
395.240082
 70
     0
  1
φ30
 13
18.129323
 23
410.072704
 14
18.129323
 24
380.072704
 50
-90.000000
  0
LINE
  8
1
 62
7
  6
DASHDOT
 10
13.790356
 20
395.072704
 11
153.881383
 21
395.072704
  0
LINE
  8
1
 62
7
  6
CONTINUOUS
 10
82.129323
 20
409.072704
 11
82.129323
 21
381.072704
  0
LINE
  8
1
 62
7
  6
CONTINUOUS
 10
19.129323
 20
409.072704
 11
19.129323
 21
381.072704
  0
LINE
  8
1
 62
7
  6
CONTINUOUS
 10
19.129323
 20
381.072704
 11
20.129323
 21
380.072704
  0
LINE
  8
1
 62
7
  6
CONTINUOUS
 10
81.129323
 20
380.072704
 11
20.129323
 21
380.072704
  0
LINE
  8
1
 62
7
  6
CONTINUOUS
 10
19.129323
 20
409.072704
 11
20.129323
 21
410.072704
  0
LINE
  8
1
 62
7
  6
CONTINUOUS
 10
81.129323
 20
410.072704
 11
20.129323
 21
410.072704
  0
LINE
  8
1
 62
7
  6
CONTINUOUS
 10
81.129323
 20
380.072704
 11
82.129323
 21
381.072704
  0
LINE
  8
1
 62
7
  6
CONTINUOUS
 10
81.129323
 20
410.072704
 11
82.129323
 21
409.072704
  0
TEXT
  8
1
 62
7
  6
CONTINUOUS
 10
101.175172
 20
408.355610
 40
4.000000
 41
0.700000
  1
取付ﾈｼﾞ
  7
KANJI
 50
0.000000
 51
0.000000
  0
TEXT
  8
1
 62
7
  6
CONTINUOUS
 10
126.722088
 20
372.155665
 40
4.000000
 41
0.700000
  1
取付ﾈｼﾞ
  7
KANJI
 50
0.000000
 51
0.000000
  0
TEXT
  8
1
 62
7
  6
CONTINUOUS
 10
121.064986
 20
372.196120
 40
4.000000
 41
1.000000
  1
⑤
  7
KANJI
 50
0.000000
 51
0.000000
  0
TEXT
  8
1
 62
7
  6
CONTINUOUS
 10
96.475519
 20
408.371285
 40
4.000000
 41
1.000000
  1
⑥
  7
KANJI
 50
0.000000
 51
0.000000
  0
LINE
  8
1
 62
7
  6
CONTINUOUS
 10
89.671070
 20
396.314260
 11
94.731864
 21
412.480049
  0
LINE
  8
1
 62
7
  6
CONTINUOUS
 10
94.731864
 20
412.480049
 11
110.533418
 21
412.480049
  0
TEXT
  8
1
 62
7
  6
CONTINUOUS
 10
96.533418
 20
412.577844
 40
4.000000
 41
0.700000
  1
M3深さ4
  7
KANJI
 50
-0.000000
 51
30.000000
  0
LINE
  8
1
 62
7
  6
CONTINUOUS
 10
89.671070
 20
396.314260
 11
89.754230
 21
398.312531
  0
LINE
  8
1
 62
7
  6
CONTINUOUS
 10
89.671070
 20
396.314260
 11
90.742224
 21
398.003234
  0
LINE
  8
1
 62
7
  6
CONTINUOUS
 10
89.754230
 20
398.312531
 11
90.742224
 21
398.003234
  0
LINE
  8
1
 62
7
  6
CONTINUOUS
 10
89.815359
 20
396.775166
 11
89.856939
 21
397.774301
  0
LINE
  8
1
 62
7
  6
CONTINUOUS
 10
89.815359
 20
396.775166
 11
90.350936
 21
397.619652
  0
LINE
  8
1
 62
7
  6
CONTINUOUS
 10
89.856939
 20
397.774301
 11
90.350936
 21
397.619652
  0
LINE
  8
1
 62
7
  6
CONTINUOUS
 10
109.888124
 20
394.010188
 11
120.654209
 21
377.011860
  0
LINE
  8
1
 62
7
  6
CONTINUOUS
 10
120.654209
 20
377.011860
 11
135.819788
 21
377.011860
  0
TEXT
  8
1
 62
7
  6
CONTINUOUS
 10
121.819788
 20
376.885259
 40
4.000000
 41
0.700000
  1
M3深さ4
  7
KANJI
 50
0.000000
 51
30.000000
  0
LINE
  8
1
 62
7
  6
CONTINUOUS
 10
109.888124
 20
394.010188
 11
111.359103
 21
392.655116
  0
LINE
  8
1
 62
7
  6
CONTINUOUS
 10
109.888124
 20
394.010188
 11
110.484493
 21
392.101172
  0
LINE
  8
1
 62
7
  6
CONTINUOUS
 10
111.359103
 20
392.655116
 11
110.484493
 21
392.101172
  0
LINE
  8
1
 62
7
  6
CONTINUOUS
 10
110.146543
 20
393.602177
 11
110.882032
 21
392.924641
  0
LINE
  8
1
 62
7
  6
CONTINUOUS
 10
110.146543
 20
393.602177
 11
110.444727
 21
392.647669
  0
LINE
  8
1
 62
7
  6
CONTINUOUS
 10
110.882032
 20
392.924641
 11
110.444727
 21
392.647669
  0
DIMENSION
  8
1
 62
7
  6
CONTINUOUS
  2
*D2
 10
82.129323
 20
375.605168
 11
85.858166
 21
375.605168
 70
     0
  1
6.7
 13
82.129323
 23
379.822704
 14
88.829323
 24
393.072704
 50
0.000000
  0
DIMENSION
  8
1
 62
7
  6
CONTINUOUS
  2
*D3
 10
88.829323
 20
375.605168
 11
99.145971
 21
375.605168
 70
     0
  1
20
 13
88.829323
 23
391.842704
 14
108.829323
 24
391.842704
 50
0.000000
  0
LINE
  8
1
 62
7
  6
DASHDOT
 10
88.829323
 20
397.074074
 11
88.829323
 21
393.156674
  0
LINE
  8
1
 62
7
  6
DASHDOT
 10
108.829323
 20
397.074074
 11
108.829323
 21
393.156674
  0
CIRCLE
  8
1
 62
7
  6
CONTINUOUS
 10
108.829323
 20
395.072704
 40
1.500000
  0
CIRCLE
  8
1
 62
7
  6
CONTINUOUS
 10
108.829323
 20
395.072704
 40
1.230000
  0
CIRCLE
  8
1
 62
7
  6
CONTINUOUS
 10
88.829323
 20
395.072704
 40
1.500000
  0
CIRCLE
  8
1
 62
7
  6
CONTINUOUS
 10
88.829323
 20
395.072704
 40
1.230000
  0
LINE
  8
1
 62
7
  6
CONTINUOUS
 10
121.429323
 20
408.322704
 11
121.429323
 21
381.822704
  0
LINE
  8
1
 62
7
  6
CONTINUOUS
 10
121.429323
 20
381.822704
 11
123.129323
 21
381.822704
  0
LINE
  8
1
 62
7
  6
CONTINUOUS
 10
123.129323
 20
381.822704
 11
123.129323
 21
408.322704
  0
LINE
  8
1
 62
7
  6
CONTINUOUS
 10
123.129323
 20
408.322704
 11
121.429323
 21
408.322704
  0
LINE
  8
1
 62
7
  6
CONTINUOUS
 10
82.129323
 20
408.322704
 11
82.129323
 21
381.822704
  0
LINE
  8
1
 62
7
  6
CONTINUOUS
 10
82.129323
 20
381.822704
 11
121.429323
 21
381.822704
  0
LINE
  8
1
 62
7
  6
CONTINUOUS
 10
121.429323
 20
381.822704
 11
121.429323
 21
408.322704
  0
LINE
  8
1
 62
7
  6
CONTINUOUS
 10
121.429323
 20
408.322704
 11
82.129323
 21
408.322704
  0
DIMENSION
  8
1
 62
7
  6
CONTINUOUS
  2
*D4
 10
73.570361
 20
381.822704
 11
73.570361
 21
395.129492
 70
     0
  1
26.5
 13
80.129323
 23
381.822704
 14
80.129323
 24
408.322704
 50
90.000000
  0
DIMENSION
  8
1
 62
7
  6
CONTINUOUS
  2
*D5
 10
144.315447
 20
389.872704
 11
144.315447
 21
383.816964
 70
     0
  1
11
 13
129.629323
 23
389.872704
 14
129.629323
 24
400.272704
 50
90.000000
  0
LINE
  8
1
 62
7
  6
CONTINUOUS
 10
137.629323
 20
392.572704
 11
127.629323
 21
392.572704
  0
LINE
  8
1
 62
7
  6
CONTINUOUS
 10
137.629323
 20
397.572704
 11
137.629323
 21
392.572704
  0
LINE
  8
1
 62
7
  6
CONTINUOUS
 10
127.629323
 20
397.572704
 11
137.629323
 21
397.572704
  0
LINE
  8
1
 62
7
  6
CONTINUOUS
 10
127.629323
 20
393.172704
 11
153.790398
 21
393.172704
  0
LINE
  8
1
 62
7
  6
CONTINUOUS
 10
154.740398
 20
396.972704
 11
127.629323
 21
396.972704
  0
LINE
  8
1
 62
7
  6
CONTINUOUS
 10
127.629323
 20
389.872704
 11
123.129323
 21
389.872704
  0
LINE
  8
1
 62
7
  6
CONTINUOUS
 10
127.629323
 20
400.272704
 11
127.629323
 21
389.872704
  0
LINE
  8
1
 62
7
  6
CONTINUOUS
 10
123.129323
 20
400.272704
 11
127.629323
 21
400.272704
  0
DIMENSION
  8
1
 62
7
  6
CONTINUOUS
  2
*D6
 10
69.087801
 20
437.325838
 11
69.087801
 21
490.084972
 70
     0
  1
41.2
 13
80.129323
 23
437.325838
 14
80.129323
 24
478.525838
 50
90.000000
  0
LINE
  8
1
 62
7
  6
DASHDOT
 10
33.391577
 20
440.825838
 11
4.133422
 21
440.825838
  0
LINE
  8
1
 62
7
  6
DASHDOT
 10
33.391577
 20
463.825838
 11
3.673568
 21
463.825838
  0
DIMENSION
  8
1
 62
7
  6
CONTINUOUS
  2
*D7
 10
82.129323
 20
429.635176
 11
48.739261
 21
429.635176
 70
     0
  1
63
 13
82.129323
 23
435.325838
 14
19.129323
 24
436.325838
 50
180.000000
  0
LINE
  8
1
 62
7
  6
DASHDOT
 10
98.986466
 20
450.182981
 11
33.391577
 21
440.825838
  0
LINE
  8
1
 62
7
  6
DASHDOT
 10
102.708271
 20
453.904786
 11
33.391577
 21
463.825838
  0
ARC
  8
1
 62
7
  6
DOT
 10
74.129323
 20
452.325838
 40
44.000000
 50
163.495484
 51
-163.495484
  0
ARC
  8
1
 62
7
  6
DOT
 10
-55.870677
 20
452.325838
 40
90.000000
 50
-7.983571
 51
7.983556
  0
LINE
  8
1
 62
7
  6
DOT
 10
31.942240
 20
464.825838
 11
33.257041
 21
464.825838
  0
LINE
  8
1
 62
7
  6
DOT
 10
31.942240
 20
439.825838
 11
33.257041
 21
439.825838
  0
LINE
  8
1
 62
7
  6
DASHDOT
 10
14.131141
 20
452.325838
 11
119.169309
 21
452.325838
  0
LINE
  8
1
 62
7
  6
DOT
 10
19.129323
 20
438.824604
 11
63.964177
 21
438.824604
  0
LINE
  8
1
 62
7
  6
DOT
 10
19.129323
 20
465.827072
 11
63.964177
 21
465.827072
  0
LINE
  8
1
 62
7
  6
DOT
 10
19.129323
 20
439.324604
 11
63.964177
 21
439.324604
  0
LINE
  8
1
 62
7
  6
DOT
 10
19.129323
 20
465.327072
 11
63.964177
 21
465.327072
  0
LINE
  8
1
 62
7
  6
CONTINUOUS
 10
82.129323
 20
466.325838
 11
82.129323
 21
438.325838
  0
LINE
  8
1
 62
7
  6
CONTINUOUS
 10
19.129323
 20
466.325838
 11
19.129323
 21
438.325838
  0
LINE
  8
1
 62
7
  6
CONTINUOUS
 10
19.129323
 20
438.325838
 11
20.129323
 21
437.325838
  0
LINE
  8
1
 62
7
  6
CONTINUOUS
 10
81.129323
 20
437.325838
 11
20.129323
 21
437.325838
  0
LINE
  8
1
 62
7
  6
CONTINUOUS
 10
19.129323
 20
466.325838
 11
20.129323
 21
467.325838
  0
LINE
  8
1
 62
7
  6
CONTINUOUS
 10
81.129323
 20
467.325838
 11
20.129323
 21
467.325838
  0
LINE
  8
1
 62
7
  6
CONTINUOUS
 10
81.129323
 20
437.325838
 11
82.129323
 21
438.325838
  0
LINE
  8
1
 62
7
  6
CONTINUOUS
 10
81.129323
 20
467.325838
 11
82.129323
 21
466.325838
  0
LINE
  8
1
 62
7
  6
CONTINUOUS
 10
100.529323
 20
465.325840
 11
100.529323
 21
465.425840
  0
LINE
  8
1
 62
7
  6
DOT
 10
96.979323
 20
465.325840
 11
105.279323
 21
465.325840
  0
LINE
  8
1
 62
7
  6
CONTINUOUS
 10
101.729323
 20
465.325840
 11
101.729323
 21
465.425840
  0
LINE
  8
1
 62
7
  6
CONTINUOUS
 10
100.629321
 20
466.620840
 11
101.629321
 21
466.620840
  0
LINE
  8
1
 62
7
  6
DASHDOT
 10
101.129323
 20
463.992131
 11
101.129323
 21
476.363731
  0
LINE
  8
1
 62
7
  6
DOT
 10
98.289323
 20
475.325838
 11
98.889323
 21
475.325838
  0
LINE
  8
1
 62
7
  6
DOT
 10
100.829323
 20
475.325838
 11
101.429323
 21
475.325838
  0
LINE
  8
1
 62
7
  6
DOT
 10
103.369323
 20
475.325838
 11
103.969323
 21
475.325838
  0
LINE
  8
1
 62
7
  6
DOT
 10
95.979323
 20
471.440840
 11
95.979323
 21
471.950840
  0
LINE
  8
1
 62
7
  6
DOT
 10
95.979323
 20
471.950840
 11
106.279323
 21
471.950840
  0
LINE
  8
1
 62
7
  6
DOT
 10
106.279323
 20
471.950840
 11
106.279323
 21
471.440840
  0
LINE
  8
1
 62
7
  6
DOT
 10
106.279323
 20
471.440840
 11
95.979323
 21
471.440840
  0
LINE
  8
1
 62
7
  6
DOT
 10
96.979323
 20
465.425840
 11
105.279323
 21
465.425840
  0
LINE
  8
1
 62
7
  6
DOT
 10
98.289323
 20
471.950840
 11
98.289323
 21
475.325838
  0
LINE
  8
1
 62
7
  6
DOT
 10
98.889323
 20
475.325838
 11
98.889323
 21
471.950840
  0
LINE
  8
1
 62
7
  6
DOT
 10
100.829323
 20
471.950840
 11
100.829323
 21
475.325838
  0
LINE
  8
1
 62
7
  6
DOT
 10
101.429323
 20
475.325838
 11
101.429323
 21
471.950840
  0
LINE
  8
1
 62
7
  6
DOT
 10
103.369323
 20
471.950840
 11
103.369323
 21
475.325838
  0
LINE
  8
1
 62
7
  6
DOT
 10
103.969323
 20
475.325838
 11
103.969323
 21
471.950840
  0
LINE
  8
1
 62
7
  6
DOT
 10
96.979323
 20
471.440840
 11
96.979323
 21
465.325840
  0
LINE
  8
1
 62
7
  6
DOT
 10
105.279323
 20
471.440840
 11
105.279323
 21
465.325840
  0
LINE
  8
1
 62
7
  6
DASHDOT
 10
90.949675
 20
441.325837
 11
98.716180
 21
441.325837
  0
LINE
  8
1
 62
7
  6
DASHDOT
 10
88.829323
 20
436.251814
 11
88.829323
 21
442.924938
  0
LINE
  8
1
 62
7
  6
DASHDOT
 10
108.829323
 20
436.251814
 11
108.829323
 21
442.123520
  0
DIMENSION
  8
1
 62
7
  6
CONTINUOUS
  2
*D8
 10
82.129323
 20
429.635176
 11
88.229323
 21
429.635176
 70
     0
  1
12.2
 13
82.129323
 23
435.325838
 14
94.329323
 24
435.325838
 50
0.000000
  0
DIMENSION
  8
1
 62
7
  6
CONTINUOUS
  2
*D9
 10
94.329323
 20
429.635176
 11
104.329323
 21
429.635176
 70
     0
  1
20
 13
94.329323
 23
429.635176
 14
114.329323
 24
435.325838
 50
0.000000
  0
CIRCLE
  8
1
 62
7
  6
CONTINUOUS
 10
114.329323
 20
441.325835
 40
3.000000
  0
CIRCLE
  8
1
 62
7
  6
CONTINUOUS
 10
94.329323
 20
441.325837
 40
3.000000
  0
LINE
  8
1
 62
7
  6
DASHDOT
 10
94.329323
 20
437.228129
 11
94.329323
 21
445.042971
  0
LINE
  8
1
 62
7
  6
DASHDOT
 10
109.952771
 20
441.325838
 11
118.516180
 21
441.325838
  0
LINE
  8
1
 62
7
  6
DASHDOT
 10
114.329323
 20
437.228130
 11
114.329323
 21
445.317031
  0
CIRCLE
  8
1
 62
7
  6
CONTINUOUS
 10
114.329323
 20
441.325838
 40
1.750000
  0
CIRCLE
  8
1
 62
7
  6
CONTINUOUS
 10
94.329323
 20
441.325837
 40
1.750000
  0
DIMENSION
  8
1
 62
7
  6
CONTINUOUS
  2
*D10
 10
82.129323
 20
493.193066
 11
101.896652
 21
493.193066
 70
     0
  1
41
 13
82.129323
 23
480.525838
 14
123.129323
 24
480.525838
 50
0.000000
  0
LINE
  8
1
 62
7
  6
CONTINUOUS
 10
82.129323
 20
478.525838
 11
123.129323
 21
478.525838
  0
LINE
  8
1
 62
7
  6
CONTINUOUS
 10
123.129323
 20
437.325838
 11
123.129323
 21
478.525838
  0
LINE
  8
1
 62
7
  6
CONTINUOUS
 10
137.629323
 20
467.325838
 11
127.629323
 21
467.325838
  0
LINE
  8
1
 62
7
  6
CONTINUOUS
 10
137.629323
 20
472.325838
 11
137.629323
 21
467.325838
  0
LINE
  8
1
 62
7
  6
CONTINUOUS
 10
127.629323
 20
472.325838
 11
137.629323
 21
472.325838
  0
DIMENSION
  8
1
 62
7
  6
CONTINUOUS
  2
*D11
 10
123.129323
 20
493.193066
 11
133.014950
 21
493.193066
 70
     0
  1
4.5
 13
123.129323
 23
478.725838
 14
127.629323
 24
478.725838
 50
0.000000
  0
DIMENSION
  8
1
 62
7
  6
CONTINUOUS
  2
*D12
 10
139.262642
 20
437.325838
 11
139.262642
 21
452.068839
 70
     0
  1
32.5
 13
125.129323
 23
437.325838
 14
129.629323
 24
469.825838
 50
90.000000
  0
LINE
  8
1
 62
7
  6
CONTINUOUS
 10
123.129323
 20
476.725838
 11
123.129323
 21
464.725838
  0
LINE
  8
1
 62
7
  6
CONTINUOUS
 10
123.129323
 20
464.725838
 11
127.629323
 21
464.725838
  0
LINE
  8
1
 62
7
  6
CONTINUOUS
 10
127.629323
 20
464.725838
 11
127.629323
 21
476.725838
  0
LINE
  8
1
 62
7
  6
CONTINUOUS
 10
127.629323
 20
476.725838
 11
123.129323
 21
476.725838
  0
LINE
  8
1
 62
7
  6
DOT
 10
123.129323
 20
467.425838
 11
127.629323
 21
467.425838
  0
LINE
  8
1
 62
7
  6
DOT
 10
123.129323
 20
472.225838
 11
127.629323
 21
472.225838
  0
LINE
  8
1
 62
7
  6
DASHDOT
 10
113.347268
 20
469.825838
 11
137.329323
 21
469.825838
  0
LINE
  8
1
 62
7
  6
DOT
 10
120.829323
 20
466.725838
 11
123.129323
 21
466.725838
  0
LINE
  8
1
 62
7
  6
DOT
 10
120.829323
 20
476.225838
 11
123.129323
 21
476.225838
  0
LINE
  8
1
 62
7
  6
CONTINUOUS
 10
121.429323
 20
437.325838
 11
123.129323
 21
437.325838
  0
LINE
  8
1
 62
7
  6
CONTINUOUS
 10
121.429323
 20
438.325838
 11
121.429323
 21
478.525838
  0
LINE
  8
1
 62
7
  6
CONTINUOUS
 10
121.429323
 20
437.325838
 11
82.129323
 21
437.325838
  0
LINE
  8
1
 62
7
  6
CONTINUOUS
 10
121.429323
 20
438.325838
 11
121.429323
 21
437.325838
  0
LINE
  8
1
 62
7
  6
CONTINUOUS
 10
82.129323
 20
437.325838
 11
82.129323
 21
478.525838
  0
LINE
  8
1
 62
7
  6
DOT
 10
98.173705
 20
449.370220
 11
103.893115
 21
455.089630
  0
LINE
  8
1
 62
7
  6
DASHDOT
 10
101.129323
 20
465.325840
 11
98.986466
 21
450.182981
  0
LINE
  8
1
 62
7
  6
DASHDOT
 10
102.708271
 20
453.904786
 11
101.129323
 21
465.325840
  0
LINE
  8
1
 62
7
  6
DASHDOT
 10
101.129323
 20
449.178561
 11
101.129323
 21
466.909499
  0
LINE
  8
1
 62
7
  6
DASHDOT
 10
114.128283
 20
452.325838
 11
101.592569
 21
452.325838
  0
LINE
  8
1
 62
7
  6
DASHDOT
 10
113.211688
 20
469.825838
 11
142.137367
 21
469.825838
  0
LINE
  8
1
 62
7
  6
CONTINUOUS
 10
127.629323
 20
467.925838
 11
144.848152
 21
467.925838
  0
LINE
  8
1
 62
7
  6
CONTINUOUS
 10
145.798152
 20
471.725838
 11
127.629323
 21
471.725838
  0
LINE
  8
1
 62
7
  6
CONTINUOUS
 10
146.036026
 20
472.677332
 11
144.587308
 21
466.882462
  0
LINE
  8
1
 62
7
  6
CONTINUOUS
 10
147.084949
 20
472.634343
 11
145.640530
 21
466.856669
  0
TEXT
  8
1
 62
7
  6
CONTINUOUS
 10
198.183815
 20
466.989422
 40
4.000000
 41
0.500000
  1
ｼﾛ
  7
KANJI
 50
-5.000000
 51
0.000000
  0
TEXT
  8
1
 62
7
  6
CONTINUOUS
 10
197.935196
 20
471.613202
 40
4.000000
 41
0.500000
  1
ﾐﾄﾞﾘ
  7
KANJI
 50
5.000000
 51
0.000000
  0
TEXT
  8
1
 62
7
  6
CONTINUOUS
 10
198.908080
 20
476.209778
 40
4.000000
 41
0.500000
  1
ｸﾛ
  7
KANJI
 50
15.000000
 51
0.000000
  0
TEXT
  8
1
 62
7
  6
CONTINUOUS
 10
197.484178
 20
459.359287
 40
4.000000
 41
0.500000
  1
ｱｶ
  7
KANJI
 50
-15.000000
 51
0.000000
  0
DIMENSION
  8
1
 62
7
  6
CONTINUOUS
  2
*D13
 10
123.129323
 20
485.428983
 11
145.450532
 21
485.428983
 70
     0
  1
ｹｰﾌﾞﾙ長
 13
123.129323
 23
469.825838
 14
165.755097
 24
469.825838
 50
0.000000
  0
LINE
  8
1
 62
7
  6
DASHDOT
 10
121.429323
 20
469.825838
 11
158.480166
 21
469.825838
  0
LINE
  8
1
 62
7
  6
CONTINUOUS
 10
145.907823
 20
467.925838
 11
165.755097
 21
467.925838
  0
LINE
  8
1
 62
7
  6
CONTINUOUS
 10
165.755097
 20
471.725838
 11
146.857823
 21
471.725838
  0
LINE
  8
1
 62
7
  6
CONTINUOUS
 10
175.755097
 20
467.675838
 11
165.755097
 21
467.675838
  0
LINE
  8
1
 62
7
  6
CONTINUOUS
 10
165.755097
 20
471.975838
 11
175.755097
 21
471.975838
  0
DIMENSION
  8
1
 62
7
  6
CONTINUOUS
  2
*D14
 10
165.755097
 20
485.428983
 11
194.066897
 21
485.428983
 70
     0
  1
100
 13
165.755097
 23
471.825838
 14
221.580053
 24
475.835002
 50
0.000000
  0
CIRCLE
  8
1
 62
7
  6
CONTINUOUS
 10
224.051388
 20
456.884886
 40
1.500000
  0
CIRCLE
  8
1
 62
7
  6
CONTINUOUS
 10
225.564832
 20
465.468051
 40
1.500000
  0
CIRCLE
  8
1
 62
7
  6
CONTINUOUS
 10
225.564832
 20
474.183625
 40
1.500000
  0
CIRCLE
  8
1
 62
7
  6
CONTINUOUS
 10
224.051388
 20
482.766791
 40
1.500000
  0
LINE
  8
1
 62
7
  6
CONTINUOUS
 10
205.828207
 20
477.366266
 11
175.884506
 21
469.342875
  0
LINE
  8
1
 62
7
  6
CONTINUOUS
 10
205.569388
 20
478.332192
 11
175.625687
 21
470.308801
  0
LINE
  8
1
 62
7
  6
DASHDOT
 10
230.203992
 20
484.415376
 11
173.779178
 21
469.296392
  0
LINE
  8
1
 62
7
  6
CONTINUOUS
 10
219.592401
 20
483.953144
 11
205.103514
 21
480.070858
  0
LINE
  8
1
 62
7
  6
CONTINUOUS
 10
205.103514
 20
480.070858
 11
206.294081
 21
475.627599
  0
LINE
  8
1
 62
7
  6
CONTINUOUS
 10
206.294081
 20
475.627599
 11
220.782969
 21
479.509885
  0
LINE
  8
1
 62
7
  6
CONTINUOUS
 10
220.782969
 20
479.509885
 11
219.592401
 21
483.953144
  0
ARC
  8
1
 62
7
  6
CONTINUOUS
 10
224.051388
 20
482.766791
 40
3.250000
 50
-127.020128
 51
157.020128
  0
LINE
  8
1
 62
7
  6
CONTINUOUS
 10
220.705323
 20
479.799663
 11
222.094578
 21
480.171912
  0
LINE
  8
1
 62
7
  6
CONTINUOUS
 10
219.670047
 20
483.663366
 11
221.059301
 21
484.035616
  0
LINE
  8
1
 62
7
  6
CONTINUOUS
 10
206.680710
 20
472.029569
 11
175.798675
 21
469.327741
  0
LINE
  8
1
 62
7
  6
CONTINUOUS
 10
206.593555
 20
473.025764
 11
175.711519
 21
470.323936
  0
LINE
  8
1
 62
7
  6
DASHDOT
 10
231.910238
 20
474.738777
 11
173.717259
 21
469.647551
  0
LINE
  8
1
 62
7
  6
CONTINUOUS
 10
221.379595
 20
476.126250
 11
206.436674
 21
474.818914
  0
LINE
  8
1
 62
7
  6
CONTINUOUS
 10
206.436674
 20
474.818914
 11
206.837591
 21
470.236418
  0
LINE
  8
1
 62
7
  6
CONTINUOUS
 10
206.837591
 20
470.236418
 11
221.780511
 21
471.543755
  0
LINE
  8
1
 62
7
  6
CONTINUOUS
 10
221.780511
 20
471.543755
 11
221.379595
 21
476.126250
  0
ARC
  8
1
 62
7
  6
CONTINUOUS
 10
225.564832
 20
474.183625
 40
3.250000
 50
-137.020128
 51
147.020128
  0
LINE
  8
1
 62
7
  6
CONTINUOUS
 10
221.754364
 20
471.842613
 11
223.187154
 21
471.967966
  0
LINE
  8
1
 62
7
  6
CONTINUOUS
 10
221.405741
 20
475.827392
 11
222.838531
 21
475.952745
  0
LINE
  8
1
 62
7
  6
CONTINUOUS
 10
205.569388
 20
461.319485
 11
175.625687
 21
469.342875
  0
LINE
  8
1
 62
7
  6
CONTINUOUS
 10
205.828207
 20
462.285411
 11
175.884506
 21
470.308801
  0
LINE
  8
1
 62
7
  6
DASHDOT
 10
230.203992
 20
455.236301
 11
173.779178
 21
470.355284
  0
LINE
  8
1
 62
7
  6
CONTINUOUS
 10
220.782969
 20
460.141792
 11
206.294081
 21
464.024077
  0
LINE
  8
1
 62
7
  6
CONTINUOUS
 10
206.294081
 20
464.024077
 11
205.103514
 21
459.580818
  0
LINE
  8
1
 62
7
  6
CONTINUOUS
 10
205.103514
 20
459.580818
 11
219.592401
 21
455.698533
  0
LINE
  8
1
 62
7
  6
CONTINUOUS
 10
219.592401
 20
455.698533
 11
220.782969
 21
460.141792
  0
ARC
  8
1
 62
7
  6
CONTINUOUS
 10
224.051388
 20
456.884886
 40
3.250000
 50
-157.020128
 51
127.020128
  0
LINE
  8
1
 62
7
  6
CONTINUOUS
 10
219.670047
 20
455.988311
 11
221.059301
 21
455.616061
  0
LINE
  8
1
 62
7
  6
CONTINUOUS
 10
220.705323
 20
459.852014
 11
222.094578
 21
459.479764
  0
LINE
  8
1
 62
7
  6
CONTINUOUS
 10
206.593555
 20
466.625913
 11
175.711519
 21
469.327741
  0
LINE
  8
1
 62
7
  6
CONTINUOUS
 10
206.680710
 20
467.622108
 11
175.798675
 21
470.323936
  0
LINE
  8
1
 62
7
  6
DASHDOT
 10
231.910238
 20
464.912900
 11
173.717259
 21
470.004126
  0
LINE
  8
1
 62
7
  6
CONTINUOUS
 10
221.780511
 20
468.107922
 11
206.837591
 21
469.415258
  0
LINE
  8
1
 62
7
  6
CONTINUOUS
 10
206.837591
 20
469.415258
 11
206.436674
 21
464.832762
  0
LINE
  8
1
 62
7
  6
CONTINUOUS
 10
206.436674
 20
464.832762
 11
221.379595
 21
463.525426
  0
LINE
  8
1
 62
7
  6
CONTINUOUS
 10
221.379595
 20
463.525426
 11
221.780511
 21
468.107922
  0
ARC
  8
1
 62
7
  6
CONTINUOUS
 10
225.564832
 20
465.468051
 40
3.250000
 50
-147.020128
 51
137.020128
  0
LINE
  8
1
 62
7
  6
CONTINUOUS
 10
221.405741
 20
463.824285
 11
222.838531
 21
463.698932
  0
LINE
  8
1
 62
7
  6
CONTINUOUS
 10
221.754364
 20
467.809064
 11
223.187154
 21
467.683711
  0
LINE
  8
1
 62
7
  6
DASHDOT
 10
175.755097
 20
469.825838
 11
147.755097
 21
469.825838
  0
LINE
  8
1
 62
7
  6
CONTINUOUS
 10
175.755097
 20
471.975838
 11
175.755097
 21
467.675838
  0
LINE
  8
1
 62
7
  6
CONTINUOUS
 10
165.755097
 20
467.625838
 11
165.755097
 21
472.025838
  0
LINE
  8
1
 62
7
  6
CONTINUOUS
 10
154.755097
 20
472.325838
 11
154.755097
 21
467.325838
  0
LINE
  8
1
 62
7
  6
CONTINUOUS
 10
154.755097
 20
467.325838
 11
175.755097
 21
467.325838
  0
LINE
  8
1
 62
7
  6
CONTINUOUS
 10
175.755097
 20
467.325838
 11
175.755097
 21
472.325838
  0
LINE
  8
1
 62
7
  6
CONTINUOUS
 10
175.755097
 20
472.325838
 11
154.755097
 21
472.325838
  0
LINE
  8
1
 62
7
  6
CONTINUOUS
 10
175.755097
 20
468.225838
 11
165.755097
 21
468.225838
  0
LINE
  8
1
 62
7
  6
CONTINUOUS
 10
175.755097
 20
469.025838
 11
165.755097
 21
469.025838
  0
LINE
  8
1
 62
7
  6
CONTINUOUS
 10
175.755097
 20
469.825838
 11
165.755097
 21
469.825838
  0
LINE
  8
1
 62
7
  6
CONTINUOUS
 10
175.755097
 20
470.625838
 11
165.755097
 21
470.625838
  0
LINE
  8
1
 62
7
  6
CONTINUOUS
 10
175.755097
 20
471.425838
 11
165.755097
 21
471.425838
  0
TEXT
  8
1
 62
7
  6
DASHDOT
 10
239.698460
 20
459.070083
 40
4.000000
 41
0.916667
  1
/放射率入力
  7
KANJI
 50
0.000000
 51
0.000000
  0
TEXT
  8
1
 62
7
  6
DASHDOT
 10
233.781014
 20
463.063778
 40
4.000000
 41
0.687500
  1
3：ｱﾗｰﾑ出力
  7
KANJI
 50
0.000000
 51
0.000000
  0
TEXT
  8
1
 62
7
  6
DASHDOT
 10
233.906835
 20
472.635844
 40
4.000000
 41
0.666667
  1
2：ｱﾅﾛｸﾞ出力
  7
KANJI
 50
0.000000
 51
0.000000
  0
TEXT
  8
1
 62
7
  6
DASHDOT
 10
233.996894
 20
482.792882
 40
4.000000
 41
0.600000
  1
1：GND
  7
KANJI
 50
0.000000
 51
0.000000
  0
DIMENSION
  8
1
 62
7
  6
CONTINUOUS
  2
*D15
 10
149.631486
 20
467.925838
 11
149.631486
 21
478.525838
 70
     0
  1
φ3.8
 13
137.882697
 23
467.925838
 14
137.882697
 24
471.725838
 50
90.000000
  0
DIMENSION
  8
1
 62
7
  6
CONTINUOUS
  2
*D16
 10
130.566208
 20
437.325838
 11
130.566208
 21
439.332098
 70
     0
  1
4
 13
127.129323
 23
437.325838
 14
121.744828
 24
441.325838
 50
90.000000
  0
TEXT
  8
1
 62
7
  6
CONTINUOUS
 10
134.401155
 20
416.683061
 40
4.000000
 41
0.625000
  1
φ6ｻﾞｸﾞﾘ深さ2.5
  7
KANJI
 50
0.000000
 51
0.000000
  0
LINE
  8
1
 62
7
  6
CONTINUOUS
 10
115.593302
 20
440.115525
 11
134.554750
 21
420.919412
  0
LINE
  8
1
 62
7
  6
CONTINUOUS
 10
134.554750
 20
420.919412
 11
148.885305
 21
420.919412
  0
TEXT
  8
1
 62
7
  6
CONTINUOUS
 10
134.885305
 20
420.919412
 40
4.000000
 41
0.583333
  1
2-φ3.5
  7
KANJI
 50
0.000000
 51
30.000000
  0
LINE
  8
1
 62
7
  6
CONTINUOUS
 10
115.593302
 20
440.115525
 11
117.319170
 21
439.104892
  0
LINE
  8
1
 62
7
  6
CONTINUOUS
 10
115.593302
 20
440.115525
 11
116.582631
 21
438.377357
  0
LINE
  8
1
 62
7
  6
CONTINUOUS
 10
117.319170
 20
439.104892
 11
116.582631
 21
438.377357
  0
LINE
  8
1
 62
7
  6
CONTINUOUS
 10
115.932701
 20
439.771925
 11
116.795635
 21
439.266608
  0
LINE
  8
1
 62
7
  6
CONTINUOUS
 10
115.932701
 20
439.771925
 11
116.427366
 21
438.902841
  0
LINE
  8
1
 62
7
  6
CONTINUOUS
 10
116.795635
 20
439.266608
 11
116.427366
 21
438.902841
  0
LINE
  8
1
 62
7
  6
CONTINUOUS
 10
155.438083
 20
467.325838
 11
169.078361
 21
449.730752
  0
LINE
  8
1
 62
7
  6
CONTINUOUS
 10
169.078361
 20
449.730752
 11
192.233916
 21
449.730752
  0
TEXT
  8
1
 62
7
  6
CONTINUOUS
 10
174.233916
 20
449.730752
 40
4.000000
 41
0.642857
  1
接続ｹｰﾌﾞﾙ
  7
KANJI
 50
0.000000
 51
30.000000
  0
LINE
  8
1
 62
7
  6
CONTINUOUS
 10
155.438083
 20
467.325838
 11
157.030805
 21
466.116195
  0
LINE
  8
1
 62
7
  6
CONTINUOUS
 10
155.438083
 20
467.325838
 11
156.212599
 21
465.481896
  0
LINE
  8
1
 62
7
  6
CONTINUOUS
 10
157.030805
 20
466.116195
 11
156.212599
 21
465.481896
  0
LINE
  8
1
 62
7
  6
CONTINUOUS
 10
155.733988
 20
466.944140
 11
156.530349
 21
466.339318
  0
LINE
  8
1
 62
7
  6
CONTINUOUS
 10
155.733988
 20
466.944140
 11
156.121246
 21
466.022169
  0
LINE
  8
1
 62
7
  6
CONTINUOUS
 10
156.530349
 20
466.339318
 11
156.121246
 21
466.022169
  0
TEXT
  8
1
 62
7
  6
CONTINUOUS
 10
169.681887
 20
449.730752
 40
4.000000
 41
1.000000
  1
②
  7
KANJI
 50
0.000000
 51
0.000000
  0
TEXT
  8
1
 62
7
  6
CONTINUOUS
 10
139.537866
 20
425.030544
 40
4.000000
 41
1.000000
  1
取付穴
  7
KANJI
 50
0.000000
 51
0.000000
  0
TEXT
  8
1
 62
7
  6
CONTINUOUS
 10
134.173377
 20
425.489240
 40
4.000000
 41
1.000000
  1
④
  7
KANJI
 50
0.000000
 51
0.000000
  0
TEXT
  8
1
 62
7
  6
CONTINUOUS
 10
208.781486
 20
383.919598
 40
4.000000
 41
0.656250
  1
重量 ；80g(ｹｰﾌﾞﾙ除く)
  7
KANJI
 50
0.000000
 51
0.000000
  0
LINE
  8
1
 62
7
  6
CONTINUOUS
 10
281.863591
 20
462.678662
 11
252.509465
 21
437.325838
  0
LINE
  8
1
 62
7
  6
CONTINUOUS
 10
252.509465
 20
437.325838
 11
219.237669
 21
437.325838
  0
TEXT
  8
1
 62
7
  6
CONTINUOUS
 10
219.237669
 20
437.325838
 40
4.000000
 41
0.727273
  1
放射率調節ﾎﾞﾘｭｰﾑ
  7
KANJI
 50
0.000000
 51
30.000000
  0
LINE
  8
1
 62
7
  6
CONTINUOUS
 10
281.863591
 20
462.678662
 11
280.739910
 21
461.024171
  0
LINE
  8
1
 62
7
  6
CONTINUOUS
 10
281.863591
 20
462.678662
 11
280.063209
 21
461.807672
  0
LINE
  8
1
 62
7
  6
CONTINUOUS
 10
280.739910
 20
461.024171
 11
280.063209
 21
461.807672
  0
LINE
  8
1
 62
7
  6
CONTINUOUS
 10
281.498083
 20
462.362977
 11
280.936243
 21
461.535731
  0
LINE
  8
1
 62
7
  6
CONTINUOUS
 10
281.498083
 20
462.362977
 11
280.597892
 21
461.927482
  0
LINE
  8
1
 62
7
  6
CONTINUOUS
 10
280.936243
 20
461.535731
 11
280.597892
 21
461.927482
  0
TEXT
  8
1
 62
7
  6
CONTINUOUS
 10
214.278429
 20
437.406396
 40
4.000000
 41
1.000000
  1
⑧
  7
KANJI
 50
0.000000
 51
0.000000
  0
TEXT
  8
1
 62
7
  6
CONTINUOUS
 10
223.415538
 20
420.999970
 40
4.000000
 41
1.000000
  1
⑦
  7
KANJI
 50
0.000000
 51
0.000000
  0
TEXT
  8
1
 62
7
  6
CONTINUOUS
 10
227.025113
 20
416.919412
 40
4.000000
 41
0.533333
  1
φ2.5ｽﾃﾚｵﾐﾆｼﾞｬｯｸ
  7
KANJI
 50
0.000000
 51
0.000000
  0
LINE
  8
1
 62
7
  6
CONTINUOUS
 10
281.809780
 20
457.042237
 11
262.524368
 21
420.919412
  0
LINE
  8
1
 62
7
  6
CONTINUOUS
 10
262.524368
 20
420.919412
 11
227.964010
 21
420.919412
  0
TEXT
  8
1
 62
7
  6
CONTINUOUS
 10
227.964010
 20
420.919412
 40
4.000000
 41
0.576923
  1
RS232C出力ｼﾞｬｯｸ
  7
KANJI
 50
0.000000
 51
30.000000
  0
LINE
  8
1
 62
7
  6
CONTINUOUS
 10
281.809780
 20
457.042237
 11
281.356578
 21
455.094262
  0
LINE
  8
1
 62
7
  6
CONTINUOUS
 10
281.809780
 20
457.042237
 11
280.443308
 21
455.581842
  0
LINE
  8
1
 62
7
  6
CONTINUOUS
 10
281.356578
 20
455.094262
 11
280.443308
 21
455.581842
  0
LINE
  8
1
 62
7
  6
CONTINUOUS
 10
281.582321
 20
456.616191
 11
281.355720
 21
455.642203
  0
LINE
  8
1
 62
7
  6
CONTINUOUS
 10
281.582321
 20
456.616191
 11
280.899085
 21
455.885993
  0
LINE
  8
1
 62
7
  6
CONTINUOUS
 10
281.355720
 20
455.642203
 11
280.899085
 21
455.885993
  0
DIMENSION
  8
1
 62
7
  6
CONTINUOUS
  2
*D17
 10
305.635396
 20
437.325838
 11
305.635396
 21
452.015537
 70
     0
  1
26
 13
289.925930
 23
437.325838
 14
286.784055
 24
463.325840
 50
90.000000
  0
LINE
  8
1
 62
7
  6
DASHDOT
 10
280.715501
 20
463.325840
 11
284.784055
 21
463.325840
  0
LINE
  8
1
 62
7
  6
DASHDOT
 10
282.625930
 20
465.282303
 11
282.625930
 21
461.526714
  0
DIMENSION
  8
1
 62
7
  6
CONTINUOUS
  2
*D18
 10
299.102237
 20
437.325838
 11
299.102237
 21
449.590053
 70
     0
  1
21.4
 13
288.217027
 23
437.325838
 14
287.425930
 24
458.725840
 50
90.000000
  0
CIRCLE
  8
1
 62
7
  6
CONTINUOUS
 10
282.625930
 20
463.325840
 40
1.000000
  0
DIMENSION
  8
1
 62
7
  6
CONTINUOUS
  2
*D19
 10
263.925934
 20
494.026364
 11
276.925934
 21
494.026364
 70
     0
  1
26.5
 13
263.925934
 23
482.325838
 14
289.925934
 24
482.325838
 50
0.000000
  0
CIRCLE
  8
1
 62
7
  6
CONTINUOUS
 10
283.225930
 20
458.725840
 40
1.250000
  0
LINE
  8
1
 62
7
  6
DASHDOT
 10
280.600042
 20
458.725840
 11
286.514420
 21
458.725840
  0
LINE
  8
1
 62
7
  6
DASHDOT
 10
283.225930
 20
455.947697
 11
283.225930
 21
462.047087
  0
CIRCLE
  8
1
 62
7
  6
CONTINUOUS
 10
283.225930
 20
458.725840
 40
2.200000
  0
CIRCLE
  8
1
 62
7
  6
CONTINUOUS
 10
276.925930
 20
469.825838
 40
2.400000
  0
LINE
  8
1
 62
7
  6
DASHDOT
 10
276.925930
 20
477.068519
 11
276.925930
 21
465.003046
  0
LINE
  8
1
 62
7
  6
DASHDOT
 10
271.130547
 20
469.825838
 11
282.499935
 21
469.825838
  0
ARC
  8
1
 62
7
  6
CONTINUOUS
 10
276.925930
 20
470.975838
 40
4.750000
 50
-152.154524
 51
-27.845476
  0
ARC
  8
1
 62
7
  6
CONTINUOUS
 10
276.925930
 20
470.975838
 40
4.750000
 50
27.845476
 51
152.154524
  0
LINE
  8
1
 62
7
  6
CONTINUOUS
 10
281.125930
 20
473.194509
 11
281.125930
 21
468.757168
  0
LINE
  8
1
 62
7
  6
CONTINUOUS
 10
272.725930
 20
473.194509
 11
272.725930
 21
468.757168
  0
ARC
  8
1
 62
7
  6
CONTINUOUS
 10
276.925930
 20
470.975838
 40
5.750000
 50
25.264411
 51
154.735589
  0
LINE
  8
1
 62
7
  6
CONTINUOUS
 10
282.125930
 20
473.429917
 11
282.125930
 21
468.521760
  0
LINE
  8
1
 62
7
  6
CONTINUOUS
 10
271.725930
 20
473.429917
 11
271.725930
 21
468.521760
  0
ARC
  8
1
 62
7
  6
CONTINUOUS
 10
276.925930
 20
470.975838
 40
5.750000
 50
-154.735589
 51
-107.718932
  0
ARC
  8
1
 62
7
  6
CONTINUOUS
 10
276.925930
 20
470.975838
 40
5.750000
 50
-72.281068
 51
-25.264411
  0
LINE
  8
1
 62
7
  6
CONTINUOUS
 10
275.175930
 20
465.498613
 11
275.175930
 21
464.974392
  0
ARC
  8
1
 62
7
  6
CONTINUOUS
 10
276.925930
 20
470.975838
 40
6.250000
 50
-106.256493
 51
-73.738983
  0
LINE
  8
1
 62
7
  6
CONTINUOUS
 10
278.675930
 20
465.498613
 11
278.675930
 21
464.975838
  0
LINE
  8
1
 62
7
  6
DASHDOT
 10
261.609926
 20
441.325838
 11
292.034984
 21
441.325838
  0
CIRCLE
  8
1
 62
7
  6
CONTINUOUS
 10
269.925930
 20
475.325836
 40
2.000000
  0
LINE
  8
1
 62
7
  6
CONTINUOUS
 10
268.925930
 20
475.525836
 11
268.925930
 21
475.125836
  0
LINE
  8
1
 62
7
  6
CONTINUOUS
 10
269.725930
 20
476.325836
 11
270.125930
 21
476.325836
  0
LINE
  8
1
 62
7
  6
CONTINUOUS
 10
270.925930
 20
475.525836
 11
270.925930
 21
475.125836
  0
LINE
  8
1
 62
7
  6
CONTINUOUS
 10
270.125930
 20
474.325836
 11
269.725930
 21
474.325836
  0
LINE
  8
1
 62
7
  6
CONTINUOUS
 10
270.125930
 20
474.525836
 11
270.125930
 21
474.325836
  0
LINE
  8
1
 62
7
  6
CONTINUOUS
 10
270.925930
 20
475.125836
 11
270.725930
 21
475.125836
  0
ARC
  8
1
 62
7
  6
CONTINUOUS
 10
270.725930
 20
474.525836
 40
0.600000
 50
90.000000
 51
180.000000
  0
LINE
  8
1
 62
7
  6
CONTINUOUS
 10
270.725930
 20
475.525836
 11
270.925930
 21
475.525836
  0
LINE
  8
1
 62
7
  6
CONTINUOUS
 10
270.125930
 20
476.325836
 11
270.125930
 21
476.125836
  0
ARC
  8
1
 62
7
  6
CONTINUOUS
 10
270.725930
 20
476.125836
 40
0.600000
 50
180.000000
 51
-90.000000
  0
LINE
  8
1
 62
7
  6
CONTINUOUS
 10
268.925930
 20
475.525836
 11
269.125930
 21
475.525836
  0
LINE
  8
1
 62
7
  6
CONTINUOUS
 10
269.725930
 20
476.125836
 11
269.725930
 21
476.325836
  0
ARC
  8
1
 62
7
  6
CONTINUOUS
 10
269.125930
 20
476.125836
 40
0.600000
 50
-90.000000
 51
0.000000
  0
LINE
  8
1
 62
7
  6
CONTINUOUS
 10
269.125930
 20
475.125836
 11
268.925930
 21
475.125836
  0
LINE
  8
1
 62
7
  6
CONTINUOUS
 10
269.725930
 20
474.325836
 11
269.725930
 21
474.525836
  0
ARC
  8
1
 62
7
  6
CONTINUOUS
 10
269.125930
 20
474.525836
 40
0.600000
 50
0.000000
 51
90.000000
  0
CIRCLE
  8
1
 62
7
  6
CONTINUOUS
 10
283.925930
 20
440.328600
 40
2.000000
  0
LINE
  8
1
 62
7
  6
CONTINUOUS
 10
282.925930
 20
440.528600
 11
282.925930
 21
440.128600
  0
LINE
  8
1
 62
7
  6
CONTINUOUS
 10
283.725930
 20
441.328600
 11
284.125930
 21
441.328600
  0
LINE
  8
1
 62
7
  6
CONTINUOUS
 10
284.925930
 20
440.528600
 11
284.925930
 21
440.128600
  0
LINE
  8
1
 62
7
  6
CONTINUOUS
 10
284.125930
 20
439.328600
 11
283.725930
 21
439.328600
  0
LINE
  8
1
 62
7
  6
CONTINUOUS
 10
284.125930
 20
439.528600
 11
284.125930
 21
439.328600
  0
LINE
  8
1
 62
7
  6
CONTINUOUS
 10
284.925930
 20
440.128600
 11
284.725930
 21
440.128600
  0
ARC
  8
1
 62
7
  6
CONTINUOUS
 10
284.725930
 20
439.528600
 40
0.600000
 50
90.000000
 51
180.000000
  0
LINE
  8
1
 62
7
  6
CONTINUOUS
 10
284.725930
 20
440.528600
 11
284.925930
 21
440.528600
  0
LINE
  8
1
 62
7
  6
CONTINUOUS
 10
284.125930
 20
441.328600
 11
284.125930
 21
441.128600
  0
ARC
  8
1
 62
7
  6
CONTINUOUS
 10
284.725930
 20
441.128600
 40
0.600000
 50
180.000000
 51
-90.000000
  0
LINE
  8
1
 62
7
  6
CONTINUOUS
 10
282.925930
 20
440.528600
 11
283.125930
 21
440.528600
  0
LINE
  8
1
 62
7
  6
CONTINUOUS
 10
283.725930
 20
441.128600
 11
283.725930
 21
441.328600
  0
ARC
  8
1
 62
7
  6
CONTINUOUS
 10
283.125930
 20
441.128600
 40
0.600000
 50
-90.000000
 51
0.000000
  0
LINE
  8
1
 62
7
  6
CONTINUOUS
 10
283.125930
 20
440.128600
 11
282.925930
 21
440.128600
  0
LINE
  8
1
 62
7
  6
CONTINUOUS
 10
283.725930
 20
439.328600
 11
283.725930
 21
439.528600
  0
ARC
  8
1
 62
7
  6
CONTINUOUS
 10
283.125930
 20
439.528600
 40
0.600000
 50
0.000000
 51
90.000000
  0
LINE
  8
1
 62
7
  6
DOT
 10
275.425930
 20
441.325840
 11
278.431518
 21
441.325840
  0
LINE
  8
1
 62
7
  6
DOT
 10
278.231518
 20
437.325840
 11
278.231518
 21
441.325838
  0
LINE
  8
1
 62
7
  6
DOT
 10
275.625930
 20
437.325840
 11
275.625930
 21
441.325838
  0
LINE
  8
1
 62
7
  6
DOT
 10
278.425930
 20
437.325840
 11
278.425930
 21
441.325840
  0
LINE
  8
1
 62
7
  6
DOT
 10
275.425930
 20
437.325840
 11
275.425930
 21
441.325840
  0
LINE
  8
1
 62
7
  6
DOT
 10
266.425934
 20
439.575840
 11
287.425930
 21
439.575840
  0
LINE
  8
1
 62
7
  6
DOT
 10
289.657980
 20
438.325839
 11
287.425930
 21
438.325839
  0
LINE
  8
1
 62
7
  6
DOT
 10
287.425930
 20
444.325839
 11
289.925930
 21
444.325839
  0
LINE
  8
1
 62
7
  6
DOT
 10
287.425930
 20
438.325839
 11
287.425930
 21
444.325839
  0
LINE
  8
1
 62
7
  6
DOT
 10
264.193883
 20
438.325839
 11
266.425934
 21
438.325839
  0
LINE
  8
1
 62
7
  6
DOT
 10
266.425934
 20
443.075840
 11
286.425930
 21
443.075840
  0
LINE
  8
1
 62
7
  6
DOT
 10
266.425934
 20
444.325839
 11
263.925934
 21
444.325839
  0
LINE
  8
1
 62
7
  6
DOT
 10
266.425934
 20
438.325839
 11
266.425934
 21
444.325839
  0
LINE
  8
1
 62
7
  6
DASHDOT
 10
269.925930
 20
477.805927
 11
269.925930
 21
472.385870
  0
LINE
  8
1
 62
7
  6
DASHDOT
 10
272.755646
 20
475.325836
 11
267.365207
 21
475.325836
  0
ARC
  8
1
 62
7
  6
CONTINUOUS
 10
287.925930
 20
476.325838
 40
2.000000
 50
0.000000
 51
90.000000
  0
LINE
  8
1
 62
7
  6
CONTINUOUS
 10
265.925930
 20
478.325838
 11
287.925930
 21
478.325838
  0
ARC
  8
1
 62
7
  6
CONTINUOUS
 10
265.925930
 20
476.325838
 40
2.000000
 50
90.000000
 51
180.000000
  0
LINE
  8
1
 62
7
  6
CONTINUOUS
 10
289.925930
 20
476.325838
 11
289.925930
 21
439.325838
  0
ARC
  8
1
 62
7
  6
CONTINUOUS
 10
287.925930
 20
439.325838
 40
2.000000
 50
-90.000000
 51
0.000000
  0
LINE
  8
1
 62
7
  6
CONTINUOUS
 10
287.925930
 20
437.325838
 11
265.925930
 21
437.325838
  0
LINE
  8
1
 62
7
  6
CONTINUOUS
 10
263.925930
 20
439.325838
 11
263.925930
 21
476.325838
  0
ARC
  8
1
 62
7
  6
CONTINUOUS
 10
265.925930
 20
439.325838
 40
2.000000
 50
180.000000
 51
-90.000000
  0
LINE
  8
1
 62
7
  6
DASHDOT
 10
286.293388
 20
440.328600
 11
281.412399
 21
440.328600
  0
LINE
  8
1
 62
7
  6
DASHDOT
 10
283.925930
 20
442.853790
 11
283.925930
 21
437.663878
  0
LINE
  8
1
 62
7
  6
DASHDOT
 10
276.925930
 20
485.155089
 11
276.925930
 21
430.046473
  0
DIMENSION
  8
1
 62
7
  6
CONTINUOUS
  2
*D20
 10
15.114819
 20
440.825838
 11
15.114819
 21
483.247376
 70
     0
  1
φ23(ﾚﾝｽﾞ有効径）
 13
15.114819
 23
440.825838
 14
15.114819
 24
463.825838
 50
90.000000
  0
DIMENSION
  8
1
 62
7
  6
CONTINUOUS
  2
*D21
 10
10.837041
 20
437.325838
 11
10.837041
 21
445.525154
 70
     0
  1
15
 13
18.129323
 23
437.325838
 14
12.131141
 24
452.325838
 50
90.000000
  0
DIMENSION
  8
1
 62
7
  6
CONTINUOUS
  2
*D22
 10
3.781486
 20
465.827072
 11
3.781486
 21
452.325838
 70
     0
  1
M27P0.75
 13
17.129323
 23
465.827072
 14
17.129323
 24
438.824604
 50
-90.000000
  0
TEXT
  8
1
 62
7
  6
CONTINUOUS
 10
-2.929625
 20
429.635176
 40
4.000000
 41
1.000000
  1
測定距離
  7
KANJI
 50
0.000000
 51
30.000000
  0
LINE
  8
1
 62
7
  6
CONTINUOUS
 10
19.129323
 20
429.635176
 11
17.197472
 21
429.117538
  0
LINE
  8
1
 62
7
  6
CONTINUOUS
 10
19.129323
 20
429.635176
 11
17.197472
 21
430.152814
  0
LINE
  8
1
 62
7
  6
CONTINUOUS
 10
17.197472
 20
429.117538
 11
17.197472
 21
430.152814
  0
LINE
  8
1
 62
7
  6
CONTINUOUS
 10
18.646360
 20
429.635176
 11
17.680435
 21
429.376357
  0
LINE
  8
1
 62
7
  6
CONTINUOUS
 10
18.646360
 20
429.635176
 11
17.680435
 21
429.893995
  0
LINE
  8
1
 62
7
  6
CONTINUOUS
 10
17.680435
 20
429.376357
 11
17.680435
 21
429.893995
  0
LINE
  8
1
 62
7
  6
CONTINUOUS
 10
19.129323
 20
429.635176
 11
-2.929625
 21
429.635176
  0
LINE
  8
1
 62
7
  6
CONTINUOUS
 10
224.051388
 20
453.634886
 11
193.050815
 21
437.969585
  0
LINE
  8
1
 62
7
  6
CONTINUOUS
 10
193.050815
 20
437.969585
 11
168.531486
 21
437.969585
  0
TEXT
  8
1
 62
7
  6
CONTINUOUS
 10
168.531486
 20
437.969585
 40
4.000000
 41
0.500000
  1
4-M3
  7
KANJI
 50
0.000000
 51
30.000000
  0
LINE
  8
1
 62
7
  6
CONTINUOUS
 10
224.051388
 20
453.634886
 11
222.560634
 21
452.301599
  0
LINE
  8
1
 62
7
  6
CONTINUOUS
 10
224.051388
 20
453.634886
 11
222.093714
 21
453.225603
  0
LINE
  8
1
 62
7
  6
CONTINUOUS
 10
222.560634
 20
452.301599
 11
222.093714
 21
453.225603
  0
LINE
  8
1
 62
7
  6
CONTINUOUS
 10
223.620335
 20
453.417065
 11
222.874958
 21
452.750422
  0
LINE
  8
1
 62
7
  6
CONTINUOUS
 10
223.620335
 20
453.417065
 11
222.641498
 21
453.212423
  0
LINE
  8
1
 62
7
  6
CONTINUOUS
 10
222.874958
 20
452.750422
 11
222.641498
 21
453.212423
  0
TEXT
  8
1
 62
7
  6
CONTINUOUS
 10
169.085724
 20
433.113390
 40
4.000000
 41
1.000000
  1
圧着端子
  7
KANJI
 50
0.000000
 51
0.000000
  0
TEXT
  8
1
 62
7
  6
CONTINUOUS
 10
163.428622
 20
433.153846
 40
4.000000
 41
1.000000
  1
③
  7
KANJI
 50
0.000000
 51
0.000000
  0
TEXT
  8
1
 62
7
  6
DASHDOT
 10
233.816776
 20
452.814569
 40
4.000000
 41
0.590909
  1
4：DC+13～27V
  7
KANJI
 50
0.000000
 51
0.000000
  0
DIMENSION
  8
1
 62
7
  6
CONTINUOUS
  2
*D23
 10
282.625930
 20
484.607936
 11
286.153280
 21
484.607936
 70
     0
  1
7.6
 13
282.625930
 23
467.282303
 14
289.925930
 24
467.595269
 50
0.000000
  0
DIMENSION
  8
1
 62
7
  6
CONTINUOUS
  2
*D24
 10
283.225930
 20
449.590053
 11
286.192401
 21
449.590053
 70
     0
  1
7
 13
283.225930
 23
453.947697
 14
289.925930
 24
452.015537
 50
0.000000
  0
TEXT
  8
1
 62
7
  6
CONTINUOUS
 10
245.382623
 20
15.437914
 40
4.000000
 41
0.875000
  1
００５－０５６－Ａ３０１
  7
KANJI
 50
0.000000
 51
0.000000
  0
TEXT
  8
1
 62
7
  6
CONTINUOUS
 10
242.059225
 20
23.437914
 40
4.000000
 41
0.875000
  1
ＲＳ２３２Ｃ出力タイプ外形図
  7
KANJI
 50
0.000000
 51
0.000000
  0
TEXT
  8
1
 62
7
  6
CONTINUOUS
 10
246.646523
 20
30.322020
 40
4.000000
 41
1.000000
  1
ＴＭＨ９１高温タイプ
  7
KANJI
 50
0.000000
 51
0.000000
  0
TEXT
  8
1
 62
7
  6
CONTINUOUS
 10
179.772351
 20
22.782285
 40
4.000000
 41
0.500000
  1
2009/05/20
  7
KANJI
 50
-0.091868
 51
0.000000
  0
TEXT
  8
1
 62
7
  6
DASHDOT
 10
225.479571
 20
129.657032
 40
4.000000
 41
0.583333
  1
4：DC+4.7～27V
  7
KANJI
 50
0.000000
 51
0.000000
  0
TEXT
  8
1
 62
7
  6
DASHDOT
 10
225.443809
 20
139.906240
 40
4.000000
 41
0.541667
  1
3：RS232C TXD
  7
KANJI
 50
0.000000
 51
0.000000
  0
TEXT
  8
1
 62
7
  6
DASHDOT
 10
225.569630
 20
149.478307
 40
4.000000
 41
0.541667
  1
2：RS232C RXD
  7
KANJI
 50
0.000000
 51
0.000000
  0
TEXT
  8
1
 62
7
  6
DASHDOT
 10
225.659689
 20
159.635345
 40
4.000000
 41
0.600000
  1
1：GND
  7
KANJI
 50
0.000000
 51
0.000000
  0
LINE
  8
1
 62
7
  6
DOT
 10
259.213886
 20
119.156242
 11
280.713882
 21
119.156242
  0
ARC
  8
1
 62
7
  6
CONTINUOUS
 10
281.213882
 20
152.606240
 40
2.000000
 50
0.000000
 51
90.000000
  0
LINE
  8
1
 62
7
  6
CONTINUOUS
 10
258.713882
 20
154.606240
 11
281.213882
 21
154.606240
  0
ARC
  8
1
 62
7
  6
CONTINUOUS
 10
258.713882
 20
152.606240
 40
2.000000
 50
90.000000
 51
180.000000
  0
LINE
  8
1
 62
7
  6
CONTINUOUS
 10
283.213882
 20
152.606240
 11
283.213882
 21
115.406240
  0
ARC
  8
1
 62
7
  6
CONTINUOUS
 10
281.213882
 20
115.406240
 40
2.000000
 50
-90.000000
 51
0.000000
  0
LINE
  8
1
 62
7
  6
CONTINUOUS
 10
281.213882
 20
113.406240
 11
258.713882
 21
113.406240
  0
LINE
  8
1
 62
7
  6
CONTINUOUS
 10
256.713882
 20
115.406240
 11
256.713882
 21
152.606240
  0
ARC
  8
1
 62
7
  6
CONTINUOUS
 10
258.713882
 20
115.406240
 40
2.000000
 50
180.000000
 51
-90.000000
  0
DIMENSION
  8
1
 62
7
  6
CONTINUOUS
  2
*D25
 10
256.713886
 20
170.106766
 11
269.745919
 21
170.106766
 70
     0
  1
26.5
 13
256.713886
 23
158.606240
 14
283.213886
 24
158.606240
 50
0.000000
  0
LINE
  8
1
 62
7
  6
DOT
 10
259.213886
 20
115.656242
 11
280.713882
 21
115.656242
  0
LINE
  8
1
 62
7
  6
DASHDOT
 10
254.397878
 20
117.406240
 11
285.072936
 21
117.406240
  0
LINE
  8
1
 62
7
  6
DOT
 10
256.981835
 20
114.406241
 11
259.213886
 21
114.406241
  0
LINE
  8
1
 62
7
  6
DOT
 10
259.213886
 20
120.406241
 11
256.713886
 21
120.406241
  0
LINE
  8
1
 62
7
  6
DOT
 10
259.213886
 20
114.406241
 11
259.213886
 21
120.406241
  0
LINE
  8
1
 62
7
  6
DOT
 10
282.945932
 20
114.406241
 11
280.713882
 21
114.406241
  0
LINE
  8
1
 62
7
  6
DOT
 10
280.713882
 20
120.406241
 11
283.213882
 21
120.406241
  0
LINE
  8
1
 62
7
  6
DOT
 10
280.713882
 20
114.406241
 11
280.713882
 21
120.406241
  0
CIRCLE
  8
1
 62
7
  6
CONTINUOUS
 10
269.963882
 20
145.906240
 40
2.400000
  0
LINE
  8
1
 62
7
  6
DASHDOT
 10
269.963882
 20
153.148921
 11
269.963882
 21
141.083448
  0
LINE
  8
1
 62
7
  6
DASHDOT
 10
264.168499
 20
145.906240
 11
275.537887
 21
145.906240
  0
ARC
  8
1
 62
7
  6
CONTINUOUS
 10
269.963882
 20
147.056240
 40
4.750000
 50
-152.154524
 51
-27.845476
  0
ARC
  8
1
 62
7
  6
CONTINUOUS
 10
269.963882
 20
147.056240
 40
4.750000
 50
27.845476
 51
152.154524
  0
LINE
  8
1
 62
7
  6
CONTINUOUS
 10
274.163882
 20
149.274911
 11
274.163882
 21
144.837570
  0
LINE
  8
1
 62
7
  6
CONTINUOUS
 10
265.763882
 20
149.274911
 11
265.763882
 21
144.837570
  0
ARC
  8
1
 62
7
  6
CONTINUOUS
 10
269.963882
 20
147.056240
 40
5.750000
 50
25.264411
 51
154.735589
  0
LINE
  8
1
 62
7
  6
CONTINUOUS
 10
275.163882
 20
149.510319
 11
275.163882
 21
144.602162
  0
LINE
  8
1
 62
7
  6
CONTINUOUS
 10
264.763882
 20
149.510319
 11
264.763882
 21
144.602162
  0
ARC
  8
1
 62
7
  6
CONTINUOUS
 10
269.963882
 20
147.056240
 40
5.750000
 50
-154.735589
 51
-107.718932
  0
ARC
  8
1
 62
7
  6
CONTINUOUS
 10
269.963882
 20
147.056240
 40
5.750000
 50
-72.281068
 51
-25.264411
  0
LINE
  8
1
 62
7
  6
CONTINUOUS
 10
268.213882
 20
141.579015
 11
268.213882
 21
141.054794
  0
ARC
  8
1
 62
7
  6
CONTINUOUS
 10
269.963882
 20
147.056240
 40
6.250000
 50
-106.256493
 51
-73.738983
  0
LINE
  8
1
 62
7
  6
CONTINUOUS
 10
271.713882
 20
141.579015
 11
271.713882
 21
141.056240
  0
CIRCLE
  8
1
 62
7
  6
CONTINUOUS
 10
262.963882
 20
151.406238
 40
2.000000
  0
LINE
  8
1
 62
7
  6
CONTINUOUS
 10
261.963882
 20
151.606238
 11
261.963882
 21
151.206238
  0
LINE
  8
1
 62
7
  6
CONTINUOUS
 10
262.763882
 20
152.406238
 11
263.163882
 21
152.406238
  0
LINE
  8
1
 62
7
  6
CONTINUOUS
 10
263.963882
 20
151.606238
 11
263.963882
 21
151.206238
  0
LINE
  8
1
 62
7
  6
CONTINUOUS
 10
263.163882
 20
150.406238
 11
262.763882
 21
150.406238
  0
LINE
  8
1
 62
7
  6
CONTINUOUS
 10
263.163882
 20
150.606238
 11
263.163882
 21
150.406238
  0
LINE
  8
1
 62
7
  6
CONTINUOUS
 10
263.963882
 20
151.206238
 11
263.763882
 21
151.206238
  0
ARC
  8
1
 62
7
  6
CONTINUOUS
 10
263.763882
 20
150.606238
 40
0.600000
 50
90.000000
 51
180.000000
  0
LINE
  8
1
 62
7
  6
CONTINUOUS
 10
263.763882
 20
151.606238
 11
263.963882
 21
151.606238
  0
LINE
  8
1
 62
7
  6
CONTINUOUS
 10
263.163882
 20
152.406238
 11
263.163882
 21
152.206238
  0
ARC
  8
1
 62
7
  6
CONTINUOUS
 10
263.763882
 20
152.206238
 40
0.600000
 50
180.000000
 51
-90.000000
  0
LINE
  8
1
 62
7
  6
CONTINUOUS
 10
261.963882
 20
151.606238
 11
262.163882
 21
151.606238
  0
LINE
  8
1
 62
7
  6
CONTINUOUS
 10
262.763882
 20
152.206238
 11
262.763882
 21
152.406238
  0
ARC
  8
1
 62
7
  6
CONTINUOUS
 10
262.163882
 20
152.206238
 40
0.600000
 50
-90.000000
 51
0.000000
  0
LINE
  8
1
 62
7
  6
CONTINUOUS
 10
262.163882
 20
151.206238
 11
261.963882
 21
151.206238
  0
LINE
  8
1
 62
7
  6
CONTINUOUS
 10
262.763882
 20
150.406238
 11
262.763882
 21
150.606238
  0
ARC
  8
1
 62
7
  6
CONTINUOUS
 10
262.163882
 20
150.606238
 40
0.600000
 50
0.000000
 51
90.000000
  0
CIRCLE
  8
1
 62
7
  6
CONTINUOUS
 10
276.963882
 20
116.409002
 40
2.000000
  0
LINE
  8
1
 62
7
  6
CONTINUOUS
 10
275.963882
 20
116.609002
 11
275.963882
 21
116.209002
  0
LINE
  8
1
 62
7
  6
CONTINUOUS
 10
276.763882
 20
117.409002
 11
277.163882
 21
117.409002
  0
LINE
  8
1
 62
7
  6
CONTINUOUS
 10
277.963882
 20
116.609002
 11
277.963882
 21
116.209002
  0
LINE
  8
1
 62
7
  6
CONTINUOUS
 10
277.163882
 20
115.409002
 11
276.763882
 21
115.409002
  0
LINE
  8
1
 62
7
  6
CONTINUOUS
 10
277.163882
 20
115.609002
 11
277.163882
 21
115.409002
  0
LINE
  8
1
 62
7
  6
CONTINUOUS
 10
277.963882
 20
116.209002
 11
277.763882
 21
116.209002
  0
ARC
  8
1
 62
7
  6
CONTINUOUS
 10
277.763882
 20
115.609002
 40
0.600000
 50
90.000000
 51
180.000000
  0
LINE
  8
1
 62
7
  6
CONTINUOUS
 10
277.763882
 20
116.609002
 11
277.963882
 21
116.609002
  0
LINE
  8
1
 62
7
  6
CONTINUOUS
 10
277.163882
 20
117.409002
 11
277.163882
 21
117.209002
  0
ARC
  8
1
 62
7
  6
CONTINUOUS
 10
277.763882
 20
117.209002
 40
0.600000
 50
180.000000
 51
-90.000000
  0
LINE
  8
1
 62
7
  6
CONTINUOUS
 10
275.963882
 20
116.609002
 11
276.163882
 21
116.609002
  0
LINE
  8
1
 62
7
  6
CONTINUOUS
 10
276.763882
 20
117.209002
 11
276.763882
 21
117.409002
  0
ARC
  8
1
 62
7
  6
CONTINUOUS
 10
276.163882
 20
117.209002
 40
0.600000
 50
-90.000000
 51
0.000000
  0
LINE
  8
1
 62
7
  6
CONTINUOUS
 10
276.163882
 20
116.209002
 11
275.963882
 21
116.209002
  0
LINE
  8
1
 62
7
  6
CONTINUOUS
 10
276.763882
 20
115.409002
 11
276.763882
 21
115.609002
  0
ARC
  8
1
 62
7
  6
CONTINUOUS
 10
276.163882
 20
115.609002
 40
0.600000
 50
0.000000
 51
90.000000
  0
LINE
  8
1
 62
7
  6
DOT
 10
268.463882
 20
117.406242
 11
271.469470
 21
117.406242
  0
LINE
  8
1
 62
7
  6
DOT
 10
271.269470
 20
113.406242
 11
271.269470
 21
117.406240
  0
LINE
  8
1
 62
7
  6
DOT
 10
268.663882
 20
113.406242
 11
268.663882
 21
117.406240
  0
LINE
  8
1
 62
7
  6
DOT
 10
271.463882
 20
113.406242
 11
271.463882
 21
117.406242
  0
LINE
  8
1
 62
7
  6
DOT
 10
268.463882
 20
113.406242
 11
268.463882
 21
117.406242
  0
LINE
  8
1
 62
7
  6
DASHDOT
 10
262.963882
 20
153.886329
 11
262.963882
 21
148.466272
  0
LINE
  8
1
 62
7
  6
DASHDOT
 10
265.793598
 20
151.406238
 11
260.403159
 21
151.406238
  0
LINE
  8
1
 62
7
  6
DASHDOT
 10
279.331340
 20
116.409002
 11
274.450351
 21
116.409002
  0
LINE
  8
1
 62
7
  6
DASHDOT
 10
276.963882
 20
118.934192
 11
276.963882
 21
113.744280
  0
LINE
  8
1
 62
7
  6
DASHDOT
 10
269.963882
 20
161.235491
 11
269.963882
 21
106.126875
  0
TEXT
  8
1
 62
7
  6
CONTINUOUS
 10
154.150798
 20
109.524125
 40
4.000000
 41
1.000000
  1
③
  7
KANJI
 50
0.000000
 51
0.000000
  0
TEXT
  8
1
 62
7
  6
CONTINUOUS
 10
159.703698
 20
109.700045
 40
4.000000
 41
1.000000
  1
圧着端子
  7
KANJI
 50
0.000000
 51
0.000000
  0
LINE
  8
1
 62
7
  6
CONTINUOUS
 10
213.941706
 20
129.715288
 11
182.941133
 21
114.049987
  0
LINE
  8
1
 62
7
  6
CONTINUOUS
 10
182.941133
 20
114.049987
 11
158.627759
 21
114.049987
  0
TEXT
  8
1
 62
7
  6
CONTINUOUS
 10
158.627759
 20
114.049987
 40
4.000000
 41
0.500000
  1
4-M3
  7
KANJI
 50
0.000000
 51
30.000000
  0
LINE
  8
1
 62
7
  6
CONTINUOUS
 10
213.941706
 20
129.715288
 11
212.450952
 21
128.382001
  0
LINE
  8
1
 62
7
  6
CONTINUOUS
 10
213.941706
 20
129.715288
 11
211.984032
 21
129.306005
  0
LINE
  8
1
 62
7
  6
CONTINUOUS
 10
212.450952
 20
128.382001
 11
211.984032
 21
129.306005
  0
LINE
  8
1
 62
7
  6
CONTINUOUS
 10
213.510652
 20
129.497467
 11
212.765276
 21
128.830824
  0
LINE
  8
1
 62
7
  6
CONTINUOUS
 10
213.510652
 20
129.497467
 11
212.531815
 21
129.292825
  0
LINE
  8
1
 62
7
  6
CONTINUOUS
 10
212.765276
 20
128.830824
 11
212.531815
 21
129.292825
  0
TEXT
  8
1
 62
7
  6
CONTINUOUS
 10
188.074133
 20
143.069824
 40
4.000000
 41
0.500000
  1
ｼﾛ
  7
KANJI
 50
-5.000000
 51
0.000000
  0
TEXT
  8
1
 62
7
  6
CONTINUOUS
 10
187.825514
 20
147.693604
 40
4.000000
 41
0.500000
  1
ﾐﾄﾞﾘ
  7
KANJI
 50
5.000000
 51
0.000000
  0
TEXT
  8
1
 62
7
  6
CONTINUOUS
 10
188.798398
 20
152.290180
 40
4.000000
 41
0.500000
  1
ｸﾛ
  7
KANJI
 50
15.000000
 51
0.000000
  0
TEXT
  8
1
 62
7
  6
CONTINUOUS
 10
187.374496
 20
135.439689
 40
4.000000
 41
0.500000
  1
ｱｶ
  7
KANJI
 50
-15.000000
 51
0.000000
  0
LINE
  8
1
 62
7
  6
CONTINUOUS
 10
165.645415
 20
143.756240
 11
160.000000
 21
143.756240
  0
LINE
  8
1
 62
7
  6
CONTINUOUS
 10
160.000000
 20
148.056240
 11
165.645415
 21
148.056240
  0
DIMENSION
  8
1
 62
7
  6
CONTINUOUS
  2
*D26
 10
160.000000
 20
161.509385
 11
186.134507
 21
161.509385
 70
     0
  1
100
 13
160.000000
 23
147.906240
 14
211.470371
 24
151.915404
 50
0.000000
  0
CIRCLE
  8
1
 62
7
  6
CONTINUOUS
 10
213.941706
 20
132.965288
 40
1.500000
  0
CIRCLE
  8
1
 62
7
  6
CONTINUOUS
 10
215.455149
 20
141.548453
 40
1.500000
  0
CIRCLE
  8
1
 62
7
  6
CONTINUOUS
 10
215.455149
 20
150.264027
 40
1.500000
  0
CIRCLE
  8
1
 62
7
  6
CONTINUOUS
 10
213.941706
 20
158.847193
 40
1.500000
  0
LINE
  8
1
 62
7
  6
CONTINUOUS
 10
195.718525
 20
153.446668
 11
165.774824
 21
145.423277
  0
LINE
  8
1
 62
7
  6
CONTINUOUS
 10
195.459706
 20
154.412594
 11
165.516005
 21
146.389203
  0
LINE
  8
1
 62
7
  6
DASHDOT
 10
220.094310
 20
160.495778
 11
163.669496
 21
145.376794
  0
LINE
  8
1
 62
7
  6
CONTINUOUS
 10
209.482719
 20
160.033546
 11
194.993831
 21
156.151260
  0
LINE
  8
1
 62
7
  6
CONTINUOUS
 10
194.993831
 20
156.151260
 11
196.184399
 21
151.708001
  0
LINE
  8
1
 62
7
  6
CONTINUOUS
 10
196.184399
 20
151.708001
 11
210.673286
 21
155.590287
  0
LINE
  8
1
 62
7
  6
CONTINUOUS
 10
210.673286
 20
155.590287
 11
209.482719
 21
160.033546
  0
ARC
  8
1
 62
7
  6
CONTINUOUS
 10
213.941706
 20
158.847193
 40
3.250000
 50
-127.020128
 51
157.020128
  0
LINE
  8
1
 62
7
  6
CONTINUOUS
 10
210.595641
 20
155.880065
 11
211.984895
 21
156.252314
  0
LINE
  8
1
 62
7
  6
CONTINUOUS
 10
209.560364
 20
159.743768
 11
210.949619
 21
160.116018
  0
LINE
  8
1
 62
7
  6
CONTINUOUS
 10
196.571028
 20
148.109971
 11
165.688992
 21
145.408143
  0
LINE
  8
1
 62
7
  6
CONTINUOUS
 10
196.483872
 20
149.106166
 11
165.601837
 21
146.404338
  0
LINE
  8
1
 62
7
  6
DASHDOT
 10
221.800556
 20
150.819179
 11
163.607577
 21
145.727953
  0
LINE
  8
1
 62
7
  6
CONTINUOUS
 10
211.269912
 20
152.206652
 11
196.326992
 21
150.899316
  0
LINE
  8
1
 62
7
  6
CONTINUOUS
 10
196.326992
 20
150.899316
 11
196.727908
 21
146.316821
  0
LINE
  8
1
 62
7
  6
CONTINUOUS
 10
196.727908
 20
146.316821
 11
211.670829
 21
147.624157
  0
LINE
  8
1
 62
7
  6
CONTINUOUS
 10
211.670829
 20
147.624157
 11
211.269912
 21
152.206652
  0
ARC
  8
1
 62
7
  6
CONTINUOUS
 10
215.455149
 20
150.264027
 40
3.250000
 50
-137.020128
 51
147.020128
  0
LINE
  8
1
 62
7
  6
CONTINUOUS
 10
211.644682
 20
147.923015
 11
213.077471
 21
148.048368
  0
LINE
  8
1
 62
7
  6
CONTINUOUS
 10
211.296059
 20
151.907794
 11
212.728848
 21
152.033147
  0
LINE
  8
1
 62
7
  6
CONTINUOUS
 10
195.459706
 20
137.399887
 11
165.516005
 21
145.423277
  0
LINE
  8
1
 62
7
  6
CONTINUOUS
 10
195.718525
 20
138.365813
 11
165.774824
 21
146.389203
  0
LINE
  8
1
 62
7
  6
DASHDOT
 10
220.094310
 20
131.316703
 11
163.669496
 21
146.435686
  0
LINE
  8
1
 62
7
  6
CONTINUOUS
 10
210.673286
 20
136.222194
 11
196.184399
 21
140.104479
  0
LINE
  8
1
 62
7
  6
CONTINUOUS
 10
196.184399
 20
140.104479
 11
194.993831
 21
135.661220
  0
LINE
  8
1
 62
7
  6
CONTINUOUS
 10
194.993831
 20
135.661220
 11
209.482719
 21
131.778935
  0
LINE
  8
1
 62
7
  6
CONTINUOUS
 10
209.482719
 20
131.778935
 11
210.673286
 21
136.222194
  0
ARC
  8
1
 62
7
  6
CONTINUOUS
 10
213.941706
 20
132.965288
 40
3.250000
 50
-157.020128
 51
127.020128
  0
LINE
  8
1
 62
7
  6
CONTINUOUS
 10
209.560364
 20
132.068713
 11
210.949619
 21
131.696463
  0
LINE
  8
1
 62
7
  6
CONTINUOUS
 10
210.595641
 20
135.932416
 11
211.984895
 21
135.560166
  0
LINE
  8
1
 62
7
  6
CONTINUOUS
 10
196.483872
 20
142.706315
 11
165.601837
 21
145.408143
  0
LINE
  8
1
 62
7
  6
CONTINUOUS
 10
196.571028
 20
143.702510
 11
165.688992
 21
146.404338
  0
LINE
  8
1
 62
7
  6
DASHDOT
 10
221.800556
 20
140.993302
 11
163.607577
 21
146.084528
  0
LINE
  8
1
 62
7
  6
CONTINUOUS
 10
211.670829
 20
144.188324
 11
196.727908
 21
145.495660
  0
LINE
  8
1
 62
7
  6
CONTINUOUS
 10
196.727908
 20
145.495660
 11
196.326992
 21
140.913164
  0
LINE
  8
1
 62
7
  6
CONTINUOUS
 10
196.326992
 20
140.913164
 11
211.269912
 21
139.605828
  0
LINE
  8
1
 62
7
  6
CONTINUOUS
 10
211.269912
 20
139.605828
 11
211.670829
 21
144.188324
  0
ARC
  8
1
 62
7
  6
CONTINUOUS
 10
215.455149
 20
141.548453
 40
3.250000
 50
-147.020128
 51
137.020128
  0
LINE
  8
1
 62
7
  6
CONTINUOUS
 10
211.296059
 20
139.904687
 11
212.728848
 21
139.779334
  0
LINE
  8
1
 62
7
  6
CONTINUOUS
 10
211.644682
 20
143.889466
 11
213.077471
 21
143.764113
  0
LINE
  8
1
 62
7
  6
DASHDOT
 10
165.645415
 20
145.906240
 11
162.175035
 21
145.906240
  0
LINE
  8
1
 62
7
  6
CONTINUOUS
 10
165.645415
 20
148.056240
 11
165.645415
 21
143.756240
  0
LINE
  8
1
 62
7
  6
CONTINUOUS
 10
154.495328
 20
148.406240
 11
154.495328
 21
143.406240
  0
LINE
  8
1
 62
7
  6
CONTINUOUS
 10
154.495328
 20
143.406240
 11
165.645415
 21
143.406240
  0
LINE
  8
1
 62
7
  6
CONTINUOUS
 10
165.645415
 20
143.406240
 11
165.645415
 21
148.406240
  0
LINE
  8
1
 62
7
  6
CONTINUOUS
 10
165.645415
 20
148.406240
 11
154.495328
 21
148.406240
  0
LINE
  8
1
 62
7
  6
CONTINUOUS
 10
165.645415
 20
144.306240
 11
160.000000
 21
144.306240
  0
LINE
  8
1
 62
7
  6
CONTINUOUS
 10
165.645415
 20
145.106240
 11
160.000000
 21
145.106240
  0
LINE
  8
1
 62
7
  6
CONTINUOUS
 10
165.645415
 20
145.906240
 11
160.000000
 21
145.906240
  0
LINE
  8
1
 62
7
  6
CONTINUOUS
 10
165.645415
 20
146.706240
 11
160.000000
 21
146.706240
  0
LINE
  8
1
 62
7
  6
CONTINUOUS
 10
165.645415
 20
147.506240
 11
160.000000
 21
147.506240
  0
DIMENSION
  8
1
 62
7
  6
CONTINUOUS
  2
*D27
 10
130.461331
 20
161.509385
 11
146.238987
 21
161.509385
 70
     0
  1
ｹｰﾌﾞﾙ長
 13
130.461331
 23
145.906240
 14
160.000000
 24
145.906240
 50
0.000000
  0
LINE
  8
1
 62
7
  6
CONTINUOUS
 10
148.578972
 20
144.006240
 11
160.000000
 21
144.006240
  0
LINE
  8
1
 62
7
  6
CONTINUOUS
 10
160.000000
 20
147.806240
 11
149.528972
 21
147.806240
  0
LINE
  8
1
 62
7
  6
CONTINUOUS
 10
160.000000
 20
143.706240
 11
160.000000
 21
148.106240
  0
LINE
  8
1
 62
7
  6
CONTINUOUS
 10
144.492187
 20
144.006240
 11
157.819124
 21
125.811154
  0
LINE
  8
1
 62
7
  6
CONTINUOUS
 10
157.819124
 20
125.811154
 11
181.745294
 21
125.811154
  0
TEXT
  8
1
 62
7
  6
CONTINUOUS
 10
163.745294
 20
126.077692
 40
4.000000
 41
0.642857
  1
接続ｹｰﾌﾞﾙ
  7
KANJI
 50
0.000000
 51
30.000000
  0
LINE
  8
1
 62
7
  6
CONTINUOUS
 10
144.492187
 20
144.006240
 11
146.051318
 21
142.753599
  0
LINE
  8
1
 62
7
  6
CONTINUOUS
 10
144.492187
 20
144.006240
 11
145.216113
 21
142.141855
  0
LINE
  8
1
 62
7
  6
CONTINUOUS
 10
146.051318
 20
142.753599
 11
145.216113
 21
142.141855
  0
LINE
  8
1
 62
7
  6
CONTINUOUS
 10
144.777569
 20
143.616612
 11
145.557134
 21
142.990291
  0
LINE
  8
1
 62
7
  6
CONTINUOUS
 10
144.777569
 20
143.616612
 11
145.139532
 21
142.684420
  0
LINE
  8
1
 62
7
  6
CONTINUOUS
 10
145.557134
 20
142.990291
 11
145.139532
 21
142.684420
  0
TEXT
  8
1
 62
7
  6
CONTINUOUS
 10
157.819124
 20
125.811154
 40
4.000000
 41
1.000000
  1
②
  7
KANJI
 50
0.000000
 51
0.000000
  0
DIMENSION
  8
1
 62
7
  6
CONTINUOUS
  2
*D28
 10
152.560654
 20
144.006240
 11
152.560654
 21
154.357894
 70
     0
  1
φ3.8
 13
152.560654
 23
144.006240
 14
152.560654
 24
147.806240
 50
90.000000
  0
LINE
  8
1
 62
7
  6
DASHDOT
 10
128.761331
 20
145.906240
 11
158.220397
 21
145.906240
  0
LINE
  8
1
 62
7
  6
CONTINUOUS
 10
134.961331
 20
144.006240
 11
147.519302
 21
144.006240
  0
LINE
  8
1
 62
7
  6
CONTINUOUS
 10
148.469302
 20
147.806240
 11
134.961331
 21
147.806240
  0
LINE
  8
1
 62
7
  6
CONTINUOUS
 10
148.707175
 20
148.757734
 11
147.258458
 21
142.962864
  0
LINE
  8
1
 62
7
  6
CONTINUOUS
 10
149.756099
 20
148.714745
 11
148.311680
 21
142.937071
  0
LINE
  8
1
 62
7
  6
CONTINUOUS
 10
141.297111
 20
143.406240
 11
134.961331
 21
143.406240
  0
LINE
  8
1
 62
7
  6
CONTINUOUS
 10
141.297111
 20
148.406240
 11
141.297111
 21
143.406240
  0
LINE
  8
1
 62
7
  6
CONTINUOUS
 10
134.961331
 20
148.406240
 11
141.297111
 21
148.406240
  0
LINE
  8
1
 62
7
  6
DASHDOT
 10
120.679275
 20
145.906240
 11
140.997111
 21
145.906240
  0
LINE
  8
1
 62
7
  6
DASHDOT
 10
120.543696
 20
145.906240
 11
145.805155
 21
145.906240
  0
DIMENSION
  8
1
 62
7
  6
CONTINUOUS
  2
*D29
 10
138.834799
 20
113.406240
 11
138.834799
 21
131.250000
 70
     0
  1
32.5
 13
132.461331
 23
113.406240
 14
136.961331
 24
145.906240
 50
90.000000
  0
DIMENSION
  8
1
 62
7
  6
CONTINUOUS
  2
*D30
 10
135.712940
 20
113.406240
 11
135.712940
 21
114.406240
 70
     0
  1
4
 13
134.461331
 23
113.406240
 14
129.076836
 24
117.406240
 50
90.000000
  0
TEXT
  8
1
 62
7
  6
CONTINUOUS
 10
146.872082
 20
100.095555
 40
4.000000
 41
1.000000
  1
取付穴
  7
KANJI
 50
0.000000
 51
0.000000
  0
TEXT
  8
1
 62
7
  6
CONTINUOUS
 10
141.507593
 20
100.554251
 40
4.000000
 41
1.000000
  1
④
  7
KANJI
 50
0.000000
 51
0.000000
  0
TEXT
  8
1
 62
7
  6
CONTINUOUS
 10
141.706916
 20
91.051958
 40
4.000000
 41
0.625000
  1
φ6ｻﾞｸﾞﾘ深さ2.5
  7
KANJI
 50
0.000000
 51
0.000000
  0
LINE
  8
1
 62
7
  6
CONTINUOUS
 10
122.925309
 20
116.195927
 11
141.121231
 21
95.590452
  0
LINE
  8
1
 62
7
  6
CONTINUOUS
 10
141.121231
 20
95.590452
 11
156.387563
 21
95.590452
  0
TEXT
  8
1
 62
7
  6
CONTINUOUS
 10
142.387563
 20
95.590452
 40
4.000000
 41
0.583333
  1
2-φ3.5
  7
KANJI
 50
0.000000
 51
30.000000
  0
LINE
  8
1
 62
7
  6
CONTINUOUS
 10
122.925309
 20
116.195927
 11
124.592049
 21
115.090496
  0
LINE
  8
1
 62
7
  6
CONTINUOUS
 10
122.925309
 20
116.195927
 11
123.816033
 21
114.405226
  0
LINE
  8
1
 62
7
  6
CONTINUOUS
 10
124.592049
 20
115.090496
 11
123.816033
 21
114.405226
  0
LINE
  8
1
 62
7
  6
CONTINUOUS
 10
123.244992
 20
115.833910
 11
124.078362
 21
115.281195
  0
LINE
  8
1
 62
7
  6
CONTINUOUS
 10
123.244992
 20
115.833910
 11
123.690354
 21
114.938560
  0
LINE
  8
1
 62
7
  6
CONTINUOUS
 10
124.078362
 20
115.281195
 11
123.690354
 21
114.938560
  0
DIMENSION
  8
1
 62
7
  6
CONTINUOUS
  2
*D31
 10
13.327392
 20
73.917039
 11
13.327392
 21
59.084417
 70
     0
  1
φ30
 13
25.407235
 23
73.917039
 14
25.407235
 24
43.917039
 50
-90.000000
  0
LINE
  8
1
 62
7
  6
DASHDOT
 10
21.068268
 20
58.917039
 11
161.159295
 21
58.917039
  0
LINE
  8
1
 62
7
  6
CONTINUOUS
 10
89.407235
 20
72.917039
 11
89.407235
 21
44.917039
  0
LINE
  8
1
 62
7
  6
CONTINUOUS
 10
26.407235
 20
72.917039
 11
26.407235
 21
44.917039
  0
LINE
  8
1
 62
7
  6
CONTINUOUS
 10
26.407235
 20
44.917039
 11
27.407235
 21
43.917039
  0
LINE
  8
1
 62
7
  6
CONTINUOUS
 10
88.407235
 20
43.917039
 11
27.407235
 21
43.917039
  0
LINE
  8
1
 62
7
  6
CONTINUOUS
 10
26.407235
 20
72.917039
 11
27.407235
 21
73.917039
  0
LINE
  8
1
 62
7
  6
CONTINUOUS
 10
88.407235
 20
73.917039
 11
27.407235
 21
73.917039
  0
LINE
  8
1
 62
7
  6
CONTINUOUS
 10
88.407235
 20
43.917039
 11
89.407235
 21
44.917039
  0
LINE
  8
1
 62
7
  6
CONTINUOUS
 10
88.407235
 20
73.917039
 11
89.407235
 21
72.917039
  0
TEXT
  8
1
 62
7
  6
CONTINUOUS
 10
108.453084
 20
72.199946
 40
4.000000
 41
0.700000
  1
取付ﾈｼﾞ
  7
KANJI
 50
0.000000
 51
0.000000
  0
TEXT
  8
1
 62
7
  6
CONTINUOUS
 10
134.000000
 20
36.000000
 40
4.000000
 41
0.700000
  1
取付ﾈｼﾞ
  7
KANJI
 50
0.000000
 51
0.000000
  0
TEXT
  8
1
 62
7
  6
CONTINUOUS
 10
128.342898
 20
36.040456
 40
4.000000
 41
1.000000
  1
⑤
  7
KANJI
 50
0.000000
 51
0.000000
  0
TEXT
  8
1
 62
7
  6
CONTINUOUS
 10
103.753431
 20
72.215621
 40
4.000000
 41
1.000000
  1
⑥
  7
KANJI
 50
0.000000
 51
0.000000
  0
LINE
  8
1
 62
7
  6
CONTINUOUS
 10
96.948982
 20
60.158596
 11
102.009776
 21
76.324384
  0
LINE
  8
1
 62
7
  6
CONTINUOUS
 10
102.009776
 20
76.324384
 11
117.811330
 21
76.324384
  0
TEXT
  8
1
 62
7
  6
CONTINUOUS
 10
103.811330
 20
76.422180
 40
4.000000
 41
0.700000
  1
M3深さ4
  7
KANJI
 50
-0.000000
 51
30.000000
  0
LINE
  8
1
 62
7
  6
CONTINUOUS
 10
96.948982
 20
60.158596
 11
97.032142
 21
62.156866
  0
LINE
  8
1
 62
7
  6
CONTINUOUS
 10
96.948982
 20
60.158596
 11
98.020136
 21
61.847569
  0
LINE
  8
1
 62
7
  6
CONTINUOUS
 10
97.032142
 20
62.156866
 11
98.020136
 21
61.847569
  0
LINE
  8
1
 62
7
  6
CONTINUOUS
 10
97.093271
 20
60.619501
 11
97.134851
 21
61.618636
  0
LINE
  8
1
 62
7
  6
CONTINUOUS
 10
97.093271
 20
60.619501
 11
97.628848
 21
61.463988
  0
LINE
  8
1
 62
7
  6
CONTINUOUS
 10
97.134851
 20
61.618636
 11
97.628848
 21
61.463988
  0
LINE
  8
1
 62
7
  6
CONTINUOUS
 10
117.166037
 20
57.854524
 11
127.932121
 21
40.856195
  0
LINE
  8
1
 62
7
  6
CONTINUOUS
 10
127.932121
 20
40.856195
 11
143.097700
 21
40.856195
  0
TEXT
  8
1
 62
7
  6
CONTINUOUS
 10
129.097700
 20
40.729594
 40
4.000000
 41
0.700000
  1
M3深さ4
  7
KANJI
 50
0.000000
 51
30.000000
  0
LINE
  8
1
 62
7
  6
CONTINUOUS
 10
117.166037
 20
57.854524
 11
118.637015
 21
56.499451
  0
LINE
  8
1
 62
7
  6
CONTINUOUS
 10
117.166037
 20
57.854524
 11
117.762405
 21
55.945507
  0
LINE
  8
1
 62
7
  6
CONTINUOUS
 10
118.637015
 20
56.499451
 11
117.762405
 21
55.945507
  0
LINE
  8
1
 62
7
  6
CONTINUOUS
 10
117.424455
 20
57.446512
 11
118.159944
 21
56.768976
  0
LINE
  8
1
 62
7
  6
CONTINUOUS
 10
117.424455
 20
57.446512
 11
117.722639
 21
56.492004
  0
LINE
  8
1
 62
7
  6
CONTINUOUS
 10
118.159944
 20
56.768976
 11
117.722639
 21
56.492004
  0
DIMENSION
  8
1
 62
7
  6
CONTINUOUS
  2
*D32
 10
89.407235
 20
39.449503
 11
93.136078
 21
39.449503
 70
     0
  1
6.7
 13
89.407235
 23
43.667039
 14
96.107235
 24
56.917039
 50
0.000000
  0
DIMENSION
  8
1
 62
7
  6
CONTINUOUS
  2
*D33
 10
96.107235
 20
39.449503
 11
106.423883
 21
39.449503
 70
     0
  1
20
 13
96.107235
 23
55.687039
 14
116.107235
 24
55.687039
 50
0.000000
  0
LINE
  8
1
 62
7
  6
DASHDOT
 10
96.107235
 20
60.918409
 11
96.107235
 21
57.001010
  0
LINE
  8
1
 62
7
  6
DASHDOT
 10
116.107235
 20
60.918409
 11
116.107235
 21
57.001010
  0
CIRCLE
  8
1
 62
7
  6
CONTINUOUS
 10
116.107235
 20
58.917039
 40
1.500000
  0
CIRCLE
  8
1
 62
7
  6
CONTINUOUS
 10
116.107235
 20
58.917039
 40
1.230000
  0
CIRCLE
  8
1
 62
7
  6
CONTINUOUS
 10
96.107235
 20
58.917039
 40
1.500000
  0
CIRCLE
  8
1
 62
7
  6
CONTINUOUS
 10
96.107235
 20
58.917039
 40
1.230000
  0
LINE
  8
1
 62
7
  6
CONTINUOUS
 10
128.707235
 20
72.167039
 11
128.707235
 21
45.667039
  0
LINE
  8
1
 62
7
  6
CONTINUOUS
 10
128.707235
 20
45.667039
 11
130.407235
 21
45.667039
  0
LINE
  8
1
 62
7
  6
CONTINUOUS
 10
130.407235
 20
45.667039
 11
130.407235
 21
72.167039
  0
LINE
  8
1
 62
7
  6
CONTINUOUS
 10
130.407235
 20
72.167039
 11
128.707235
 21
72.167039
  0
LINE
  8
1
 62
7
  6
CONTINUOUS
 10
89.407235
 20
72.167039
 11
89.407235
 21
45.667039
  0
LINE
  8
1
 62
7
  6
CONTINUOUS
 10
89.407235
 20
45.667039
 11
128.707235
 21
45.667039
  0
LINE
  8
1
 62
7
  6
CONTINUOUS
 10
128.707235
 20
45.667039
 11
128.707235
 21
72.167039
  0
LINE
  8
1
 62
7
  6
CONTINUOUS
 10
128.707235
 20
72.167039
 11
89.407235
 21
72.167039
  0
DIMENSION
  8
1
 62
7
  6
CONTINUOUS
  2
*D34
 10
80.848273
 20
45.667039
 11
80.848273
 21
58.973827
 70
     0
  1
26.5
 13
87.407235
 23
45.667039
 14
87.407235
 24
72.167039
 50
90.000000
  0
DIMENSION
  8
1
 62
7
  6
CONTINUOUS
  2
*D35
 10
151.593359
 20
53.717039
 11
151.593359
 21
47.661300
 70
     0
  1
11
 13
136.907235
 23
53.717039
 14
136.907235
 24
64.117039
 50
90.000000
  0
LINE
  8
1
 62
7
  6
CONTINUOUS
 10
144.907235
 20
56.417039
 11
134.907235
 21
56.417039
  0
LINE
  8
1
 62
7
  6
CONTINUOUS
 10
144.907235
 20
61.417039
 11
144.907235
 21
56.417039
  0
LINE
  8
1
 62
7
  6
CONTINUOUS
 10
134.907235
 20
61.417039
 11
144.907235
 21
61.417039
  0
LINE
  8
1
 62
7
  6
CONTINUOUS
 10
134.907235
 20
57.017039
 11
161.068310
 21
57.017039
  0
LINE
  8
1
 62
7
  6
CONTINUOUS
 10
162.018310
 20
60.817039
 11
134.907235
 21
60.817039
  0
LINE
  8
1
 62
7
  6
CONTINUOUS
 10
134.907235
 20
53.717039
 11
130.407235
 21
53.717039
  0
LINE
  8
1
 62
7
  6
CONTINUOUS
 10
134.907235
 20
64.117039
 11
134.907235
 21
53.717039
  0
LINE
  8
1
 62
7
  6
CONTINUOUS
 10
130.407235
 20
64.117039
 11
134.907235
 21
64.117039
  0
DIMENSION
  8
1
 62
7
  6
CONTINUOUS
  2
*D36
 10
15.882538
 20
113.406240
 11
15.882538
 21
122.325958
 70
     0
  1
15
 13
25.461331
 23
113.406240
 14
15.882538
 24
128.406240
 50
90.000000
  0
DIMENSION
  8
1
 62
7
  6
CONTINUOUS
  2
*D37
 10
11.133794
 20
141.907474
 11
11.133794
 21
127.997491
 70
     0
  1
M27P0.75
 13
24.461331
 23
141.907474
 14
24.461331
 24
114.905006
 50
-90.000000
  0
LINE
  8
1
 62
7
  6
CONTINUOUS
 10
26.461331
 20
105.715578
 11
24.529479
 21
105.197940
  0
LINE
  8
1
 62
7
  6
CONTINUOUS
 10
26.461331
 20
105.715578
 11
24.529479
 21
106.233216
  0
LINE
  8
1
 62
7
  6
CONTINUOUS
 10
24.529479
 20
105.197940
 11
24.529479
 21
106.233216
  0
LINE
  8
1
 62
7
  6
CONTINUOUS
 10
25.978368
 20
105.715578
 11
25.012442
 21
105.456759
  0
LINE
  8
1
 62
7
  6
CONTINUOUS
 10
25.978368
 20
105.715578
 11
25.012442
 21
105.974397
  0
LINE
  8
1
 62
7
  6
CONTINUOUS
 10
25.012442
 20
105.456759
 11
25.012442
 21
105.974397
  0
LINE
  8
1
 62
7
  6
CONTINUOUS
 10
26.461331
 20
105.715578
 11
6.560930
 21
105.715578
  0
TEXT
  8
1
 62
7
  6
CONTINUOUS
 10
7.191239
 20
97.976884
 40
4.000000
 41
1.000000
  1
測定距離
  7
KANJI
 50
0.000000
 51
30.000000
  0
LINE
  8
1
 62
7
  6
DASHDOT
 10
40.723585
 20
139.906240
 11
15.332915
 21
139.906240
  0
LINE
  8
1
 62
7
  6
DASHDOT
 10
40.723585
 20
116.906240
 11
15.332915
 21
116.906240
  0
LINE
  8
1
 62
7
  6
DASHDOT
 10
14.981156
 20
128.406240
 11
126.501316
 21
128.406240
  0
DIMENSION
  8
1
 62
7
  6
CONTINUOUS
  2
*D38
 10
21.576633
 20
116.906240
 11
21.576633
 21
160.000000
 70
     0
  1
φ23(ﾚﾝｽﾞ有効径）
 13
21.576633
 23
116.906240
 14
21.576633
 24
139.906240
 50
90.000000
  0
TEXT
  8
1
 62
7
  6
CONTINUOUS
 10
56.141098
 20
158.985271
 40
4.000000
 41
1.000000
  1
①
  7
KANJI
 50
0.000000
 51
0.000000
  0
TEXT
  8
1
 62
7
  6
CONTINUOUS
 10
199.397203
 20
79.510930
 40
4.000000
 41
0.656250
  1
重量 ；80g(ｹｰﾌﾞﾙ除く)
  7
KANJI
 50
0.000000
 51
0.000000
  0
LINE
  8
1
 62
7
  6
CONTINUOUS
 10
40.157035
 20
130.000000
 11
56.061350
 21
158.655270
  0
LINE
  8
1
 62
7
  6
CONTINUOUS
 10
56.061350
 20
158.655270
 11
68.438253
 21
158.655270
  0
TEXT
  8
1
 62
7
  6
CONTINUOUS
 10
60.438253
 20
158.735519
 40
4.000000
 41
0.500000
  1
ﾚﾝｽﾞ
  7
KANJI
 50
0.000000
 51
30.000000
  0
LINE
  8
1
 62
7
  6
CONTINUOUS
 10
40.157035
 20
130.000000
 11
40.641937
 21
131.940327
  0
LINE
  8
1
 62
7
  6
CONTINUOUS
 10
40.157035
 20
130.000000
 11
41.547136
 21
131.437922
  0
LINE
  8
1
 62
7
  6
CONTINUOUS
 10
40.641937
 20
131.940327
 11
41.547136
 21
131.437922
  0
LINE
  8
1
 62
7
  6
CONTINUOUS
 10
40.391411
 20
130.422281
 11
40.633862
 21
131.392445
  0
LINE
  8
1
 62
7
  6
CONTINUOUS
 10
40.391411
 20
130.422281
 11
41.086461
 21
131.141242
  0
LINE
  8
1
 62
7
  6
CONTINUOUS
 10
40.633862
 20
131.392445
 11
41.086461
 21
131.141242
  0
DIMENSION
  8
1
 62
7
  6
CONTINUOUS
  2
*D39
 10
76.419809
 20
113.406240
 11
76.419809
 21
166.165374
 70
     0
  1
41.2
 13
87.461331
 23
113.406240
 14
87.461331
 24
154.606240
 50
90.000000
  0
DIMENSION
  8
1
 62
7
  6
CONTINUOUS
  2
*D40
 10
89.461331
 20
105.715578
 11
56.071269
 21
105.715578
 70
     0
  1
63
 13
89.461331
 23
111.406240
 14
26.461331
 24
112.406240
 50
180.000000
  0
LINE
  8
1
 62
7
  6
DASHDOT
 10
106.318474
 20
126.263383
 11
40.723585
 21
116.906240
  0
LINE
  8
1
 62
7
  6
DASHDOT
 10
110.040278
 20
129.985188
 11
40.723585
 21
139.906240
  0
ARC
  8
1
 62
7
  6
DOT
 10
81.461331
 20
128.406240
 40
44.000000
 50
163.495484
 51
-163.495484
  0
ARC
  8
1
 62
7
  6
DOT
 10
-48.538669
 20
128.406240
 40
90.000000
 50
-7.983571
 51
7.983556
  0
LINE
  8
1
 62
7
  6
DOT
 10
39.274247
 20
140.906240
 11
40.589048
 21
140.906240
  0
LINE
  8
1
 62
7
  6
DOT
 10
39.274247
 20
115.906240
 11
40.589048
 21
115.906240
  0
LINE
  8
1
 62
7
  6
DOT
 10
26.461331
 20
114.905006
 11
71.296185
 21
114.905006
  0
LINE
  8
1
 62
7
  6
DOT
 10
26.461331
 20
141.907474
 11
71.296185
 21
141.907474
  0
LINE
  8
1
 62
7
  6
DOT
 10
26.461331
 20
115.405006
 11
71.296185
 21
115.405006
  0
LINE
  8
1
 62
7
  6
DOT
 10
26.461331
 20
141.407474
 11
71.296185
 21
141.407474
  0
LINE
  8
1
 62
7
  6
CONTINUOUS
 10
89.461331
 20
142.406240
 11
89.461331
 21
114.406240
  0
LINE
  8
1
 62
7
  6
CONTINUOUS
 10
26.461331
 20
142.406240
 11
26.461331
 21
114.406240
  0
LINE
  8
1
 62
7
  6
CONTINUOUS
 10
26.461331
 20
114.406240
 11
27.461331
 21
113.406240
  0
LINE
  8
1
 62
7
  6
CONTINUOUS
 10
88.461331
 20
113.406240
 11
27.461331
 21
113.406240
  0
LINE
  8
1
 62
7
  6
CONTINUOUS
 10
26.461331
 20
142.406240
 11
27.461331
 21
143.406240
  0
LINE
  8
1
 62
7
  6
CONTINUOUS
 10
88.461331
 20
143.406240
 11
27.461331
 21
143.406240
  0
LINE
  8
1
 62
7
  6
CONTINUOUS
 10
88.461331
 20
113.406240
 11
89.461331
 21
114.406240
  0
LINE
  8
1
 62
7
  6
CONTINUOUS
 10
88.461331
 20
143.406240
 11
89.461331
 21
142.406240
  0
LINE
  8
1
 62
7
  6
CONTINUOUS
 10
107.861331
 20
141.406242
 11
107.861331
 21
141.506242
  0
LINE
  8
1
 62
7
  6
DOT
 10
104.311331
 20
141.406242
 11
112.611331
 21
141.406242
  0
LINE
  8
1
 62
7
  6
CONTINUOUS
 10
109.061331
 20
141.406242
 11
109.061331
 21
141.506242
  0
LINE
  8
1
 62
7
  6
CONTINUOUS
 10
107.961329
 20
142.701242
 11
108.961329
 21
142.701242
  0
LINE
  8
1
 62
7
  6
DASHDOT
 10
108.461331
 20
140.072533
 11
108.461331
 21
152.444133
  0
LINE
  8
1
 62
7
  6
DOT
 10
105.621331
 20
151.406240
 11
106.221331
 21
151.406240
  0
LINE
  8
1
 62
7
  6
DOT
 10
108.161331
 20
151.406240
 11
108.761331
 21
151.406240
  0
LINE
  8
1
 62
7
  6
DOT
 10
110.701331
 20
151.406240
 11
111.301331
 21
151.406240
  0
LINE
  8
1
 62
7
  6
DOT
 10
103.311331
 20
147.521242
 11
103.311331
 21
148.031242
  0
LINE
  8
1
 62
7
  6
DOT
 10
103.311331
 20
148.031242
 11
113.611331
 21
148.031242
  0
LINE
  8
1
 62
7
  6
DOT
 10
113.611331
 20
148.031242
 11
113.611331
 21
147.521242
  0
LINE
  8
1
 62
7
  6
DOT
 10
113.611331
 20
147.521242
 11
103.311331
 21
147.521242
  0
LINE
  8
1
 62
7
  6
DOT
 10
104.311331
 20
141.506242
 11
112.611331
 21
141.506242
  0
LINE
  8
1
 62
7
  6
DOT
 10
105.621331
 20
148.031242
 11
105.621331
 21
151.406240
  0
LINE
  8
1
 62
7
  6
DOT
 10
106.221331
 20
151.406240
 11
106.221331
 21
148.031242
  0
LINE
  8
1
 62
7
  6
DOT
 10
108.161331
 20
148.031242
 11
108.161331
 21
151.406240
  0
LINE
  8
1
 62
7
  6
DOT
 10
108.761331
 20
151.406240
 11
108.761331
 21
148.031242
  0
LINE
  8
1
 62
7
  6
DOT
 10
110.701331
 20
148.031242
 11
110.701331
 21
151.406240
  0
LINE
  8
1
 62
7
  6
DOT
 10
111.301331
 20
151.406240
 11
111.301331
 21
148.031242
  0
LINE
  8
1
 62
7
  6
DOT
 10
104.311331
 20
147.521242
 11
104.311331
 21
141.406242
  0
LINE
  8
1
 62
7
  6
DOT
 10
112.611331
 20
147.521242
 11
112.611331
 21
141.406242
  0
LINE
  8
1
 62
7
  6
DASHDOT
 10
98.281683
 20
117.406239
 11
106.048188
 21
117.406239
  0
LINE
  8
1
 62
7
  6
DASHDOT
 10
96.161331
 20
112.332216
 11
96.161331
 21
119.005340
  0
LINE
  8
1
 62
7
  6
DASHDOT
 10
116.161331
 20
112.332216
 11
116.161331
 21
118.203922
  0
DIMENSION
  8
1
 62
7
  6
CONTINUOUS
  2
*D41
 10
89.461331
 20
105.715578
 11
95.561331
 21
105.715578
 70
     0
  1
12.2
 13
89.461331
 23
111.406240
 14
101.661331
 24
111.406240
 50
0.000000
  0
DIMENSION
  8
1
 62
7
  6
CONTINUOUS
  2
*D42
 10
101.661331
 20
105.715578
 11
111.661331
 21
105.715578
 70
     0
  1
20
 13
101.661331
 23
105.715578
 14
121.661331
 24
111.406240
 50
0.000000
  0
CIRCLE
  8
1
 62
7
  6
CONTINUOUS
 10
121.661331
 20
117.406237
 40
3.000000
  0
CIRCLE
  8
1
 62
7
  6
CONTINUOUS
 10
101.661331
 20
117.406239
 40
3.000000
  0
LINE
  8
1
 62
7
  6
DASHDOT
 10
101.661331
 20
113.308531
 11
101.661331
 21
121.123373
  0
LINE
  8
1
 62
7
  6
DASHDOT
 10
117.284778
 20
117.406240
 11
125.848188
 21
117.406240
  0
LINE
  8
1
 62
7
  6
DASHDOT
 10
121.661331
 20
113.308532
 11
121.661331
 21
121.397433
  0
CIRCLE
  8
1
 62
7
  6
CONTINUOUS
 10
121.661331
 20
117.406240
 40
1.750000
  0
CIRCLE
  8
1
 62
7
  6
CONTINUOUS
 10
101.661331
 20
117.406239
 40
1.750000
  0
DIMENSION
  8
1
 62
7
  6
CONTINUOUS
  2
*D43
 10
89.461331
 20
169.273468
 11
109.228659
 21
169.273468
 70
     0
  1
41
 13
89.461331
 23
156.606240
 14
130.461331
 24
156.606240
 50
0.000000
  0
LINE
  8
1
 62
7
  6
CONTINUOUS
 10
89.461331
 20
154.606240
 11
130.461331
 21
154.606240
  0
LINE
  8
1
 62
7
  6
CONTINUOUS
 10
130.461331
 20
113.406240
 11
130.461331
 21
154.606240
  0
DIMENSION
  8
1
 62
7
  6
CONTINUOUS
  2
*D44
 10
130.461331
 20
169.273468
 11
140.346958
 21
169.273468
 70
     0
  1
4.5
 13
130.461331
 23
154.806240
 14
134.961331
 24
154.806240
 50
0.000000
  0
LINE
  8
1
 62
7
  6
CONTINUOUS
 10
130.461331
 20
152.806240
 11
130.461331
 21
140.806240
  0
LINE
  8
1
 62
7
  6
CONTINUOUS
 10
130.461331
 20
140.806240
 11
134.961331
 21
140.806240
  0
LINE
  8
1
 62
7
  6
CONTINUOUS
 10
134.961331
 20
140.806240
 11
134.961331
 21
152.806240
  0
LINE
  8
1
 62
7
  6
CONTINUOUS
 10
134.961331
 20
152.806240
 11
130.461331
 21
152.806240
  0
LINE
  8
1
 62
7
  6
DOT
 10
130.461331
 20
143.506240
 11
134.961331
 21
143.506240
  0
LINE
  8
1
 62
7
  6
DOT
 10
130.461331
 20
148.306240
 11
134.961331
 21
148.306240
  0
LINE
  8
1
 62
7
  6
DOT
 10
128.161331
 20
142.806240
 11
130.461331
 21
142.806240
  0
LINE
  8
1
 62
7
  6
DOT
 10
128.161331
 20
152.306240
 11
130.461331
 21
152.306240
  0
LINE
  8
1
 62
7
  6
CONTINUOUS
 10
128.761331
 20
113.406240
 11
130.461331
 21
113.406240
  0
LINE
  8
1
 62
7
  6
CONTINUOUS
 10
128.761331
 20
114.406240
 11
128.761331
 21
154.606240
  0
LINE
  8
1
 62
7
  6
CONTINUOUS
 10
128.761331
 20
113.406240
 11
89.461331
 21
113.406240
  0
LINE
  8
1
 62
7
  6
CONTINUOUS
 10
128.761331
 20
114.406240
 11
128.761331
 21
113.406240
  0
LINE
  8
1
 62
7
  6
CONTINUOUS
 10
89.461331
 20
113.406240
 11
89.461331
 21
154.606240
  0
LINE
  8
1
 62
7
  6
DOT
 10
105.505713
 20
125.450622
 11
111.225123
 21
131.170032
  0
LINE
  8
1
 62
7
  6
DASHDOT
 10
108.461331
 20
141.406242
 11
106.318474
 21
126.263383
  0
LINE
  8
1
 62
7
  6
DASHDOT
 10
110.040278
 20
129.985188
 11
108.461331
 21
141.406242
  0
LINE
  8
1
 62
7
  6
DASHDOT
 10
108.461331
 20
125.258963
 11
108.461331
 21
142.989901
  0
LINE
  8
1
 62
7
  6
DASHDOT
 10
121.460291
 20
128.406240
 11
108.924576
 21
128.406240
  0
LINE
  8
1
 62
7
  6
CONTINUOUS
 10
292.000000
 20
205.000000
 11
5.000000
 21
205.000000
  0
LINE
  8
1
 62
7
  6
CONTINUOUS
 10
292.000000
 20
5.000000
 11
292.000000
 21
205.000000
  0
LINE
  8
1
 62
7
  6
CONTINUOUS
 10
5.000000
 20
205.000000
 11
5.000000
 21
5.000000
  0
LINE
  8
1
 62
7
  6
CONTINUOUS
 10
5.000000
 20
5.000000
 11
292.000000
 21
5.000000
  0
TEXT
  8
1
 62
7
  6
CONTINUOUS
 10
203.211093
 20
14.750828
 40
4.000000
 41
1.000000
  1
保田
  7
KANJI
 50
0.810149
 51
0.000000
  0
TEXT
  8
1
 62
7
  6
CONTINUOUS
 10
223.207781
 20
14.914735
 40
4.000000
 41
1.000000
  1
保田
  7
KANJI
 50
-0.112820
 51
0.000000
  0
TEXT
  8
1
 62
7
  6
CONTINUOUS
 10
215.995861
 20
22.290563
 40
4.000000
 41
1.000000
  1
三角法
  7
KANJI
 50
0.000000
 51
0.000000
  0
TEXT
  8
1
 62
7
  6
CONTINUOUS
 10
216.979305
 20
30.649834
 40
4.000000
 41
1.000000
  1
１／１
  7
KANJI
 50
0.000000
 51
0.000000
  0
LINE
  8
1
 62
7
  6
CONTINUOUS
 10
222.000000
 20
21.000000
 11
222.000000
 21
13.000000
  0
LINE
  8
1
 62
7
  6
CONTINUOUS
 10
202.000000
 20
21.000000
 11
202.000000
 21
13.000000
  0
LINE
  8
1
 62
7
  6
CONTINUOUS
 10
217.000000
 20
13.000000
 11
217.000000
 21
21.000000
  0
LINE
  8
1
 62
7
  6
CONTINUOUS
 10
197.000000
 20
13.000000
 11
197.000000
 21
21.000000
  0
LINE
  8
1
 62
7
  6
CONTINUOUS
 10
207.000000
 20
37.000000
 11
207.000000
 21
21.000000
  0
LINE
  8
1
 62
7
  6
CONTINUOUS
 10
172.000000
 20
29.000000
 11
237.000000
 21
29.000000
  0
LINE
  8
1
 62
7
  6
CONTINUOUS
 10
177.000000
 20
13.000000
 11
177.000000
 21
37.000000
  0
LINE
  8
1
 62
7
  6
CONTINUOUS
 10
212.000000
 20
37.000000
 11
212.000000
 21
21.000000
  0
LINE
  8
1
 62
7
  6
CONTINUOUS
 10
242.000000
 20
13.000000
 11
242.000000
 21
37.000000
  0
LINE
  8
1
 62
7
  6
CONTINUOUS
 10
292.000000
 20
21.000000
 11
172.000000
 21
21.000000
  0
LINE
  8
1
 62
7
  6
CONTINUOUS
 10
237.000000
 20
37.000000
 11
237.000000
 21
13.000000
  0
LINE
  8
1
 62
7
  6
CONTINUOUS
 10
292.000000
 20
13.000000
 11
172.000000
 21
13.000000
  0
LINE
  8
1
 62
7
  6
CONTINUOUS
 10
172.000000
 20
5.000000
 11
172.000000
 21
37.000000
  0
LINE
  8
1
 62
7
  6
CONTINUOUS
 10
172.000000
 20
37.000000
 11
292.000000
 21
37.000000
  0
TEXT
  8
1
 62
7
  6
CONTINUOUS
 10
191.409768
 20
6.555464
 40
4.500000
 41
1.888889
  1
ジャパンセンサー株式会社
  7
KANJI
 50
0.000000
 51
0.000000
  0
TEXT
  8
1
 62
7
  6
CONTINUOUS
 10
197.966060
 20
20.487583
 40
1.750000
 41
4.000000
  1
設計
  7
KANJI
 50
-90.000000
 51
0.000000
  0
TEXT
  8
1
 62
7
  6
CONTINUOUS
 10
172.888245
 20
20.487583
 40
1.750000
 41
4.000000
  1
承認
  7
KANJI
 50
-90.000000
 51
0.000000
  0
TEXT
  8
1
 62
7
  6
CONTINUOUS
 10
172.888245
 20
36.386589
 40
1.750000
 41
4.000000
  1
公差
  7
KANJI
 50
-90.000000
 51
0.000000
  0
TEXT
  8
1
 62
7
  6
CONTINUOUS
 10
207.800497
 20
36.550497
 40
1.750000
 41
4.000000
  1
尺度
  7
KANJI
 50
-90.000000
 51
0.000000
  0
TEXT
  8
1
 62
7
  6
CONTINUOUS
 10
207.964404
 20
28.519040
 40
1.750000
 41
4.000000
  1
図法
  7
KANJI
 50
-90.000000
 51
0.000000
  0
TEXT
  8
1
 62
7
  6
CONTINUOUS
 10
172.888245
 20
28.355132
 40
1.750000
 41
4.000000
  1
日付
  7
KANJI
 50
-90.000000
 51
0.000000
  0
TEXT
  8
1
 62
7
  6
CONTINUOUS
 10
237.795530
 20
33.764073
 40
1.750000
 41
4.000000
  1
図　名
  7
KANJI
 50
-90.000000
 51
0.000000
  0
TEXT
  8
1
 62
7
  6
CONTINUOUS
 10
237.795530
 20
20.487583
 40
1.750000
 41
4.000000
  1
図番
  7
KANJI
 50
-90.000000
 51
0.000000
  0
TEXT
  8
1
 62
7
  6
CONTINUOUS
 10
217.962748
 20
20.651490
 40
1.750000
 41
4.000000
  1
製図
  7
KANJI
 50
-90.000000
 51
0.000000
  0
ENDSEC
  0
EOF
