  0
SECTION
  2
HEADER
  9
$ACADVER
  1
AC1003
  9
$INSBASE
 10
0.000000
 20
0.000000
  9
$EXTMIN
 10
0.000000
 20
0.000000
  9
$EXTMAX
 10
297.000000
 20
210.000000
  9
$LIMMIN
 10
0.000000
 20
0.000000
  9
$LIMMAX
 10
297.000000
 20
210.000000
  9
$VIEWCTR
 10
148.500000
 20
105.000000
  9
$VIEWSIZE
 40
210.000000
  9
$PEXTMIN
 10
0.000000
 20
0.000000
 30
0.000000
  9
$PEXTMAX
 10
297.000000
 20
210.000000
 30
0.000000
  9
$SNAPMODE
 70
     0
  9
$SNAPUNIT
 10
1.000000
 20
1.000000
  9
$SNAPBASE
 10
0.000000
 20
0.000000
  9
$SNAPANG
 50
0.000000
  9
$SNAPISOPAIR
 70
     0
  9
$SNAPSTYLE
 70
     0
  9
$GRIDMODE
 70
     0
  9
$GRIDUNIT
 10
0.000000
 20
0.000000
  9
$ORTHOMODE
 70
     0
  9
$REGENMODE
 70
     1
  9
$FILLMODE
 70
     1
  9
$QTEXTMODE
 70
     0
  9
$DRAGMODE
 70
     2
  9
$LTSCALE
 40
0.250000
  9
$OSMODE
 70
     0
  9
$ATTMODE
 70
     1
  9
$TEXTSIZE
 40
0.200000
  9
$TRACEWID
 40
0.050000
  9
$TEXTSTYLE
  7
STANDARD
  9
$CLAYER
  8
0
  9
$CELTYPE
  6
BYLAYER
  9
$CECOLOR
 62
   256
  9
$DIMSCALE
 40
1.000000
  9
$DIMASZ
 40
1.000000
  9
$DIMEXO
 40
0.000000
  9
$DIMDLI
 40
0.500000
  9
$DIMRND
 40
0.000000
  9
$DIMDLE
 40
0.000000
  9
$DIMEXE
 40
0.000000
  9
$DIMTP
 40
0.000000
  9
$DIMTM
 40
0.000000
  9
$DIMTXT
 40
0.180000
  9
$DIMCEN
 40
0.000000
  9
$DIMTSZ
 40
0.000000
  9
$DIMTOL
 70
     0
  9
$DIMLIM
 70
     0
  9
$DIMTIH
 70
     1
  9
$DIMTOH
 70
     1
  9
$DIMSE1
 70
     0
  9
$DIMSE2
 70
     0
  9
$DIMTAD
 70
     0
  9
$DIMZIN
 70
     0
  9
$DIMBLK
  1

  9
$DIMASO
 70
     0
  9
$DIMSHO
 70
     0
  9
$DIMPOST
  1

  9
$DIMAPOST
  1

  9
$DIMALT
 70
     0
  9
$DIMALTD
 70
     0
  9
$DIMALTF
 40
25.400000
  9
$DIMLFAC
 40
1.000000
  9
$DIMTOFL
 70
     0
  9
$DIMTVP
 40
0.000000
  9
$DIMTIX
 70
     0
  9
$DIMSOXD
 70
     0
  9
$DIMSAH
 70
     0
  9
$DIMBLKL
  1

  9
$DIMBLKR
  1

  9
$LUNITS
 70
     2
  9
$LUPREC
 70
     2
  9
$AXISMODE
 70
     0
  9
$AXISUNIT
 10
1.000000
 20
1.000000
  9
$SKETCHINC
 40
0.000000
  9
$FILLETRAD
 40
0.000000
  9
$AUNITS
 70
     1
  9
$AUPREC
 70
     2
  9
$MENU
  1
ACAD
  9
$ELEVATION
 40
0.000000
  9
$THICKNESS
 40
0.000000
  9
$VIEWDIR
 10
0.000000
 20
0.000000
 30
1.000000
  9
$LIMCHECK
 70
     1
  9
$BLIPMODE
 70
     1
  9
$CHAMFERA
 40
0.000000
  9
$CHAMFERB
 40
0.000000
  9
$FASTZOOM
 70
     1
  9
$SKPOLY
 70
     0
  9
$TDCREATE
 40
0.000000
  9
$TDUPDATE
 40
0.000000
  9
$TDINDWG
 40
0.000000
  9
$TDUSRTIMER
 40
0.000000
  9
$USRTIMER
 70
     1
  9
$ANGBASE
 50
0.000000
  9
$ANGDIR
 70
     0
  9
$PDMODE
 70
     0
  9
$PDSIZE
 40
0.000000
  9
$PLINEWID
 40
0.000000
  9
$COORDS
 70
     2
  9
$USERI1
 70
     0
  9
$USERI2
 70
     0
  9
$USERI3
 70
     0
  9
$USERI4
 70
     0
  9
$USERI5
 70
     0
  9
$USERR1
 40
0.000000
  9
$USERR2
 40
0.000000
  9
$USERR3
 40
0.000000
  9
$USERR4
 40
0.000000
  9
$USERR5
 40
0.000000
  0
ENDSEC
  0
SECTION
  2
TABLES
  0
TABLE
  2
LTYPE
 70
     5
  0
LTYPE
  2
CONTINUOUS
 70
    64
  3
Solid line
 72
    65
 73
     0
 40
0.0
  0
LTYPE
  2
HIDDEN
 70
    64
  3
------------------------
 72
    65
 73
     2
 40
12.6
 49
8.4
 49
-4.2
  0
LTYPE
  2
DOT
 70
    64
  3
････････････････････････
 72
    65
 73
     2
 40
8.0
 49
6.0
 49
-2.0
  0
LTYPE
  2
DASHDOT
 70
    64
  3
--･--･--･--･--･--･--･--
 72
    65
 73
     4
 40
50.5
 49
30.0
 49
-9.0
 49
2.5
 49
-9.0
  0
LTYPE
  2
DIVIDE
 70
    64
  3
--･･--･･--･･--･･--･･--
 72
    65
 73
     6
 40
58.0
 49
30.0
 49
-9.0
 49
2.5
 49
-5.0
 49
2.5
 49
-9.0
  0
LTYPE
  2
ACAD_ISO06W100
 70
    64
  3
____ ... ____ ... ____
 72
    65
 73
     8
 40
37.5
 49
24.0
 49
-3.0
 49
0.5
 49
-3.0
 49
0.5
 49
-3.0
 49
0.5
 49
-3.0
  0
LTYPE
  2
ACAD_ISO14W100
 70
    64
  3
__ . . . __ . . . __ . . . 
 72
    65
 73
     8
 40
25.5
 49
12.0
 49
-3.0
 49
0.5
 49
-3.0
 49
0.5
 49
-3.0
 49
0.5
 49
-3.0
  0
ENDTAB
  0
TABLE
  2
LAYER
 70
1
  0
LAYER
  2
1
 70
64
 62
7
  6
CONTINUOUS
  0
ENDTAB
  0
TABLE
  2
STYLE
 70
     2
  0
STYLE
  2
STANDARD
 70
    64
 40
0.0
 41
1.0
 50
0.0
 71
     0
 42
0.2
  3
TXT
  4

  0
STYLE
  2
KANJI
 70
    64
 40
0.0
 41
1.0
 50
0.0
 71
     0
 42
0.2
  3
TXT
  4
BIGFONT
  0
ENDTAB
  0
TABLE
  2
VIEW
 70
     0
  0
ENDTAB
  0
ENDSEC
  0
SECTION
  2
BLOCKS
  0
BLOCK
  8
1
 62
7
  6
CONTINUOUS
  2
*D1
 70
    65
 10
0.0
 20
0.0
  0
LINE
  8
1
 62
7
  6
CONTINUOUS
 10
257.001715
 20
160.688338
 11
272.301715
 21
160.688338
  0
LINE
  8
1
 62
7
  6
CONTINUOUS
 10
261.001715
 20
162.688338
 11
261.001715
 21
143.362705
  0
LINE
  8
1
 62
7
  6
CONTINUOUS
 10
268.301715
 20
162.688338
 11
268.301715
 21
143.675671
  0
LINE
  8
1
 62
7
  6
CONTINUOUS
 10
261.001715
 20
160.688338
 11
259.069863
 21
160.170700
  0
LINE
  8
1
 62
7
  6
CONTINUOUS
 10
261.001715
 20
160.688338
 11
259.069863
 21
161.205976
  0
LINE
  8
1
 62
7
  6
CONTINUOUS
 10
259.069863
 20
160.170700
 11
259.069863
 21
161.205976
  0
LINE
  8
1
 62
7
  6
CONTINUOUS
 10
260.518752
 20
160.688338
 11
259.552826
 21
160.429519
  0
LINE
  8
1
 62
7
  6
CONTINUOUS
 10
260.518752
 20
160.688338
 11
259.552826
 21
160.947157
  0
LINE
  8
1
 62
7
  6
CONTINUOUS
 10
259.552826
 20
160.429519
 11
259.552826
 21
160.947157
  0
LINE
  8
1
 62
7
  6
CONTINUOUS
 10
268.301715
 20
160.688338
 11
270.233567
 21
161.205976
  0
LINE
  8
1
 62
7
  6
CONTINUOUS
 10
268.301715
 20
160.688338
 11
270.233567
 21
160.170700
  0
LINE
  8
1
 62
7
  6
CONTINUOUS
 10
270.233567
 20
161.205976
 11
270.233567
 21
160.170700
  0
LINE
  8
1
 62
7
  6
CONTINUOUS
 10
268.784678
 20
160.688338
 11
269.750604
 21
160.947157
  0
LINE
  8
1
 62
7
  6
CONTINUOUS
 10
268.784678
 20
160.688338
 11
269.750604
 21
160.429519
  0
LINE
  8
1
 62
7
  6
CONTINUOUS
 10
269.750604
 20
160.947157
 11
269.750604
 21
160.429519
  0
TEXT
  8
1
 62
7
  6
CONTINUOUS
 10
261.377794
 20
160.688338
 40
4.000000
 41
0.500000
  1
7.6
  7
KANJI
 50
0.000000
 51
30.000000
  0
ENDBLK
  0
BLOCK
  8
1
 62
7
  6
CONTINUOUS
  2
*D2
 70
    65
 10
0.0
 20
0.0
  0
LINE
  8
1
 62
7
  6
CONTINUOUS
 10
257.601715
 20
125.670455
 11
272.301715
 21
125.670455
  0
LINE
  8
1
 62
7
  6
CONTINUOUS
 10
261.601715
 20
123.670455
 11
261.601715
 21
130.028099
  0
LINE
  8
1
 62
7
  6
CONTINUOUS
 10
268.301715
 20
123.670455
 11
268.301715
 21
128.095939
  0
LINE
  8
1
 62
7
  6
CONTINUOUS
 10
261.601715
 20
125.670455
 11
259.669863
 21
125.152816
  0
LINE
  8
1
 62
7
  6
CONTINUOUS
 10
261.601715
 20
125.670455
 11
259.669863
 21
126.188093
  0
LINE
  8
1
 62
7
  6
CONTINUOUS
 10
259.669863
 20
125.152816
 11
259.669863
 21
126.188093
  0
LINE
  8
1
 62
7
  6
CONTINUOUS
 10
261.118752
 20
125.670455
 11
260.152826
 21
125.411636
  0
LINE
  8
1
 62
7
  6
CONTINUOUS
 10
261.118752
 20
125.670455
 11
260.152826
 21
125.929274
  0
LINE
  8
1
 62
7
  6
CONTINUOUS
 10
260.152826
 20
125.411636
 11
260.152826
 21
125.929274
  0
LINE
  8
1
 62
7
  6
CONTINUOUS
 10
268.301715
 20
125.670455
 11
270.233567
 21
126.188093
  0
LINE
  8
1
 62
7
  6
CONTINUOUS
 10
268.301715
 20
125.670455
 11
270.233567
 21
125.152816
  0
LINE
  8
1
 62
7
  6
CONTINUOUS
 10
270.233567
 20
126.188093
 11
270.233567
 21
125.152816
  0
LINE
  8
1
 62
7
  6
CONTINUOUS
 10
268.784678
 20
125.670455
 11
269.750604
 21
125.929274
  0
LINE
  8
1
 62
7
  6
CONTINUOUS
 10
268.784678
 20
125.670455
 11
269.750604
 21
125.411636
  0
LINE
  8
1
 62
7
  6
CONTINUOUS
 10
269.750604
 20
125.929274
 11
269.750604
 21
125.411636
  0
TEXT
  8
1
 62
7
  6
CONTINUOUS
 10
263.890205
 20
125.670455
 40
4.000000
 41
0.500000
  1
7
  7
KANJI
 50
0.000000
 51
30.000000
  0
ENDBLK
  0
BLOCK
  8
1
 62
7
  6
CONTINUOUS
  2
*D3
 70
    65
 10
0.0
 20
0.0
  0
LINE
  8
1
 62
7
  6
CONTINUOUS
 10
276.336737
 20
113.406240
 11
276.336737
 21
134.806242
  0
LINE
  8
1
 62
7
  6
CONTINUOUS
 10
278.336737
 20
113.406240
 11
266.592812
 21
113.406240
  0
LINE
  8
1
 62
7
  6
CONTINUOUS
 10
278.336737
 20
134.806242
 11
265.801715
 21
134.806242
  0
LINE
  8
1
 62
7
  6
CONTINUOUS
 10
276.336737
 20
113.406240
 11
275.819099
 21
115.338092
  0
LINE
  8
1
 62
7
  6
CONTINUOUS
 10
276.336737
 20
113.406240
 11
276.854375
 21
115.338092
  0
LINE
  8
1
 62
7
  6
CONTINUOUS
 10
275.819099
 20
115.338092
 11
276.854375
 21
115.338092
  0
LINE
  8
1
 62
7
  6
CONTINUOUS
 10
276.336737
 20
113.889203
 11
276.077918
 21
114.855129
  0
LINE
  8
1
 62
7
  6
CONTINUOUS
 10
276.336737
 20
113.889203
 11
276.595556
 21
114.855129
  0
LINE
  8
1
 62
7
  6
CONTINUOUS
 10
276.077918
 20
114.855129
 11
276.595556
 21
114.855129
  0
LINE
  8
1
 62
7
  6
CONTINUOUS
 10
276.336737
 20
134.806242
 11
276.854375
 21
132.874391
  0
LINE
  8
1
 62
7
  6
CONTINUOUS
 10
276.336737
 20
134.806242
 11
275.819099
 21
132.874391
  0
LINE
  8
1
 62
7
  6
CONTINUOUS
 10
276.854375
 20
132.874391
 11
275.819099
 21
132.874391
  0
LINE
  8
1
 62
7
  6
CONTINUOUS
 10
276.336737
 20
134.323279
 11
276.595556
 21
133.357353
  0
LINE
  8
1
 62
7
  6
CONTINUOUS
 10
276.336737
 20
134.323279
 11
276.077918
 21
133.357353
  0
LINE
  8
1
 62
7
  6
CONTINUOUS
 10
276.595556
 20
133.357353
 11
276.077918
 21
133.357353
  0
TEXT
  8
1
 62
7
  6
CONTINUOUS
 10
276.336737
 20
122.399031
 40
4.000000
 41
0.500000
  1
21.4
  7
KANJI
 50
90.000000
 51
30.000000
  0
ENDBLK
  0
BLOCK
  8
1
 62
7
  6
CONTINUOUS
  2
*D4
 70
    65
 10
0.0
 20
0.0
  0
LINE
  8
1
 62
7
  6
CONTINUOUS
 10
281.813637
 20
113.406240
 11
281.813637
 21
139.406242
  0
LINE
  8
1
 62
7
  6
CONTINUOUS
 10
283.813637
 20
113.406240
 11
268.301715
 21
113.406240
  0
LINE
  8
1
 62
7
  6
CONTINUOUS
 10
283.813637
 20
139.406242
 11
265.159840
 21
139.406242
  0
LINE
  8
1
 62
7
  6
CONTINUOUS
 10
281.813637
 20
113.406240
 11
281.295999
 21
115.338092
  0
LINE
  8
1
 62
7
  6
CONTINUOUS
 10
281.813637
 20
113.406240
 11
282.331275
 21
115.338092
  0
LINE
  8
1
 62
7
  6
CONTINUOUS
 10
281.295999
 20
115.338092
 11
282.331275
 21
115.338092
  0
LINE
  8
1
 62
7
  6
CONTINUOUS
 10
281.813637
 20
113.889203
 11
281.554818
 21
114.855129
  0
LINE
  8
1
 62
7
  6
CONTINUOUS
 10
281.813637
 20
113.889203
 11
282.072456
 21
114.855129
  0
LINE
  8
1
 62
7
  6
CONTINUOUS
 10
281.554818
 20
114.855129
 11
282.072456
 21
114.855129
  0
LINE
  8
1
 62
7
  6
CONTINUOUS
 10
281.813637
 20
139.406242
 11
282.331275
 21
137.474391
  0
LINE
  8
1
 62
7
  6
CONTINUOUS
 10
281.813637
 20
139.406242
 11
281.295999
 21
137.474391
  0
LINE
  8
1
 62
7
  6
CONTINUOUS
 10
282.331275
 20
137.474391
 11
281.295999
 21
137.474391
  0
LINE
  8
1
 62
7
  6
CONTINUOUS
 10
281.813637
 20
138.923279
 11
282.072456
 21
137.957353
  0
LINE
  8
1
 62
7
  6
CONTINUOUS
 10
281.813637
 20
138.923279
 11
281.554818
 21
137.957353
  0
LINE
  8
1
 62
7
  6
CONTINUOUS
 10
282.072456
 20
137.957353
 11
281.554818
 21
137.957353
  0
TEXT
  8
1
 62
7
  6
CONTINUOUS
 10
281.813637
 20
126.824516
 40
4.000000
 41
0.500000
  1
26
  7
KANJI
 50
90.000000
 51
30.000000
  0
ENDBLK
  0
BLOCK
  8
1
 62
7
  6
CONTINUOUS
  2
*D5
 70
    65
 10
0.0
 20
0.0
  0
LINE
  8
1
 62
7
  6
CONTINUOUS
 10
242.301719
 20
170.106766
 11
268.301719
 21
170.106766
  0
LINE
  8
1
 62
7
  6
CONTINUOUS
 10
242.301719
 20
174.106766
 11
242.301719
 21
158.406240
  0
LINE
  8
1
 62
7
  6
CONTINUOUS
 10
268.301719
 20
174.106766
 11
268.301719
 21
158.406240
  0
LINE
  8
1
 62
7
  6
CONTINUOUS
 10
242.301719
 20
170.106766
 11
244.233570
 21
170.624404
  0
LINE
  8
1
 62
7
  6
CONTINUOUS
 10
242.301719
 20
170.106766
 11
244.233570
 21
169.589128
  0
LINE
  8
1
 62
7
  6
CONTINUOUS
 10
244.233570
 20
170.624404
 11
244.233570
 21
169.589128
  0
LINE
  8
1
 62
7
  6
CONTINUOUS
 10
242.784682
 20
170.106766
 11
243.750607
 21
170.365585
  0
LINE
  8
1
 62
7
  6
CONTINUOUS
 10
242.784682
 20
170.106766
 11
243.750607
 21
169.847947
  0
LINE
  8
1
 62
7
  6
CONTINUOUS
 10
243.750607
 20
170.365585
 11
243.750607
 21
169.847947
  0
LINE
  8
1
 62
7
  6
CONTINUOUS
 10
268.301719
 20
170.106766
 11
266.369867
 21
169.589128
  0
LINE
  8
1
 62
7
  6
CONTINUOUS
 10
268.301719
 20
170.106766
 11
266.369867
 21
170.624404
  0
LINE
  8
1
 62
7
  6
CONTINUOUS
 10
266.369867
 20
169.589128
 11
266.369867
 21
170.624404
  0
LINE
  8
1
 62
7
  6
CONTINUOUS
 10
267.818756
 20
170.106766
 11
266.852830
 21
169.847947
  0
LINE
  8
1
 62
7
  6
CONTINUOUS
 10
267.818756
 20
170.106766
 11
266.852830
 21
170.365585
  0
LINE
  8
1
 62
7
  6
CONTINUOUS
 10
266.852830
 20
169.847947
 11
266.852830
 21
170.365585
  0
TEXT
  8
1
 62
7
  6
CONTINUOUS
 10
251.301719
 20
170.106766
 40
4.000000
 41
0.500000
  1
26.5
  7
KANJI
 50
0.000000
 51
30.000000
  0
ENDBLK
  0
BLOCK
  8
1
 62
7
  6
CONTINUOUS
  2
*D6
 70
    65
 10
0.0
 20
0.0
  0
LINE
  8
1
 62
7
  6
CONTINUOUS
 10
81.732671
 20
161.509385
 11
145.049480
 21
161.509385
  0
LINE
  8
1
 62
7
  6
CONTINUOUS
 10
81.732671
 20
163.509385
 11
81.732671
 21
145.906240
  0
LINE
  8
1
 62
7
  6
CONTINUOUS
 10
145.049480
 20
163.509385
 11
145.049480
 21
145.906240
  0
LINE
  8
1
 62
7
  6
CONTINUOUS
 10
81.732671
 20
161.509385
 11
83.664523
 21
162.027023
  0
LINE
  8
1
 62
7
  6
CONTINUOUS
 10
81.732671
 20
161.509385
 11
83.664523
 21
160.991747
  0
LINE
  8
1
 62
7
  6
CONTINUOUS
 10
83.664523
 20
162.027023
 11
83.664523
 21
160.991747
  0
LINE
  8
1
 62
7
  6
CONTINUOUS
 10
82.215634
 20
161.509385
 11
83.181560
 21
161.768204
  0
LINE
  8
1
 62
7
  6
CONTINUOUS
 10
82.215634
 20
161.509385
 11
83.181560
 21
161.250566
  0
LINE
  8
1
 62
7
  6
CONTINUOUS
 10
83.181560
 20
161.768204
 11
83.181560
 21
161.250566
  0
LINE
  8
1
 62
7
  6
CONTINUOUS
 10
145.049480
 20
161.509385
 11
143.117628
 21
160.991747
  0
LINE
  8
1
 62
7
  6
CONTINUOUS
 10
145.049480
 20
161.509385
 11
143.117628
 21
162.027023
  0
LINE
  8
1
 62
7
  6
CONTINUOUS
 10
143.117628
 20
160.991747
 11
143.117628
 21
162.027023
  0
LINE
  8
1
 62
7
  6
CONTINUOUS
 10
144.566517
 20
161.509385
 11
143.600591
 21
161.250566
  0
LINE
  8
1
 62
7
  6
CONTINUOUS
 10
144.566517
 20
161.509385
 11
143.600591
 21
161.768204
  0
LINE
  8
1
 62
7
  6
CONTINUOUS
 10
143.600591
 20
161.250566
 11
143.600591
 21
161.768204
  0
TEXT
  8
1
 62
7
  6
CONTINUOUS
 10
107.399398
 20
161.509385
 40
4.000000
 41
0.583333
  1
ｹｰﾌﾞﾙ長
  7
KANJI
 50
0.000000
 51
30.000000
  0
ENDBLK
  0
BLOCK
  8
1
 62
7
  6
CONTINUOUS
  2
*D7
 70
    65
 10
0.0
 20
0.0
  0
LINE
  8
1
 62
7
  6
CONTINUOUS
 10
35.447198
 20
115.906240
 11
35.447198
 21
170.406240
  0
LINE
  8
1
 62
7
  6
CONTINUOUS
 10
37.447198
 20
123.906240
 11
34.110285
 21
123.906240
  0
LINE
  8
1
 62
7
  6
CONTINUOUS
 10
37.447198
 20
132.906240
 11
34.196958
 21
132.906240
  0
LINE
  8
1
 62
7
  6
CONTINUOUS
 10
35.447198
 20
123.906240
 11
35.964836
 21
121.974389
  0
LINE
  8
1
 62
7
  6
CONTINUOUS
 10
35.447198
 20
123.906240
 11
34.929559
 21
121.974389
  0
LINE
  8
1
 62
7
  6
CONTINUOUS
 10
35.964836
 20
121.974389
 11
34.929559
 21
121.974389
  0
LINE
  8
1
 62
7
  6
CONTINUOUS
 10
35.447198
 20
123.423277
 11
35.706017
 21
122.457352
  0
LINE
  8
1
 62
7
  6
CONTINUOUS
 10
35.447198
 20
123.423277
 11
35.188378
 21
122.457352
  0
LINE
  8
1
 62
7
  6
CONTINUOUS
 10
35.706017
 20
122.457352
 11
35.188378
 21
122.457352
  0
LINE
  8
1
 62
7
  6
CONTINUOUS
 10
35.447198
 20
132.906240
 11
34.929559
 21
134.838092
  0
LINE
  8
1
 62
7
  6
CONTINUOUS
 10
35.447198
 20
132.906240
 11
35.964836
 21
134.838092
  0
LINE
  8
1
 62
7
  6
CONTINUOUS
 10
34.929559
 20
134.838092
 11
35.964836
 21
134.838092
  0
LINE
  8
1
 62
7
  6
CONTINUOUS
 10
35.447198
 20
133.389203
 11
35.188378
 21
134.355129
  0
LINE
  8
1
 62
7
  6
CONTINUOUS
 10
35.447198
 20
133.389203
 11
35.706017
 21
134.355129
  0
LINE
  8
1
 62
7
  6
CONTINUOUS
 10
35.188378
 20
134.355129
 11
35.706017
 21
134.355129
  0
TEXT
  8
1
 62
7
  6
CONTINUOUS
 10
35.447198
 20
139.406240
 40
4.000000
 41
0.681818
  1
φ9(ﾚﾝｽﾞ有効径)
  7
KANJI
 50
90.000000
 51
30.000000
  0
ENDBLK
  0
BLOCK
  8
1
 62
7
  6
CONTINUOUS
  2
*D8
 70
    65
 10
0.0
 20
0.0
  0
LINE
  8
1
 62
7
  6
CONTINUOUS
 10
88.864819
 20
105.406240
 11
88.864819
 21
125.406240
  0
LINE
  8
1
 62
7
  6
CONTINUOUS
 10
92.864819
 20
113.406240
 11
85.732671
 21
113.406240
  0
LINE
  8
1
 62
7
  6
CONTINUOUS
 10
92.864819
 20
117.406240
 11
80.348176
 21
117.406240
  0
LINE
  8
1
 62
7
  6
CONTINUOUS
 10
88.864819
 20
113.406240
 11
89.382457
 21
111.474389
  0
LINE
  8
1
 62
7
  6
CONTINUOUS
 10
88.864819
 20
113.406240
 11
88.347181
 21
111.474389
  0
LINE
  8
1
 62
7
  6
CONTINUOUS
 10
89.382457
 20
111.474389
 11
88.347181
 21
111.474389
  0
LINE
  8
1
 62
7
  6
CONTINUOUS
 10
88.864819
 20
112.923277
 11
89.123638
 21
111.957352
  0
LINE
  8
1
 62
7
  6
CONTINUOUS
 10
88.864819
 20
112.923277
 11
88.606000
 21
111.957352
  0
LINE
  8
1
 62
7
  6
CONTINUOUS
 10
89.123638
 20
111.957352
 11
88.606000
 21
111.957352
  0
LINE
  8
1
 62
7
  6
CONTINUOUS
 10
88.864819
 20
117.406240
 11
88.347181
 21
119.338092
  0
LINE
  8
1
 62
7
  6
CONTINUOUS
 10
88.864819
 20
117.406240
 11
89.382457
 21
119.338092
  0
LINE
  8
1
 62
7
  6
CONTINUOUS
 10
88.347181
 20
119.338092
 11
89.382457
 21
119.338092
  0
LINE
  8
1
 62
7
  6
CONTINUOUS
 10
88.864819
 20
117.889203
 11
88.606000
 21
118.855129
  0
LINE
  8
1
 62
7
  6
CONTINUOUS
 10
88.864819
 20
117.889203
 11
89.123638
 21
118.855129
  0
LINE
  8
1
 62
7
  6
CONTINUOUS
 10
88.606000
 20
118.855129
 11
89.123638
 21
118.855129
  0
TEXT
  8
1
 62
7
  6
CONTINUOUS
 10
88.864819
 20
113.406240
 40
4.000000
 41
0.500000
  1
4
  7
KANJI
 50
90.000000
 51
30.000000
  0
ENDBLK
  0
BLOCK
  8
1
 62
7
  6
CONTINUOUS
  2
*D9
 70
    65
 10
0.0
 20
0.0
  0
LINE
  8
1
 62
7
  6
CONTINUOUS
 10
40.732671
 20
105.715578
 11
52.932671
 21
105.715578
  0
LINE
  8
1
 62
7
  6
CONTINUOUS
 10
40.732671
 20
103.715578
 11
40.732671
 21
111.406240
  0
LINE
  8
1
 62
7
  6
CONTINUOUS
 10
52.932671
 20
103.715578
 11
52.932671
 21
111.406240
  0
LINE
  8
1
 62
7
  6
CONTINUOUS
 10
40.732671
 20
105.715578
 11
42.664523
 21
106.233216
  0
LINE
  8
1
 62
7
  6
CONTINUOUS
 10
40.732671
 20
105.715578
 11
42.664523
 21
105.197940
  0
LINE
  8
1
 62
7
  6
CONTINUOUS
 10
42.664523
 20
106.233216
 11
42.664523
 21
105.197940
  0
LINE
  8
1
 62
7
  6
CONTINUOUS
 10
41.215634
 20
105.715578
 11
42.181560
 21
105.974397
  0
LINE
  8
1
 62
7
  6
CONTINUOUS
 10
41.215634
 20
105.715578
 11
42.181560
 21
105.456759
  0
LINE
  8
1
 62
7
  6
CONTINUOUS
 10
42.181560
 20
105.974397
 11
42.181560
 21
105.456759
  0
LINE
  8
1
 62
7
  6
CONTINUOUS
 10
52.932671
 20
105.715578
 11
51.000820
 21
105.197940
  0
LINE
  8
1
 62
7
  6
CONTINUOUS
 10
52.932671
 20
105.715578
 11
51.000820
 21
106.233216
  0
LINE
  8
1
 62
7
  6
CONTINUOUS
 10
51.000820
 20
105.197940
 11
51.000820
 21
106.233216
  0
LINE
  8
1
 62
7
  6
CONTINUOUS
 10
52.449709
 20
105.715578
 11
51.483783
 21
105.456759
  0
LINE
  8
1
 62
7
  6
CONTINUOUS
 10
52.449709
 20
105.715578
 11
51.483783
 21
105.974397
  0
LINE
  8
1
 62
7
  6
CONTINUOUS
 10
51.483783
 20
105.456759
 11
51.483783
 21
105.974397
  0
TEXT
  8
1
 62
7
  6
CONTINUOUS
 10
42.832671
 20
105.715578
 40
4.000000
 41
0.500000
  1
12.2
  7
KANJI
 50
0.000000
 51
30.000000
  0
ENDBLK
  0
BLOCK
  8
1
 62
7
  6
CONTINUOUS
  2
*D10
 70
    65
 10
0.0
 20
0.0
  0
LINE
  8
1
 62
7
  6
CONTINUOUS
 10
52.932671
 20
105.715578
 11
72.932671
 21
105.715578
  0
LINE
  8
1
 62
7
  6
CONTINUOUS
 10
72.932671
 20
103.715578
 11
72.932671
 21
111.406240
  0
LINE
  8
1
 62
7
  6
CONTINUOUS
 10
52.932671
 20
105.715578
 11
54.864523
 21
106.233216
  0
LINE
  8
1
 62
7
  6
CONTINUOUS
 10
52.932671
 20
105.715578
 11
54.864523
 21
105.197940
  0
LINE
  8
1
 62
7
  6
CONTINUOUS
 10
54.864523
 20
106.233216
 11
54.864523
 21
105.197940
  0
LINE
  8
1
 62
7
  6
CONTINUOUS
 10
53.415634
 20
105.715578
 11
54.381560
 21
105.974397
  0
LINE
  8
1
 62
7
  6
CONTINUOUS
 10
53.415634
 20
105.715578
 11
54.381560
 21
105.456759
  0
LINE
  8
1
 62
7
  6
CONTINUOUS
 10
54.381560
 20
105.974397
 11
54.381560
 21
105.456759
  0
LINE
  8
1
 62
7
  6
CONTINUOUS
 10
72.932671
 20
105.715578
 11
71.000820
 21
105.197940
  0
LINE
  8
1
 62
7
  6
CONTINUOUS
 10
72.932671
 20
105.715578
 11
71.000820
 21
106.233216
  0
LINE
  8
1
 62
7
  6
CONTINUOUS
 10
71.000820
 20
105.197940
 11
71.000820
 21
106.233216
  0
LINE
  8
1
 62
7
  6
CONTINUOUS
 10
72.449709
 20
105.715578
 11
71.483783
 21
105.456759
  0
LINE
  8
1
 62
7
  6
CONTINUOUS
 10
72.449709
 20
105.715578
 11
71.483783
 21
105.974397
  0
LINE
  8
1
 62
7
  6
CONTINUOUS
 10
71.483783
 20
105.456759
 11
71.483783
 21
105.974397
  0
TEXT
  8
1
 62
7
  6
CONTINUOUS
 10
60.932671
 20
105.715578
 40
4.000000
 41
0.500000
  1
20
  7
KANJI
 50
0.000000
 51
30.000000
  0
ENDBLK
  0
BLOCK
  8
1
 62
7
  6
CONTINUOUS
  2
*D11
 70
    65
 10
0.0
 20
0.0
  0
LINE
  8
1
 62
7
  6
CONTINUOUS
 10
32.732671
 20
58.736665
 11
55.432671
 21
58.736665
  0
LINE
  8
1
 62
7
  6
CONTINUOUS
 10
40.732671
 20
56.736665
 11
40.732671
 21
62.954201
  0
LINE
  8
1
 62
7
  6
CONTINUOUS
 10
47.432671
 20
56.736665
 11
47.432671
 21
76.204201
  0
LINE
  8
1
 62
7
  6
CONTINUOUS
 10
40.732671
 20
58.736665
 11
38.800820
 21
58.219027
  0
LINE
  8
1
 62
7
  6
CONTINUOUS
 10
40.732671
 20
58.736665
 11
38.800820
 21
59.254303
  0
LINE
  8
1
 62
7
  6
CONTINUOUS
 10
38.800820
 20
58.219027
 11
38.800820
 21
59.254303
  0
LINE
  8
1
 62
7
  6
CONTINUOUS
 10
40.249709
 20
58.736665
 11
39.283783
 21
58.477846
  0
LINE
  8
1
 62
7
  6
CONTINUOUS
 10
40.249709
 20
58.736665
 11
39.283783
 21
58.995484
  0
LINE
  8
1
 62
7
  6
CONTINUOUS
 10
39.283783
 20
58.477846
 11
39.283783
 21
58.995484
  0
LINE
  8
1
 62
7
  6
CONTINUOUS
 10
47.432671
 20
58.736665
 11
49.364523
 21
59.254303
  0
LINE
  8
1
 62
7
  6
CONTINUOUS
 10
47.432671
 20
58.736665
 11
49.364523
 21
58.219027
  0
LINE
  8
1
 62
7
  6
CONTINUOUS
 10
49.364523
 20
59.254303
 11
49.364523
 21
58.219027
  0
LINE
  8
1
 62
7
  6
CONTINUOUS
 10
47.915634
 20
58.736665
 11
48.881560
 21
58.995484
  0
LINE
  8
1
 62
7
  6
CONTINUOUS
 10
47.915634
 20
58.736665
 11
48.881560
 21
58.477846
  0
LINE
  8
1
 62
7
  6
CONTINUOUS
 10
48.881560
 20
58.995484
 11
48.881560
 21
58.477846
  0
TEXT
  8
1
 62
7
  6
CONTINUOUS
 10
41.461514
 20
58.736665
 40
4.000000
 41
0.500000
  1
6.7
  7
KANJI
 50
0.000000
 51
30.000000
  0
ENDBLK
  0
BLOCK
  8
1
 62
7
  6
CONTINUOUS
  2
*D12
 70
    65
 10
0.0
 20
0.0
  0
LINE
  8
1
 62
7
  6
CONTINUOUS
 10
47.432671
 20
58.736665
 11
67.432671
 21
58.736665
  0
LINE
  8
1
 62
7
  6
CONTINUOUS
 10
47.432671
 20
56.736665
 11
47.432671
 21
74.974201
  0
LINE
  8
1
 62
7
  6
CONTINUOUS
 10
67.432671
 20
56.736665
 11
67.432671
 21
74.974201
  0
LINE
  8
1
 62
7
  6
CONTINUOUS
 10
47.432671
 20
58.736665
 11
49.364523
 21
59.254303
  0
LINE
  8
1
 62
7
  6
CONTINUOUS
 10
47.432671
 20
58.736665
 11
49.364523
 21
58.219027
  0
LINE
  8
1
 62
7
  6
CONTINUOUS
 10
49.364523
 20
59.254303
 11
49.364523
 21
58.219027
  0
LINE
  8
1
 62
7
  6
CONTINUOUS
 10
47.915634
 20
58.736665
 11
48.881560
 21
58.995484
  0
LINE
  8
1
 62
7
  6
CONTINUOUS
 10
47.915634
 20
58.736665
 11
48.881560
 21
58.477846
  0
LINE
  8
1
 62
7
  6
CONTINUOUS
 10
48.881560
 20
58.995484
 11
48.881560
 21
58.477846
  0
LINE
  8
1
 62
7
  6
CONTINUOUS
 10
67.432671
 20
58.736665
 11
65.500820
 21
58.219027
  0
LINE
  8
1
 62
7
  6
CONTINUOUS
 10
67.432671
 20
58.736665
 11
65.500820
 21
59.254303
  0
LINE
  8
1
 62
7
  6
CONTINUOUS
 10
65.500820
 20
58.219027
 11
65.500820
 21
59.254303
  0
LINE
  8
1
 62
7
  6
CONTINUOUS
 10
66.949709
 20
58.736665
 11
65.983783
 21
58.477846
  0
LINE
  8
1
 62
7
  6
CONTINUOUS
 10
66.949709
 20
58.736665
 11
65.983783
 21
58.995484
  0
LINE
  8
1
 62
7
  6
CONTINUOUS
 10
65.983783
 20
58.477846
 11
65.983783
 21
58.995484
  0
TEXT
  8
1
 62
7
  6
CONTINUOUS
 10
55.749319
 20
58.736665
 40
4.000000
 41
0.500000
  1
20
  7
KANJI
 50
0.000000
 51
30.000000
  0
ENDBLK
  0
BLOCK
  8
1
 62
7
  6
CONTINUOUS
  2
*D13
 70
    65
 10
0.0
 20
0.0
  0
LINE
  8
1
 62
7
  6
CONTINUOUS
 10
32.173709
 20
64.954201
 11
32.173709
 21
91.454201
  0
LINE
  8
1
 62
7
  6
CONTINUOUS
 10
30.173709
 20
64.954201
 11
38.732671
 21
64.954201
  0
LINE
  8
1
 62
7
  6
CONTINUOUS
 10
30.173709
 20
91.454201
 11
38.732671
 21
91.454201
  0
LINE
  8
1
 62
7
  6
CONTINUOUS
 10
32.173709
 20
64.954201
 11
31.656071
 21
66.886053
  0
LINE
  8
1
 62
7
  6
CONTINUOUS
 10
32.173709
 20
64.954201
 11
32.691347
 21
66.886053
  0
LINE
  8
1
 62
7
  6
CONTINUOUS
 10
31.656071
 20
66.886053
 11
32.691347
 21
66.886053
  0
LINE
  8
1
 62
7
  6
CONTINUOUS
 10
32.173709
 20
65.437164
 11
31.914890
 21
66.403090
  0
LINE
  8
1
 62
7
  6
CONTINUOUS
 10
32.173709
 20
65.437164
 11
32.432528
 21
66.403090
  0
LINE
  8
1
 62
7
  6
CONTINUOUS
 10
31.914890
 20
66.403090
 11
32.432528
 21
66.403090
  0
LINE
  8
1
 62
7
  6
CONTINUOUS
 10
32.173709
 20
91.454201
 11
32.691347
 21
89.522349
  0
LINE
  8
1
 62
7
  6
CONTINUOUS
 10
32.173709
 20
91.454201
 11
31.656071
 21
89.522349
  0
LINE
  8
1
 62
7
  6
CONTINUOUS
 10
32.691347
 20
89.522349
 11
31.656071
 21
89.522349
  0
LINE
  8
1
 62
7
  6
CONTINUOUS
 10
32.173709
 20
90.971238
 11
32.432528
 21
90.005312
  0
LINE
  8
1
 62
7
  6
CONTINUOUS
 10
32.173709
 20
90.971238
 11
31.914890
 21
90.005312
  0
LINE
  8
1
 62
7
  6
CONTINUOUS
 10
32.432528
 20
90.005312
 11
31.914890
 21
90.005312
  0
TEXT
  8
1
 62
7
  6
CONTINUOUS
 10
32.173709
 20
74.260989
 40
4.000000
 41
0.500000
  1
26.5
  7
KANJI
 50
90.000000
 51
30.000000
  0
ENDBLK
  0
BLOCK
  8
1
 62
7
  6
CONTINUOUS
  2
*D14
 70
    65
 10
0.0
 20
0.0
  0
LINE
  8
1
 62
7
  6
CONTINUOUS
 10
102.918795
 20
63.948461
 11
102.918795
 21
91.404201
  0
LINE
  8
1
 62
7
  6
CONTINUOUS
 10
104.918795
 20
73.004201
 11
88.132671
 21
73.004201
  0
LINE
  8
1
 62
7
  6
CONTINUOUS
 10
104.918795
 20
83.404201
 11
88.132671
 21
83.404201
  0
LINE
  8
1
 62
7
  6
CONTINUOUS
 10
102.918795
 20
73.004201
 11
103.436433
 21
71.072349
  0
LINE
  8
1
 62
7
  6
CONTINUOUS
 10
102.918795
 20
73.004201
 11
102.401157
 21
71.072349
  0
LINE
  8
1
 62
7
  6
CONTINUOUS
 10
103.436433
 20
71.072349
 11
102.401157
 21
71.072349
  0
LINE
  8
1
 62
7
  6
CONTINUOUS
 10
102.918795
 20
72.521238
 11
103.177614
 21
71.555312
  0
LINE
  8
1
 62
7
  6
CONTINUOUS
 10
102.918795
 20
72.521238
 11
102.659976
 21
71.555312
  0
LINE
  8
1
 62
7
  6
CONTINUOUS
 10
103.177614
 20
71.555312
 11
102.659976
 21
71.555312
  0
LINE
  8
1
 62
7
  6
CONTINUOUS
 10
102.918795
 20
83.404201
 11
102.401157
 21
85.336053
  0
LINE
  8
1
 62
7
  6
CONTINUOUS
 10
102.918795
 20
83.404201
 11
103.436433
 21
85.336053
  0
LINE
  8
1
 62
7
  6
CONTINUOUS
 10
102.401157
 20
85.336053
 11
103.436433
 21
85.336053
  0
LINE
  8
1
 62
7
  6
CONTINUOUS
 10
102.918795
 20
83.887164
 11
102.659976
 21
84.853090
  0
LINE
  8
1
 62
7
  6
CONTINUOUS
 10
102.918795
 20
83.887164
 11
103.177614
 21
84.853090
  0
LINE
  8
1
 62
7
  6
CONTINUOUS
 10
102.659976
 20
84.853090
 11
103.177614
 21
84.853090
  0
TEXT
  8
1
 62
7
  6
CONTINUOUS
 10
102.918795
 20
64.948461
 40
4.000000
 41
0.500000
  1
11
  7
KANJI
 50
90.000000
 51
30.000000
  0
ENDBLK
  0
BLOCK
  8
1
 62
7
  6
CONTINUOUS
  2
*D15
 70
    65
 10
0.0
 20
0.0
  0
LINE
  8
1
 62
7
  6
CONTINUOUS
 10
40.732671
 20
169.273468
 11
81.732671
 21
169.273468
  0
LINE
  8
1
 62
7
  6
CONTINUOUS
 10
40.732671
 20
171.273468
 11
40.732671
 21
156.606240
  0
LINE
  8
1
 62
7
  6
CONTINUOUS
 10
81.732671
 20
171.273468
 11
81.732671
 21
156.606240
  0
LINE
  8
1
 62
7
  6
CONTINUOUS
 10
40.732671
 20
169.273468
 11
42.664523
 21
169.791106
  0
LINE
  8
1
 62
7
  6
CONTINUOUS
 10
40.732671
 20
169.273468
 11
42.664523
 21
168.755830
  0
LINE
  8
1
 62
7
  6
CONTINUOUS
 10
42.664523
 20
169.791106
 11
42.664523
 21
168.755830
  0
LINE
  8
1
 62
7
  6
CONTINUOUS
 10
41.215634
 20
169.273468
 11
42.181560
 21
169.532287
  0
LINE
  8
1
 62
7
  6
CONTINUOUS
 10
41.215634
 20
169.273468
 11
42.181560
 21
169.014649
  0
LINE
  8
1
 62
7
  6
CONTINUOUS
 10
42.181560
 20
169.532287
 11
42.181560
 21
169.014649
  0
LINE
  8
1
 62
7
  6
CONTINUOUS
 10
81.732671
 20
169.273468
 11
79.800820
 21
168.755830
  0
LINE
  8
1
 62
7
  6
CONTINUOUS
 10
81.732671
 20
169.273468
 11
79.800820
 21
169.791106
  0
LINE
  8
1
 62
7
  6
CONTINUOUS
 10
79.800820
 20
168.755830
 11
79.800820
 21
169.791106
  0
LINE
  8
1
 62
7
  6
CONTINUOUS
 10
81.249709
 20
169.273468
 11
80.283783
 21
169.014649
  0
LINE
  8
1
 62
7
  6
CONTINUOUS
 10
81.249709
 20
169.273468
 11
80.283783
 21
169.532287
  0
LINE
  8
1
 62
7
  6
CONTINUOUS
 10
80.283783
 20
169.014649
 11
80.283783
 21
169.532287
  0
TEXT
  8
1
 62
7
  6
CONTINUOUS
 10
59.841886
 20
169.273468
 40
4.000000
 41
0.500000
  1
41
  7
KANJI
 50
0.000000
 51
30.000000
  0
ENDBLK
  0
BLOCK
  8
1
 62
7
  6
CONTINUOUS
  2
*D16
 70
    65
 10
0.0
 20
0.0
  0
LINE
  8
1
 62
7
  6
CONTINUOUS
 10
73.732671
 20
169.273468
 11
95.618299
 21
169.273468
  0
LINE
  8
1
 62
7
  6
CONTINUOUS
 10
81.732671
 20
171.273468
 11
81.732671
 21
154.806240
  0
LINE
  8
1
 62
7
  6
CONTINUOUS
 10
86.232671
 20
171.273468
 11
86.232671
 21
154.806240
  0
LINE
  8
1
 62
7
  6
CONTINUOUS
 10
81.732671
 20
169.273468
 11
79.800820
 21
168.755830
  0
LINE
  8
1
 62
7
  6
CONTINUOUS
 10
81.732671
 20
169.273468
 11
79.800820
 21
169.791106
  0
LINE
  8
1
 62
7
  6
CONTINUOUS
 10
79.800820
 20
168.755830
 11
79.800820
 21
169.791106
  0
LINE
  8
1
 62
7
  6
CONTINUOUS
 10
81.249709
 20
169.273468
 11
80.283783
 21
169.014649
  0
LINE
  8
1
 62
7
  6
CONTINUOUS
 10
81.249709
 20
169.273468
 11
80.283783
 21
169.532287
  0
LINE
  8
1
 62
7
  6
CONTINUOUS
 10
80.283783
 20
169.014649
 11
80.283783
 21
169.532287
  0
LINE
  8
1
 62
7
  6
CONTINUOUS
 10
86.232671
 20
169.273468
 11
88.164523
 21
169.791106
  0
LINE
  8
1
 62
7
  6
CONTINUOUS
 10
86.232671
 20
169.273468
 11
88.164523
 21
168.755830
  0
LINE
  8
1
 62
7
  6
CONTINUOUS
 10
88.164523
 20
169.791106
 11
88.164523
 21
168.755830
  0
LINE
  8
1
 62
7
  6
CONTINUOUS
 10
86.715634
 20
169.273468
 11
87.681560
 21
169.532287
  0
LINE
  8
1
 62
7
  6
CONTINUOUS
 10
86.715634
 20
169.273468
 11
87.681560
 21
169.014649
  0
LINE
  8
1
 62
7
  6
CONTINUOUS
 10
87.681560
 20
169.532287
 11
87.681560
 21
169.014649
  0
TEXT
  8
1
 62
7
  6
CONTINUOUS
 10
88.618299
 20
169.273468
 40
4.000000
 41
0.500000
  1
4.5
  7
KANJI
 50
0.000000
 51
30.000000
  0
ENDBLK
  0
BLOCK
  8
1
 62
7
  6
CONTINUOUS
  2
*D17
 70
    65
 10
0.0
 20
0.0
  0
LINE
  8
1
 62
7
  6
CONTINUOUS
 10
97.865990
 20
113.406240
 11
97.865990
 21
145.906240
  0
LINE
  8
1
 62
7
  6
CONTINUOUS
 10
99.865990
 20
113.406240
 11
83.732671
 21
113.406240
  0
LINE
  8
1
 62
7
  6
CONTINUOUS
 10
99.865990
 20
145.906240
 11
88.232671
 21
145.906240
  0
LINE
  8
1
 62
7
  6
CONTINUOUS
 10
97.865990
 20
113.406240
 11
97.348352
 21
115.338092
  0
LINE
  8
1
 62
7
  6
CONTINUOUS
 10
97.865990
 20
113.406240
 11
98.383628
 21
115.338092
  0
LINE
  8
1
 62
7
  6
CONTINUOUS
 10
97.348352
 20
115.338092
 11
98.383628
 21
115.338092
  0
LINE
  8
1
 62
7
  6
CONTINUOUS
 10
97.865990
 20
113.889203
 11
97.607171
 21
114.855129
  0
LINE
  8
1
 62
7
  6
CONTINUOUS
 10
97.865990
 20
113.889203
 11
98.124809
 21
114.855129
  0
LINE
  8
1
 62
7
  6
CONTINUOUS
 10
97.607171
 20
114.855129
 11
98.124809
 21
114.855129
  0
LINE
  8
1
 62
7
  6
CONTINUOUS
 10
97.865990
 20
145.906240
 11
98.383628
 21
143.974389
  0
LINE
  8
1
 62
7
  6
CONTINUOUS
 10
97.865990
 20
145.906240
 11
97.348352
 21
143.974389
  0
LINE
  8
1
 62
7
  6
CONTINUOUS
 10
98.383628
 20
143.974389
 11
97.348352
 21
143.974389
  0
LINE
  8
1
 62
7
  6
CONTINUOUS
 10
97.865990
 20
145.423277
 11
98.124809
 21
144.457352
  0
LINE
  8
1
 62
7
  6
CONTINUOUS
 10
97.865990
 20
145.423277
 11
97.607171
 21
144.457352
  0
LINE
  8
1
 62
7
  6
CONTINUOUS
 10
98.124809
 20
144.457352
 11
97.607171
 21
144.457352
  0
TEXT
  8
1
 62
7
  6
CONTINUOUS
 10
97.865990
 20
124.149241
 40
4.000000
 41
0.500000
  1
32.5
  7
KANJI
 50
90.000000
 51
30.000000
  0
ENDBLK
  0
BLOCK
  8
1
 62
7
  6
CONTINUOUS
  2
*D18
 70
    65
 10
0.0
 20
0.0
  0
LINE
  8
1
 62
7
  6
CONTINUOUS
 10
19.722513
 20
113.406240
 11
19.722513
 21
154.606240
  0
LINE
  8
1
 62
7
  6
CONTINUOUS
 10
15.722513
 20
113.406240
 11
36.732671
 21
113.406240
  0
LINE
  8
1
 62
7
  6
CONTINUOUS
 10
15.722513
 20
154.606240
 11
36.732671
 21
154.606240
  0
LINE
  8
1
 62
7
  6
CONTINUOUS
 10
19.722513
 20
113.406240
 11
19.204875
 21
115.338092
  0
LINE
  8
1
 62
7
  6
CONTINUOUS
 10
19.722513
 20
113.406240
 11
20.240152
 21
115.338092
  0
LINE
  8
1
 62
7
  6
CONTINUOUS
 10
19.204875
 20
115.338092
 11
20.240152
 21
115.338092
  0
LINE
  8
1
 62
7
  6
CONTINUOUS
 10
19.722513
 20
113.889203
 11
19.463694
 21
114.855129
  0
LINE
  8
1
 62
7
  6
CONTINUOUS
 10
19.722513
 20
113.889203
 11
19.981332
 21
114.855129
  0
LINE
  8
1
 62
7
  6
CONTINUOUS
 10
19.463694
 20
114.855129
 11
19.981332
 21
114.855129
  0
LINE
  8
1
 62
7
  6
CONTINUOUS
 10
19.722513
 20
154.606240
 11
20.240152
 21
152.674389
  0
LINE
  8
1
 62
7
  6
CONTINUOUS
 10
19.722513
 20
154.606240
 11
19.204875
 21
152.674389
  0
LINE
  8
1
 62
7
  6
CONTINUOUS
 10
20.240152
 20
152.674389
 11
19.204875
 21
152.674389
  0
LINE
  8
1
 62
7
  6
CONTINUOUS
 10
19.722513
 20
154.123277
 11
19.981332
 21
153.157352
  0
LINE
  8
1
 62
7
  6
CONTINUOUS
 10
19.722513
 20
154.123277
 11
19.463694
 21
153.157352
  0
LINE
  8
1
 62
7
  6
CONTINUOUS
 10
19.981332
 20
153.157352
 11
19.463694
 21
153.157352
  0
TEXT
  8
1
 62
7
  6
CONTINUOUS
 10
19.722513
 20
129.661056
 40
4.000000
 41
0.500000
  1
41.2
  7
KANJI
 50
90.000000
 51
30.000000
  0
ENDBLK
  0
BLOCK
  8
1
 62
7
  6
CONTINUOUS
  2
*D19
 70
    65
 10
0.0
 20
0.0
  0
LINE
  8
1
 62
7
  6
CONTINUOUS
 10
124.111953
 20
136.006240
 11
124.111953
 21
160.357894
  0
LINE
  8
1
 62
7
  6
CONTINUOUS
 10
124.111953
 20
144.006240
 11
124.629591
 21
142.074389
  0
LINE
  8
1
 62
7
  6
CONTINUOUS
 10
124.111953
 20
144.006240
 11
123.594315
 21
142.074389
  0
LINE
  8
1
 62
7
  6
CONTINUOUS
 10
124.629591
 20
142.074389
 11
123.594315
 21
142.074389
  0
LINE
  8
1
 62
7
  6
CONTINUOUS
 10
124.111953
 20
143.523277
 11
124.370772
 21
142.557352
  0
LINE
  8
1
 62
7
  6
CONTINUOUS
 10
124.111953
 20
143.523277
 11
123.853134
 21
142.557352
  0
LINE
  8
1
 62
7
  6
CONTINUOUS
 10
124.370772
 20
142.557352
 11
123.853134
 21
142.557352
  0
LINE
  8
1
 62
7
  6
CONTINUOUS
 10
124.111953
 20
147.806240
 11
123.594315
 21
149.738092
  0
LINE
  8
1
 62
7
  6
CONTINUOUS
 10
124.111953
 20
147.806240
 11
124.629591
 21
149.738092
  0
LINE
  8
1
 62
7
  6
CONTINUOUS
 10
123.594315
 20
149.738092
 11
124.629591
 21
149.738092
  0
LINE
  8
1
 62
7
  6
CONTINUOUS
 10
124.111953
 20
148.289203
 11
123.853134
 21
149.255129
  0
LINE
  8
1
 62
7
  6
CONTINUOUS
 10
124.111953
 20
148.289203
 11
124.370772
 21
149.255129
  0
LINE
  8
1
 62
7
  6
CONTINUOUS
 10
123.853134
 20
149.255129
 11
124.370772
 21
149.255129
  0
TEXT
  8
1
 62
7
  6
CONTINUOUS
 10
124.111953
 20
149.357894
 40
4.000000
 41
0.625000
  1
φ3.8
  7
KANJI
 50
90.000000
 51
30.000000
  0
ENDBLK
  0
BLOCK
  8
1
 62
7
  6
CONTINUOUS
  2
*D20
 70
    65
 10
0.0
 20
0.0
  0
LINE
  8
1
 62
7
  6
CONTINUOUS
 10
145.049480
 20
161.509385
 11
200.874436
 21
161.509385
  0
LINE
  8
1
 62
7
  6
CONTINUOUS
 10
145.049480
 20
163.509385
 11
145.049480
 21
147.906240
  0
LINE
  8
1
 62
7
  6
CONTINUOUS
 10
200.874436
 20
163.509385
 11
200.874436
 21
151.915404
  0
LINE
  8
1
 62
7
  6
CONTINUOUS
 10
145.049480
 20
161.509385
 11
146.981332
 21
162.027023
  0
LINE
  8
1
 62
7
  6
CONTINUOUS
 10
145.049480
 20
161.509385
 11
146.981332
 21
160.991747
  0
LINE
  8
1
 62
7
  6
CONTINUOUS
 10
146.981332
 20
162.027023
 11
146.981332
 21
160.991747
  0
LINE
  8
1
 62
7
  6
CONTINUOUS
 10
145.532443
 20
161.509385
 11
146.498369
 21
161.768204
  0
LINE
  8
1
 62
7
  6
CONTINUOUS
 10
145.532443
 20
161.509385
 11
146.498369
 21
161.250566
  0
LINE
  8
1
 62
7
  6
CONTINUOUS
 10
146.498369
 20
161.768204
 11
146.498369
 21
161.250566
  0
LINE
  8
1
 62
7
  6
CONTINUOUS
 10
200.874436
 20
161.509385
 11
198.942584
 21
160.991747
  0
LINE
  8
1
 62
7
  6
CONTINUOUS
 10
200.874436
 20
161.509385
 11
198.942584
 21
162.027023
  0
LINE
  8
1
 62
7
  6
CONTINUOUS
 10
198.942584
 20
160.991747
 11
198.942584
 21
162.027023
  0
LINE
  8
1
 62
7
  6
CONTINUOUS
 10
200.391473
 20
161.509385
 11
199.425547
 21
161.250566
  0
LINE
  8
1
 62
7
  6
CONTINUOUS
 10
200.391473
 20
161.509385
 11
199.425547
 21
161.768204
  0
LINE
  8
1
 62
7
  6
CONTINUOUS
 10
199.425547
 20
161.250566
 11
199.425547
 21
161.768204
  0
TEXT
  8
1
 62
7
  6
CONTINUOUS
 10
170.361280
 20
161.509385
 40
4.000000
 41
0.500000
  1
100
  7
KANJI
 50
0.000000
 51
30.000000
  0
ENDBLK
  0
BLOCK
  8
1
 62
7
  6
CONTINUOUS
  2
*D21
 70
    65
 10
0.0
 20
0.0
  0
LINE
  8
1
 62
7
  6
CONTINUOUS
 10
15.538297
 20
113.406240
 11
15.538297
 21
128.406240
  0
LINE
  8
1
 62
7
  6
CONTINUOUS
 10
11.538297
 20
113.406240
 11
36.732671
 21
113.406240
  0
LINE
  8
1
 62
7
  6
CONTINUOUS
 10
11.538297
 20
128.406240
 11
36.732671
 21
128.406240
  0
LINE
  8
1
 62
7
  6
CONTINUOUS
 10
15.538297
 20
113.406240
 11
15.020659
 21
115.338092
  0
LINE
  8
1
 62
7
  6
CONTINUOUS
 10
15.538297
 20
113.406240
 11
16.055935
 21
115.338092
  0
LINE
  8
1
 62
7
  6
CONTINUOUS
 10
15.020659
 20
115.338092
 11
16.055935
 21
115.338092
  0
LINE
  8
1
 62
7
  6
CONTINUOUS
 10
15.538297
 20
113.889203
 11
15.279478
 21
114.855129
  0
LINE
  8
1
 62
7
  6
CONTINUOUS
 10
15.538297
 20
113.889203
 11
15.797116
 21
114.855129
  0
LINE
  8
1
 62
7
  6
CONTINUOUS
 10
15.279478
 20
114.855129
 11
15.797116
 21
114.855129
  0
LINE
  8
1
 62
7
  6
CONTINUOUS
 10
15.538297
 20
128.406240
 11
16.055935
 21
126.474389
  0
LINE
  8
1
 62
7
  6
CONTINUOUS
 10
15.538297
 20
128.406240
 11
15.020659
 21
126.474389
  0
LINE
  8
1
 62
7
  6
CONTINUOUS
 10
16.055935
 20
126.474389
 11
15.020659
 21
126.474389
  0
LINE
  8
1
 62
7
  6
CONTINUOUS
 10
15.538297
 20
127.923277
 11
15.797116
 21
126.957352
  0
LINE
  8
1
 62
7
  6
CONTINUOUS
 10
15.538297
 20
127.923277
 11
15.279478
 21
126.957352
  0
LINE
  8
1
 62
7
  6
CONTINUOUS
 10
15.797116
 20
126.957352
 11
15.279478
 21
126.957352
  0
TEXT
  8
1
 62
7
  6
CONTINUOUS
 10
15.538297
 20
119.398934
 40
4.000000
 41
0.500000
  1
15
  7
KANJI
 50
90.000000
 51
30.000000
  0
ENDBLK
  0
BLOCK
  8
1
 62
7
  6
CONTINUOUS
  2
*D22
 70
    65
 10
0.0
 20
0.0
  0
LINE
  8
1
 62
7
  6
CONTINUOUS
 10
26.194102
 20
118.406242
 11
26.194102
 21
138.406238
  0
LINE
  8
1
 62
7
  6
CONTINUOUS
 10
24.194102
 20
118.406242
 11
38.732671
 21
118.406242
  0
LINE
  8
1
 62
7
  6
CONTINUOUS
 10
24.194102
 20
138.406238
 11
38.732671
 21
138.406238
  0
LINE
  8
1
 62
7
  6
CONTINUOUS
 10
26.194102
 20
118.406242
 11
25.676464
 21
120.338094
  0
LINE
  8
1
 62
7
  6
CONTINUOUS
 10
26.194102
 20
118.406242
 11
26.711740
 21
120.338094
  0
LINE
  8
1
 62
7
  6
CONTINUOUS
 10
25.676464
 20
120.338094
 11
26.711740
 21
120.338094
  0
LINE
  8
1
 62
7
  6
CONTINUOUS
 10
26.194102
 20
118.889205
 11
25.935283
 21
119.855131
  0
LINE
  8
1
 62
7
  6
CONTINUOUS
 10
26.194102
 20
118.889205
 11
26.452921
 21
119.855131
  0
LINE
  8
1
 62
7
  6
CONTINUOUS
 10
25.935283
 20
119.855131
 11
26.452921
 21
119.855131
  0
LINE
  8
1
 62
7
  6
CONTINUOUS
 10
26.194102
 20
138.406238
 11
26.711740
 21
136.474387
  0
LINE
  8
1
 62
7
  6
CONTINUOUS
 10
26.194102
 20
138.406238
 11
25.676464
 21
136.474387
  0
LINE
  8
1
 62
7
  6
CONTINUOUS
 10
26.711740
 20
136.474387
 11
25.676464
 21
136.474387
  0
LINE
  8
1
 62
7
  6
CONTINUOUS
 10
26.194102
 20
137.923275
 11
26.452921
 21
136.957350
  0
LINE
  8
1
 62
7
  6
CONTINUOUS
 10
26.194102
 20
137.923275
 11
25.935283
 21
136.957350
  0
LINE
  8
1
 62
7
  6
CONTINUOUS
 10
26.452921
 20
136.957350
 11
25.935283
 21
136.957350
  0
TEXT
  8
1
 62
7
  6
CONTINUOUS
 10
26.194102
 20
120.406240
 40
4.000000
 41
0.500000
  1
M20P0.75
  7
KANJI
 50
90.000000
 51
30.000000
  0
ENDBLK
  0
BLOCK
  8
1
 62
7
  6
CONTINUOUS
  2
*D23
 70
    65
 10
0.0
 20
0.0
  0
LINE
  8
1
 62
7
  6
CONTINUOUS
 10
31.270951
 20
113.406240
 11
31.270951
 21
143.406240
  0
LINE
  8
1
 62
7
  6
CONTINUOUS
 10
29.270951
 20
121.406240
 11
38.732671
 21
121.406240
  0
LINE
  8
1
 62
7
  6
CONTINUOUS
 10
29.270951
 20
135.406240
 11
38.732671
 21
135.406240
  0
LINE
  8
1
 62
7
  6
CONTINUOUS
 10
31.270951
 20
121.406240
 11
31.788589
 21
119.474389
  0
LINE
  8
1
 62
7
  6
CONTINUOUS
 10
31.270951
 20
121.406240
 11
30.753313
 21
119.474389
  0
LINE
  8
1
 62
7
  6
CONTINUOUS
 10
31.788589
 20
119.474389
 11
30.753313
 21
119.474389
  0
LINE
  8
1
 62
7
  6
CONTINUOUS
 10
31.270951
 20
120.923277
 11
31.529770
 21
119.957352
  0
LINE
  8
1
 62
7
  6
CONTINUOUS
 10
31.270951
 20
120.923277
 11
31.012132
 21
119.957352
  0
LINE
  8
1
 62
7
  6
CONTINUOUS
 10
31.529770
 20
119.957352
 11
31.012132
 21
119.957352
  0
LINE
  8
1
 62
7
  6
CONTINUOUS
 10
31.270951
 20
135.406240
 11
30.753313
 21
137.338092
  0
LINE
  8
1
 62
7
  6
CONTINUOUS
 10
31.270951
 20
135.406240
 11
31.788589
 21
137.338092
  0
LINE
  8
1
 62
7
  6
CONTINUOUS
 10
30.753313
 20
137.338092
 11
31.788589
 21
137.338092
  0
LINE
  8
1
 62
7
  6
CONTINUOUS
 10
31.270951
 20
135.889203
 11
31.012132
 21
136.855129
  0
LINE
  8
1
 62
7
  6
CONTINUOUS
 10
31.270951
 20
135.889203
 11
31.529770
 21
136.855129
  0
LINE
  8
1
 62
7
  6
CONTINUOUS
 10
31.012132
 20
136.855129
 11
31.529770
 21
136.855129
  0
TEXT
  8
1
 62
7
  6
CONTINUOUS
 10
31.270951
 20
124.406240
 40
4.000000
 41
0.666667
  1
φ14
  7
KANJI
 50
90.000000
 51
30.000000
  0
ENDBLK
  0
BLOCK
  8
1
 62
7
  6
CONTINUOUS
  2
*D24
 70
    65
 10
0.0
 20
0.0
  0
LINE
  8
1
 62
7
  6
CONTINUOUS
 10
40.732671
 20
144.119715
 11
46.232671
 21
144.119715
  0
LINE
  8
1
 62
7
  6
CONTINUOUS
 10
40.732671
 20
146.119715
 11
40.732671
 21
140.406238
  0
LINE
  8
1
 62
7
  6
CONTINUOUS
 10
46.232671
 20
146.119715
 11
46.232671
 21
140.406238
  0
LINE
  8
1
 62
7
  6
CONTINUOUS
 10
40.732671
 20
144.119715
 11
42.664523
 21
144.637353
  0
LINE
  8
1
 62
7
  6
CONTINUOUS
 10
40.732671
 20
144.119715
 11
42.664523
 21
143.602077
  0
LINE
  8
1
 62
7
  6
CONTINUOUS
 10
42.664523
 20
144.637353
 11
42.664523
 21
143.602077
  0
LINE
  8
1
 62
7
  6
CONTINUOUS
 10
41.215634
 20
144.119715
 11
42.181560
 21
144.378534
  0
LINE
  8
1
 62
7
  6
CONTINUOUS
 10
41.215634
 20
144.119715
 11
42.181560
 21
143.860896
  0
LINE
  8
1
 62
7
  6
CONTINUOUS
 10
42.181560
 20
144.378534
 11
42.181560
 21
143.860896
  0
LINE
  8
1
 62
7
  6
CONTINUOUS
 10
46.232671
 20
144.119715
 11
44.300820
 21
143.602077
  0
LINE
  8
1
 62
7
  6
CONTINUOUS
 10
46.232671
 20
144.119715
 11
44.300820
 21
144.637353
  0
LINE
  8
1
 62
7
  6
CONTINUOUS
 10
44.300820
 20
143.602077
 11
44.300820
 21
144.637353
  0
LINE
  8
1
 62
7
  6
CONTINUOUS
 10
45.749709
 20
144.119715
 11
44.783783
 21
143.860896
  0
LINE
  8
1
 62
7
  6
CONTINUOUS
 10
45.749709
 20
144.119715
 11
44.783783
 21
144.378534
  0
LINE
  8
1
 62
7
  6
CONTINUOUS
 10
44.783783
 20
143.860896
 11
44.783783
 21
144.378534
  0
TEXT
  8
1
 62
7
  6
CONTINUOUS
 10
42.545551
 20
144.119715
 40
4.000000
 41
0.500000
  1
5
  7
KANJI
 50
0.000000
 51
30.000000
  0
ENDBLK
  0
ENDSEC
  0
SECTION
  2
ENTITIES
  0
TEXT
  8
1
 62
7
  6
CONTINUOUS
 10
181.804957
 20
105.373648
 40
4.000000
 41
1.000000
  1
⑧
  7
KANJI
 50
0.000000
 51
0.000000
  0
LINE
  8
1
 62
7
  6
CONTINUOUS
 10
260.224427
 20
138.777097
 11
218.873922
 21
105.373648
  0
LINE
  8
1
 62
7
  6
CONTINUOUS
 10
218.873922
 20
105.373648
 11
185.804957
 21
105.373648
  0
TEXT
  8
1
 62
7
  6
CONTINUOUS
 10
185.804957
 20
105.373648
 40
4.000000
 41
0.727273
  1
放射率調節ﾎﾞﾘｭｰﾑ
  7
KANJI
 50
0.000000
 51
30.000000
  0
LINE
  8
1
 62
7
  6
CONTINUOUS
 10
260.224427
 20
138.777097
 11
259.046929
 21
137.160465
  0
LINE
  8
1
 62
7
  6
CONTINUOUS
 10
260.224427
 20
138.777097
 11
258.396368
 21
137.965802
  0
LINE
  8
1
 62
7
  6
CONTINUOUS
 10
259.046929
 20
137.160465
 11
258.396368
 21
137.965802
  0
LINE
  8
1
 62
7
  6
CONTINUOUS
 10
259.848733
 20
138.473606
 11
259.259984
 21
137.665290
  0
LINE
  8
1
 62
7
  6
CONTINUOUS
 10
259.848733
 20
138.473606
 11
258.934703
 21
138.067958
  0
LINE
  8
1
 62
7
  6
CONTINUOUS
 10
259.259984
 20
137.665290
 11
258.934703
 21
138.067958
  0
TEXT
  8
1
 62
7
  6
CONTINUOUS
 10
237.187914
 20
20.406457
 40
4.000000
 41
1.000000
  1
００５－０５６－Ａ１０３
  7
KANJI
 50
0.000000
 51
0.000000
  0
DIMENSION
  8
1
 62
7
  6
CONTINUOUS
  2
*D1
 10
261.001715
 20
160.688338
 11
264.377794
 21
160.688338
 70
     0
  1
7.6
 13
261.001715
 23
143.362705
 14
268.301715
 24
143.675671
 50
0.000000
  0
DIMENSION
  8
1
 62
7
  6
CONTINUOUS
  2
*D2
 10
261.601715
 20
125.670455
 11
264.890205
 21
125.670455
 70
     0
  1
7
 13
261.601715
 23
130.028099
 14
268.301715
 24
128.095939
 50
0.000000
  0
TEXT
  8
1
 62
7
  6
CONTINUOUS
 10
172.772351
 20
27.782285
 40
4.000000
 41
0.500000
  1
2009/07/07
  7
KANJI
 50
-0.091868
 51
0.000000
  0
DIMENSION
  8
1
 62
7
  6
CONTINUOUS
  2
*D3
 10
276.336737
 20
113.406240
 11
276.336737
 21
126.399031
 70
     0
  1
21.4
 13
266.592812
 23
113.406240
 14
265.801715
 24
134.806242
 50
90.000000
  0
DIMENSION
  8
1
 62
7
  6
CONTINUOUS
  2
*D4
 10
281.813637
 20
113.406240
 11
281.813637
 21
128.824516
 70
     0
  1
26
 13
268.301715
 23
113.406240
 14
265.159840
 24
139.406242
 50
90.000000
  0
TEXT
  8
1
 62
7
  6
CONTINUOUS
 10
235.675499
 20
28.437914
 40
4.000000
 41
0.621711
  1
ｱﾅﾛｸﾞ出力ﾀｲﾌﾟVR内蔵型外形図
  7
KANJI
 50
0.000000
 51
0.000000
  0
TEXT
  8
1
 62
7
  6
CONTINUOUS
 10
235.005017
 20
35.322020
 40
4.000000
 41
1.000000
  1
ＴＭＨ９１
  7
KANJI
 50
0.000000
 51
0.000000
  0
DIMENSION
  8
1
 62
7
  6
CONTINUOUS
  2
*D5
 10
242.301719
 20
170.106766
 11
255.301719
 21
170.106766
 70
     0
  1
26.5
 13
242.301719
 23
158.406240
 14
268.301719
 24
158.406240
 50
0.000000
  0
TEXT
  8
1
 62
7
  6
CONTINUOUS
 10
201.791322
 20
97.080372
 40
4.000000
 41
1.000000
  1
⑦
  7
KANJI
 50
0.000000
 51
0.000000
  0
LINE
  8
1
 62
7
  6
CONTINUOUS
 10
260.185565
 20
133.122639
 11
240.900153
 21
96.999814
  0
LINE
  8
1
 62
7
  6
CONTINUOUS
 10
240.900153
 20
96.999814
 11
206.339795
 21
96.999814
  0
TEXT
  8
1
 62
7
  6
CONTINUOUS
 10
206.339795
 20
96.999814
 40
4.000000
 41
0.576923
  1
RS232C出力ｼﾞｬｯｸ
  7
KANJI
 50
0.000000
 51
30.000000
  0
LINE
  8
1
 62
7
  6
CONTINUOUS
 10
260.185565
 20
133.122639
 11
259.732362
 21
131.174664
  0
LINE
  8
1
 62
7
  6
CONTINUOUS
 10
260.185565
 20
133.122639
 11
258.819092
 21
131.662244
  0
LINE
  8
1
 62
7
  6
CONTINUOUS
 10
259.732362
 20
131.174664
 11
258.819092
 21
131.662244
  0
LINE
  8
1
 62
7
  6
CONTINUOUS
 10
259.958106
 20
132.696593
 11
259.731504
 21
131.722605
  0
LINE
  8
1
 62
7
  6
CONTINUOUS
 10
259.958106
 20
132.696593
 11
259.274869
 21
131.966395
  0
LINE
  8
1
 62
7
  6
CONTINUOUS
 10
259.731504
 20
131.722605
 11
259.274869
 21
131.966395
  0
TEXT
  8
1
 62
7
  6
CONTINUOUS
 10
205.400898
 20
92.999814
 40
4.000000
 41
0.533333
  1
φ2.5ｽﾃﾚｵﾐﾆｼﾞｬｯｸ
  7
KANJI
 50
0.000000
 51
0.000000
  0
LINE
  8
1
 62
7
  6
DASHDOT
 10
259.091285
 20
139.406242
 11
263.159840
 21
139.406242
  0
LINE
  8
1
 62
7
  6
DASHDOT
 10
261.001715
 20
141.362705
 11
261.001715
 21
137.607116
  0
CIRCLE
  8
1
 62
7
  6
CONTINUOUS
 10
261.001715
 20
139.406242
 40
1.000000
  0
CIRCLE
  8
1
 62
7
  6
CONTINUOUS
 10
261.601715
 20
134.806242
 40
1.250000
  0
LINE
  8
1
 62
7
  6
DASHDOT
 10
258.975827
 20
134.806242
 11
264.890205
 21
134.806242
  0
LINE
  8
1
 62
7
  6
DASHDOT
 10
261.601715
 20
132.028099
 11
261.601715
 21
138.127489
  0
CIRCLE
  8
1
 62
7
  6
CONTINUOUS
 10
261.601715
 20
134.806242
 40
2.200000
  0
CIRCLE
  8
1
 62
7
  6
CONTINUOUS
 10
255.301715
 20
145.906240
 40
2.400000
  0
LINE
  8
1
 62
7
  6
DASHDOT
 10
255.301715
 20
153.148921
 11
255.301715
 21
141.083448
  0
LINE
  8
1
 62
7
  6
DASHDOT
 10
249.506332
 20
145.906240
 11
260.875720
 21
145.906240
  0
ARC
  8
1
 62
7
  6
CONTINUOUS
 10
255.301715
 20
147.056240
 40
4.750000
 50
-152.154524
 51
-27.845476
  0
ARC
  8
1
 62
7
  6
CONTINUOUS
 10
255.301715
 20
147.056240
 40
4.750000
 50
27.845476
 51
152.154524
  0
LINE
  8
1
 62
7
  6
CONTINUOUS
 10
259.501715
 20
149.274911
 11
259.501715
 21
144.837570
  0
LINE
  8
1
 62
7
  6
CONTINUOUS
 10
251.101715
 20
149.274911
 11
251.101715
 21
144.837570
  0
ARC
  8
1
 62
7
  6
CONTINUOUS
 10
255.301715
 20
147.056240
 40
5.750000
 50
25.264411
 51
154.735589
  0
LINE
  8
1
 62
7
  6
CONTINUOUS
 10
260.501715
 20
149.510319
 11
260.501715
 21
144.602162
  0
LINE
  8
1
 62
7
  6
CONTINUOUS
 10
250.101715
 20
149.510319
 11
250.101715
 21
144.602162
  0
ARC
  8
1
 62
7
  6
CONTINUOUS
 10
255.301715
 20
147.056240
 40
5.750000
 50
-154.735589
 51
-107.718932
  0
ARC
  8
1
 62
7
  6
CONTINUOUS
 10
255.301715
 20
147.056240
 40
5.750000
 50
-72.281068
 51
-25.264411
  0
LINE
  8
1
 62
7
  6
CONTINUOUS
 10
253.551715
 20
141.579015
 11
253.551715
 21
141.054794
  0
ARC
  8
1
 62
7
  6
CONTINUOUS
 10
255.301715
 20
147.056240
 40
6.250000
 50
-106.256493
 51
-73.738983
  0
LINE
  8
1
 62
7
  6
CONTINUOUS
 10
257.051715
 20
141.579015
 11
257.051715
 21
141.056240
  0
LINE
  8
1
 62
7
  6
DASHDOT
 10
239.985711
 20
117.406240
 11
270.410769
 21
117.406240
  0
CIRCLE
  8
1
 62
7
  6
CONTINUOUS
 10
248.301715
 20
151.406238
 40
2.000000
  0
LINE
  8
1
 62
7
  6
CONTINUOUS
 10
247.301715
 20
151.606238
 11
247.301715
 21
151.206238
  0
LINE
  8
1
 62
7
  6
CONTINUOUS
 10
248.101715
 20
152.406238
 11
248.501715
 21
152.406238
  0
LINE
  8
1
 62
7
  6
CONTINUOUS
 10
249.301715
 20
151.606238
 11
249.301715
 21
151.206238
  0
LINE
  8
1
 62
7
  6
CONTINUOUS
 10
248.501715
 20
150.406238
 11
248.101715
 21
150.406238
  0
LINE
  8
1
 62
7
  6
CONTINUOUS
 10
248.501715
 20
150.606238
 11
248.501715
 21
150.406238
  0
LINE
  8
1
 62
7
  6
CONTINUOUS
 10
249.301715
 20
151.206238
 11
249.101715
 21
151.206238
  0
ARC
  8
1
 62
7
  6
CONTINUOUS
 10
249.101715
 20
150.606238
 40
0.600000
 50
90.000000
 51
180.000000
  0
LINE
  8
1
 62
7
  6
CONTINUOUS
 10
249.101715
 20
151.606238
 11
249.301715
 21
151.606238
  0
LINE
  8
1
 62
7
  6
CONTINUOUS
 10
248.501715
 20
152.406238
 11
248.501715
 21
152.206238
  0
ARC
  8
1
 62
7
  6
CONTINUOUS
 10
249.101715
 20
152.206238
 40
0.600000
 50
180.000000
 51
-90.000000
  0
LINE
  8
1
 62
7
  6
CONTINUOUS
 10
247.301715
 20
151.606238
 11
247.501715
 21
151.606238
  0
LINE
  8
1
 62
7
  6
CONTINUOUS
 10
248.101715
 20
152.206238
 11
248.101715
 21
152.406238
  0
ARC
  8
1
 62
7
  6
CONTINUOUS
 10
247.501715
 20
152.206238
 40
0.600000
 50
-90.000000
 51
0.000000
  0
LINE
  8
1
 62
7
  6
CONTINUOUS
 10
247.501715
 20
151.206238
 11
247.301715
 21
151.206238
  0
LINE
  8
1
 62
7
  6
CONTINUOUS
 10
248.101715
 20
150.406238
 11
248.101715
 21
150.606238
  0
ARC
  8
1
 62
7
  6
CONTINUOUS
 10
247.501715
 20
150.606238
 40
0.600000
 50
0.000000
 51
90.000000
  0
CIRCLE
  8
1
 62
7
  6
CONTINUOUS
 10
262.301715
 20
116.409002
 40
2.000000
  0
LINE
  8
1
 62
7
  6
CONTINUOUS
 10
261.301715
 20
116.609002
 11
261.301715
 21
116.209002
  0
LINE
  8
1
 62
7
  6
CONTINUOUS
 10
262.101715
 20
117.409002
 11
262.501715
 21
117.409002
  0
LINE
  8
1
 62
7
  6
CONTINUOUS
 10
263.301715
 20
116.609002
 11
263.301715
 21
116.209002
  0
LINE
  8
1
 62
7
  6
CONTINUOUS
 10
262.501715
 20
115.409002
 11
262.101715
 21
115.409002
  0
LINE
  8
1
 62
7
  6
CONTINUOUS
 10
262.501715
 20
115.609002
 11
262.501715
 21
115.409002
  0
LINE
  8
1
 62
7
  6
CONTINUOUS
 10
263.301715
 20
116.209002
 11
263.101715
 21
116.209002
  0
ARC
  8
1
 62
7
  6
CONTINUOUS
 10
263.101715
 20
115.609002
 40
0.600000
 50
90.000000
 51
180.000000
  0
LINE
  8
1
 62
7
  6
CONTINUOUS
 10
263.101715
 20
116.609002
 11
263.301715
 21
116.609002
  0
LINE
  8
1
 62
7
  6
CONTINUOUS
 10
262.501715
 20
117.409002
 11
262.501715
 21
117.209002
  0
ARC
  8
1
 62
7
  6
CONTINUOUS
 10
263.101715
 20
117.209002
 40
0.600000
 50
180.000000
 51
-90.000000
  0
LINE
  8
1
 62
7
  6
CONTINUOUS
 10
261.301715
 20
116.609002
 11
261.501715
 21
116.609002
  0
LINE
  8
1
 62
7
  6
CONTINUOUS
 10
262.101715
 20
117.209002
 11
262.101715
 21
117.409002
  0
ARC
  8
1
 62
7
  6
CONTINUOUS
 10
261.501715
 20
117.209002
 40
0.600000
 50
-90.000000
 51
0.000000
  0
LINE
  8
1
 62
7
  6
CONTINUOUS
 10
261.501715
 20
116.209002
 11
261.301715
 21
116.209002
  0
LINE
  8
1
 62
7
  6
CONTINUOUS
 10
262.101715
 20
115.409002
 11
262.101715
 21
115.609002
  0
ARC
  8
1
 62
7
  6
CONTINUOUS
 10
261.501715
 20
115.609002
 40
0.600000
 50
0.000000
 51
90.000000
  0
LINE
  8
1
 62
7
  6
DOT
 10
253.801715
 20
117.406242
 11
256.807303
 21
117.406242
  0
LINE
  8
1
 62
7
  6
DOT
 10
256.607303
 20
113.406242
 11
256.607303
 21
117.406240
  0
LINE
  8
1
 62
7
  6
DOT
 10
254.001715
 20
113.406242
 11
254.001715
 21
117.406240
  0
LINE
  8
1
 62
7
  6
DOT
 10
256.801715
 20
113.406242
 11
256.801715
 21
117.406242
  0
LINE
  8
1
 62
7
  6
DOT
 10
253.801715
 20
113.406242
 11
253.801715
 21
117.406242
  0
LINE
  8
1
 62
7
  6
DOT
 10
244.801719
 20
115.656242
 11
265.801715
 21
115.656242
  0
LINE
  8
1
 62
7
  6
DOT
 10
268.033765
 20
114.406241
 11
265.801715
 21
114.406241
  0
LINE
  8
1
 62
7
  6
DOT
 10
265.801715
 20
120.406241
 11
268.301715
 21
120.406241
  0
LINE
  8
1
 62
7
  6
DOT
 10
265.801715
 20
114.406241
 11
265.801715
 21
120.406241
  0
LINE
  8
1
 62
7
  6
DOT
 10
242.569668
 20
114.406241
 11
244.801719
 21
114.406241
  0
LINE
  8
1
 62
7
  6
DOT
 10
244.801719
 20
119.156242
 11
264.801715
 21
119.156242
  0
LINE
  8
1
 62
7
  6
DOT
 10
244.801719
 20
120.406241
 11
242.301719
 21
120.406241
  0
LINE
  8
1
 62
7
  6
DOT
 10
244.801719
 20
114.406241
 11
244.801719
 21
120.406241
  0
LINE
  8
1
 62
7
  6
DASHDOT
 10
248.301715
 20
153.886329
 11
248.301715
 21
148.466272
  0
LINE
  8
1
 62
7
  6
DASHDOT
 10
251.131431
 20
151.406238
 11
245.740992
 21
151.406238
  0
ARC
  8
1
 62
7
  6
CONTINUOUS
 10
266.301715
 20
152.406240
 40
2.000000
 50
0.000000
 51
90.000000
  0
LINE
  8
1
 62
7
  6
CONTINUOUS
 10
244.301715
 20
154.406240
 11
266.301715
 21
154.406240
  0
ARC
  8
1
 62
7
  6
CONTINUOUS
 10
244.301715
 20
152.406240
 40
2.000000
 50
90.000000
 51
180.000000
  0
LINE
  8
1
 62
7
  6
CONTINUOUS
 10
268.301715
 20
152.406240
 11
268.301715
 21
115.406240
  0
ARC
  8
1
 62
7
  6
CONTINUOUS
 10
266.301715
 20
115.406240
 40
2.000000
 50
-90.000000
 51
0.000000
  0
LINE
  8
1
 62
7
  6
CONTINUOUS
 10
266.301715
 20
113.406240
 11
244.301715
 21
113.406240
  0
LINE
  8
1
 62
7
  6
CONTINUOUS
 10
242.301715
 20
115.406240
 11
242.301715
 21
152.406240
  0
ARC
  8
1
 62
7
  6
CONTINUOUS
 10
244.301715
 20
115.406240
 40
2.000000
 50
180.000000
 51
-90.000000
  0
LINE
  8
1
 62
7
  6
DASHDOT
 10
264.669173
 20
116.409002
 11
259.788184
 21
116.409002
  0
LINE
  8
1
 62
7
  6
DASHDOT
 10
262.301715
 20
118.934192
 11
262.301715
 21
113.744280
  0
LINE
  8
1
 62
7
  6
DASHDOT
 10
255.301715
 20
161.235491
 11
255.301715
 21
106.126875
  0
TEXT
  8
1
 62
7
  6
DASHDOT
 10
218.992844
 20
135.150485
 40
4.000000
 41
0.916667
  1
/放射率入力
  7
KANJI
 50
0.000000
 51
0.000000
  0
TEXT
  8
1
 62
7
  6
CONTINUOUS
 10
59.778520
 20
91.487107
 40
4.000000
 41
0.700000
  1
取付ﾈｼﾞ
  7
KANJI
 50
0.000000
 51
0.000000
  0
TEXT
  8
1
 62
7
  6
CONTINUOUS
 10
150.668543
 20
79.510930
 40
4.000000
 41
0.656250
  1
重量 ；45g(ｹｰﾌﾞﾙ除く)
  7
KANJI
 50
0.000000
 51
0.000000
  0
TEXT
  8
1
 62
7
  6
CONTINUOUS
 10
216.207781
 20
19.914735
 40
4.000000
 41
1.000000
  1
保田
  7
KANJI
 50
-0.112820
 51
0.000000
  0
LINE
  8
1
 62
7
  6
CONTINUOUS
 10
59.132671
 20
141.406242
 11
59.132671
 21
141.506242
  0
LINE
  8
1
 62
7
  6
DOT
 10
55.582671
 20
141.406242
 11
63.882671
 21
141.406242
  0
LINE
  8
1
 62
7
  6
CONTINUOUS
 10
60.332671
 20
141.406242
 11
60.332671
 21
141.506242
  0
LINE
  8
1
 62
7
  6
CONTINUOUS
 10
59.232670
 20
142.701242
 11
60.232670
 21
142.701242
  0
LINE
  8
1
 62
7
  6
DOT
 10
56.892671
 20
151.406240
 11
57.492671
 21
151.406240
  0
LINE
  8
1
 62
7
  6
DOT
 10
59.432671
 20
151.406240
 11
60.032671
 21
151.406240
  0
LINE
  8
1
 62
7
  6
DOT
 10
61.972671
 20
151.406240
 11
62.572671
 21
151.406240
  0
LINE
  8
1
 62
7
  6
DOT
 10
54.582671
 20
147.521242
 11
54.582671
 21
148.031242
  0
LINE
  8
1
 62
7
  6
DOT
 10
54.582671
 20
148.031242
 11
64.882671
 21
148.031242
  0
LINE
  8
1
 62
7
  6
DOT
 10
64.882671
 20
148.031242
 11
64.882671
 21
147.521242
  0
LINE
  8
1
 62
7
  6
DOT
 10
64.882671
 20
147.521242
 11
54.582671
 21
147.521242
  0
LINE
  8
1
 62
7
  6
DOT
 10
55.582671
 20
141.506242
 11
63.882671
 21
141.506242
  0
LINE
  8
1
 62
7
  6
DOT
 10
56.892671
 20
148.031242
 11
56.892671
 21
151.406240
  0
LINE
  8
1
 62
7
  6
DOT
 10
57.492671
 20
151.406240
 11
57.492671
 21
148.031242
  0
LINE
  8
1
 62
7
  6
DOT
 10
59.432671
 20
148.031242
 11
59.432671
 21
151.406240
  0
LINE
  8
1
 62
7
  6
DOT
 10
60.032671
 20
151.406240
 11
60.032671
 21
148.031242
  0
LINE
  8
1
 62
7
  6
DOT
 10
61.972671
 20
148.031242
 11
61.972671
 21
151.406240
  0
LINE
  8
1
 62
7
  6
DOT
 10
62.572671
 20
151.406240
 11
62.572671
 21
148.031242
  0
LINE
  8
1
 62
7
  6
DOT
 10
55.582671
 20
147.521242
 11
55.582671
 21
141.406242
  0
LINE
  8
1
 62
7
  6
DOT
 10
63.882671
 20
147.521242
 11
63.882671
 21
141.406242
  0
TEXT
  8
1
 62
7
  6
CONTINUOUS
 10
177.478198
 20
143.069824
 40
4.000000
 41
0.500000
  1
ｼﾛ
  7
KANJI
 50
-5.000000
 51
0.000000
  0
TEXT
  8
1
 62
7
  6
CONTINUOUS
 10
177.229579
 20
147.693604
 40
4.000000
 41
0.500000
  1
ﾐﾄﾞﾘ
  7
KANJI
 50
5.000000
 51
0.000000
  0
TEXT
  8
1
 62
7
  6
CONTINUOUS
 10
178.202463
 20
152.290180
 40
4.000000
 41
0.500000
  1
ｸﾛ
  7
KANJI
 50
15.000000
 51
0.000000
  0
TEXT
  8
1
 62
7
  6
CONTINUOUS
 10
176.778562
 20
135.439689
 40
4.000000
 41
0.500000
  1
ｱｶ
  7
KANJI
 50
-15.000000
 51
0.000000
  0
TEXT
  8
1
 62
7
  6
DASHDOT
 10
213.075397
 20
139.144180
 40
4.000000
 41
0.687500
  1
3：ｱﾗｰﾑ出力
  7
KANJI
 50
0.000000
 51
0.000000
  0
TEXT
  8
1
 62
7
  6
DASHDOT
 10
213.201218
 20
148.716246
 40
4.000000
 41
0.666667
  1
2：ｱﾅﾛｸﾞ出力
  7
KANJI
 50
0.000000
 51
0.000000
  0
LINE
  8
1
 62
7
  6
CONTINUOUS
 10
203.345771
 20
129.715288
 11
172.345199
 21
114.049987
  0
LINE
  8
1
 62
7
  6
CONTINUOUS
 10
172.345199
 20
114.049987
 11
147.554863
 21
114.049987
  0
TEXT
  8
1
 62
7
  6
CONTINUOUS
 10
147.554863
 20
114.049987
 40
4.000000
 41
0.750000
  1
4-M3圧着端子
  7
KANJI
 50
0.000000
 51
30.000000
  0
LINE
  8
1
 62
7
  6
CONTINUOUS
 10
203.345771
 20
129.715288
 11
201.855017
 21
128.382001
  0
LINE
  8
1
 62
7
  6
CONTINUOUS
 10
203.345771
 20
129.715288
 11
201.388097
 21
129.306005
  0
LINE
  8
1
 62
7
  6
CONTINUOUS
 10
201.855017
 20
128.382001
 11
201.388097
 21
129.306005
  0
LINE
  8
1
 62
7
  6
CONTINUOUS
 10
202.914718
 20
129.497467
 11
202.169341
 21
128.830824
  0
LINE
  8
1
 62
7
  6
CONTINUOUS
 10
202.914718
 20
129.497467
 11
201.935881
 21
129.292825
  0
LINE
  8
1
 62
7
  6
CONTINUOUS
 10
202.169341
 20
128.830824
 11
201.935881
 21
129.292825
  0
TEXT
  8
1
 62
7
  6
CONTINUOUS
 10
143.554863
 20
114.049987
 40
4.000000
 41
1.000000
  1
③
  7
KANJI
 50
0.000000
 51
0.000000
  0
TEXT
  8
1
 62
7
  6
CONTINUOUS
 10
85.325436
 20
55.287162
 40
4.000000
 41
0.700000
  1
取付ﾈｼﾞ
  7
KANJI
 50
0.000000
 51
0.000000
  0
TEXT
  8
1
 62
7
  6
CONTINUOUS
 10
79.668334
 20
55.327617
 40
4.000000
 41
1.000000
  1
⑤
  7
KANJI
 50
0.000000
 51
0.000000
  0
TEXT
  8
1
 62
7
  6
CONTINUOUS
 10
55.078867
 20
91.502782
 40
4.000000
 41
1.000000
  1
⑥
  7
KANJI
 50
0.000000
 51
0.000000
  0
TEXT
  8
1
 62
7
  6
CONTINUOUS
 10
98.143423
 20
105.977590
 40
4.000000
 41
1.000000
  1
取付穴
  7
KANJI
 50
0.000000
 51
0.000000
  0
TEXT
  8
1
 62
7
  6
CONTINUOUS
 10
92.778934
 20
106.436286
 40
4.000000
 41
1.000000
  1
④
  7
KANJI
 50
0.000000
 51
0.000000
  0
TEXT
  8
1
 62
7
  6
CONTINUOUS
 10
13.982070
 20
105.681165
 40
4.000000
 41
1.000000
  1
測定距離
  7
KANJI
 50
0.000000
 51
30.000000
  0
TEXT
  8
1
 62
7
  6
CONTINUOUS
 10
92.978256
 20
97.669421
 40
4.000000
 41
0.625000
  1
φ6ｻﾞｸﾞﾘ深さ2.5
  7
KANJI
 50
0.000000
 51
0.000000
  0
DIMENSION
  8
1
 62
7
  6
CONTINUOUS
  2
*D6
 10
81.732671
 20
161.509385
 11
114.399398
 21
161.509385
 70
     0
  1
ｹｰﾌﾞﾙ長
 13
81.732671
 23
145.906240
 14
145.049480
 24
145.906240
 50
0.000000
  0
LINE
  8
1
 62
7
  6
CONTINUOUS
 10
48.274418
 20
79.445757
 11
53.335212
 21
95.611546
  0
LINE
  8
1
 62
7
  6
CONTINUOUS
 10
53.335212
 20
95.611546
 11
69.136766
 21
95.611546
  0
TEXT
  8
1
 62
7
  6
CONTINUOUS
 10
55.136766
 20
95.709341
 40
4.000000
 41
0.700000
  1
M3深さ4
  7
KANJI
 50
-0.000000
 51
30.000000
  0
LINE
  8
1
 62
7
  6
CONTINUOUS
 10
48.274418
 20
79.445757
 11
48.357578
 21
81.444028
  0
LINE
  8
1
 62
7
  6
CONTINUOUS
 10
48.274418
 20
79.445757
 11
49.345572
 21
81.134731
  0
LINE
  8
1
 62
7
  6
CONTINUOUS
 10
48.357578
 20
81.444028
 11
49.345572
 21
81.134731
  0
LINE
  8
1
 62
7
  6
CONTINUOUS
 10
48.418708
 20
79.906663
 11
48.460287
 21
80.905798
  0
LINE
  8
1
 62
7
  6
CONTINUOUS
 10
48.418708
 20
79.906663
 11
48.954284
 21
80.751149
  0
LINE
  8
1
 62
7
  6
CONTINUOUS
 10
48.460287
 20
80.905798
 11
48.954284
 21
80.751149
  0
LINE
  8
1
 62
7
  6
CONTINUOUS
 10
68.491473
 20
77.141685
 11
79.257557
 21
60.143357
  0
LINE
  8
1
 62
7
  6
CONTINUOUS
 10
79.257557
 20
60.143357
 11
94.423136
 21
60.143357
  0
TEXT
  8
1
 62
7
  6
CONTINUOUS
 10
80.423136
 20
60.016756
 40
4.000000
 41
0.700000
  1
M3深さ4
  7
KANJI
 50
0.000000
 51
30.000000
  0
LINE
  8
1
 62
7
  6
CONTINUOUS
 10
68.491473
 20
77.141685
 11
69.962452
 21
75.786613
  0
LINE
  8
1
 62
7
  6
CONTINUOUS
 10
68.491473
 20
77.141685
 11
69.087842
 21
75.232669
  0
LINE
  8
1
 62
7
  6
CONTINUOUS
 10
69.962452
 20
75.786613
 11
69.087842
 21
75.232669
  0
LINE
  8
1
 62
7
  6
CONTINUOUS
 10
68.749891
 20
76.733674
 11
69.485381
 21
76.056138
  0
LINE
  8
1
 62
7
  6
CONTINUOUS
 10
68.749891
 20
76.733674
 11
69.048076
 21
75.779166
  0
LINE
  8
1
 62
7
  6
CONTINUOUS
 10
69.485381
 20
76.056138
 11
69.048076
 21
75.779166
  0
DIMENSION
  8
1
 62
7
  6
CONTINUOUS
  2
*D7
 10
35.447198
 20
123.906240
 11
35.447198
 21
154.406240
 70
     0
  1
φ9(ﾚﾝｽﾞ有効径)
 13
34.110285
 23
123.906240
 14
34.196958
 24
132.906240
 50
90.000000
  0
LINE
  8
1
 62
7
  6
CONTINUOUS
 10
44.445922
 20
131.425641
 11
60.350237
 21
160.080911
  0
LINE
  8
1
 62
7
  6
CONTINUOUS
 10
60.350237
 20
160.080911
 11
72.727139
 21
160.080911
  0
TEXT
  8
1
 62
7
  6
CONTINUOUS
 10
64.727139
 20
160.161160
 40
4.000000
 41
0.500000
  1
ﾚﾝｽﾞ
  7
KANJI
 50
0.000000
 51
30.000000
  0
LINE
  8
1
 62
7
  6
CONTINUOUS
 10
44.445922
 20
131.425641
 11
44.930824
 21
133.365968
  0
LINE
  8
1
 62
7
  6
CONTINUOUS
 10
44.445922
 20
131.425641
 11
45.836023
 21
132.863563
  0
LINE
  8
1
 62
7
  6
CONTINUOUS
 10
44.930824
 20
133.365968
 11
45.836023
 21
132.863563
  0
LINE
  8
1
 62
7
  6
CONTINUOUS
 10
44.680297
 20
131.847922
 11
44.922748
 21
132.818086
  0
LINE
  8
1
 62
7
  6
CONTINUOUS
 10
44.680297
 20
131.847922
 11
45.375348
 21
132.566883
  0
LINE
  8
1
 62
7
  6
CONTINUOUS
 10
44.922748
 20
132.818086
 11
45.375348
 21
132.566883
  0
LINE
  8
1
 62
7
  6
CONTINUOUS
 10
106.171555
 20
144.006240
 11
119.498493
 21
125.811154
  0
LINE
  8
1
 62
7
  6
CONTINUOUS
 10
119.498493
 20
125.811154
 11
143.424663
 21
125.811154
  0
TEXT
  8
1
 62
7
  6
CONTINUOUS
 10
125.424663
 20
126.077692
 40
4.000000
 41
0.642857
  1
接続ｹｰﾌﾞﾙ
  7
KANJI
 50
0.000000
 51
30.000000
  0
LINE
  8
1
 62
7
  6
CONTINUOUS
 10
106.171555
 20
144.006240
 11
107.730686
 21
142.753599
  0
LINE
  8
1
 62
7
  6
CONTINUOUS
 10
106.171555
 20
144.006240
 11
106.895481
 21
142.141855
  0
LINE
  8
1
 62
7
  6
CONTINUOUS
 10
107.730686
 20
142.753599
 11
106.895481
 21
142.141855
  0
LINE
  8
1
 62
7
  6
CONTINUOUS
 10
106.456937
 20
143.616612
 11
107.236503
 21
142.990291
  0
LINE
  8
1
 62
7
  6
CONTINUOUS
 10
106.456937
 20
143.616612
 11
106.818900
 21
142.684420
  0
LINE
  8
1
 62
7
  6
CONTINUOUS
 10
107.236503
 20
142.990291
 11
106.818900
 21
142.684420
  0
TEXT
  8
1
 62
7
  6
CONTINUOUS
 10
119.498493
 20
125.811154
 40
4.000000
 41
1.000000
  1
②
  7
KANJI
 50
0.000000
 51
0.000000
  0
TEXT
  8
1
 62
7
  6
CONTINUOUS
 10
59.912439
 20
160.210999
 40
4.000000
 41
1.000000
  1
①
  7
KANJI
 50
0.000000
 51
0.000000
  0
LINE
  8
1
 62
7
  6
CONTINUOUS
 10
86.132671
 20
73.004201
 11
82.526081
 21
73.004201
  0
ARC
  8
1
 62
7
  6
CONTINUOUS
 10
74.602067
 20
71.904201
 40
8.000000
 50
-19.798876
 51
19.724634
  0
LINE
  8
1
 62
7
  6
CONTINUOUS
 10
82.132671
 20
74.604201
 11
81.632671
 21
74.604201
  0
LINE
  8
1
 62
7
  6
CONTINUOUS
 10
82.132671
 20
69.204201
 11
82.132671
 21
74.604201
  0
LINE
  8
1
 62
7
  6
CONTINUOUS
 10
81.632671
 20
69.204201
 11
82.132671
 21
69.204201
  0
LINE
  8
1
 62
7
  6
DASHDOT
 10
76.369578
 20
71.904201
 11
84.771863
 21
71.904201
  0
LINE
  8
1
 62
7
  6
CONTINUOUS
 10
81.632671
 20
80.904201
 11
81.632671
 21
75.504201
  0
ARC
  8
1
 62
7
  6
CONTINUOUS
 10
74.702067
 20
134.806242
 40
8.000000
 50
-19.798876
 51
19.724634
  0
LINE
  8
1
 62
7
  6
CONTINUOUS
 10
82.232671
 20
137.506242
 11
81.732671
 21
137.506242
  0
LINE
  8
1
 62
7
  6
CONTINUOUS
 10
82.232671
 20
132.106242
 11
82.232671
 21
137.506242
  0
LINE
  8
1
 62
7
  6
CONTINUOUS
 10
81.732671
 20
132.106242
 11
82.232671
 21
132.106242
  0
LINE
  8
1
 62
7
  6
CONTINUOUS
 10
81.732671
 20
137.506242
 11
81.732671
 21
132.106242
  0
LINE
  8
1
 62
7
  6
DASHDOT
 10
49.553024
 20
117.406239
 11
57.319529
 21
117.406239
  0
LINE
  8
1
 62
7
  6
DOT
 10
45.932671
 20
113.406240
 11
45.932671
 21
117.406240
  0
LINE
  8
1
 62
7
  6
DOT
 10
46.132671
 20
113.406240
 11
46.132671
 21
117.406240
  0
LINE
  8
1
 62
7
  6
DOT
 10
48.738259
 20
113.406240
 11
48.738259
 21
117.406240
  0
LINE
  8
1
 62
7
  6
DOT
 10
48.932671
 20
113.406240
 11
48.932671
 21
117.406240
  0
LINE
  8
1
 62
7
  6
DOT
 10
45.182671
 20
117.406240
 11
45.182671
 21
113.406240
  0
LINE
  8
1
 62
7
  6
DOT
 10
49.682671
 20
113.406240
 11
49.682671
 21
117.406239
  0
LINE
  8
1
 62
7
  6
DOT
 10
45.182671
 20
117.406240
 11
49.682671
 21
117.406240
  0
LINE
  8
1
 62
7
  6
DOT
 10
46.832671
 20
117.406240
 11
46.832671
 21
118.947740
  0
LINE
  8
1
 62
7
  6
DOT
 10
48.032671
 20
117.406240
 11
48.032671
 21
118.947740
  0
LINE
  8
1
 62
7
  6
DASHDOT
 10
47.432671
 20
112.332216
 11
47.432671
 21
119.005340
  0
DIMENSION
  8
1
 62
7
  6
CONTINUOUS
  2
*D8
 10
88.864819
 20
113.406240
 11
88.864819
 21
114.406240
 70
     0
  1
4
 13
85.732671
 23
113.406240
 14
80.348176
 24
117.406240
 50
90.000000
  0
LINE
  8
1
 62
7
  6
CONTINUOUS
 10
74.196650
 20
116.195927
 11
93.110047
 21
101.808937
  0
LINE
  8
1
 62
7
  6
CONTINUOUS
 10
93.110047
 20
101.808937
 11
107.421087
 21
101.808937
  0
TEXT
  8
1
 62
7
  6
CONTINUOUS
 10
93.421087
 20
101.905772
 40
4.000000
 41
0.583333
  1
2-φ3.5
  7
KANJI
 50
0.000000
 51
30.000000
  0
LINE
  8
1
 62
7
  6
CONTINUOUS
 10
74.196650
 20
116.195927
 11
76.047606
 21
115.438325
  0
LINE
  8
1
 62
7
  6
CONTINUOUS
 10
74.196650
 20
116.195927
 11
75.420824
 21
114.614346
  0
LINE
  8
1
 62
7
  6
CONTINUOUS
 10
76.047606
 20
115.438325
 11
75.420824
 21
114.614346
  0
LINE
  8
1
 62
7
  6
CONTINUOUS
 10
74.581041
 20
115.903529
 11
75.506519
 21
115.524728
  0
LINE
  8
1
 62
7
  6
CONTINUOUS
 10
74.581041
 20
115.903529
 11
75.193128
 21
115.112739
  0
LINE
  8
1
 62
7
  6
CONTINUOUS
 10
75.506519
 20
115.524728
 11
75.193128
 21
115.112739
  0
LINE
  8
1
 62
7
  6
DASHDOT
 10
67.432671
 20
112.332216
 11
67.432671
 21
118.203922
  0
DIMENSION
  8
1
 62
7
  6
CONTINUOUS
  2
*D9
 10
40.732671
 20
105.715578
 11
46.832671
 21
105.715578
 70
     0
  1
12.2
 13
40.732671
 23
111.406240
 14
52.932671
 24
111.406240
 50
0.000000
  0
DIMENSION
  8
1
 62
7
  6
CONTINUOUS
  2
*D10
 10
52.932671
 20
105.715578
 11
62.932671
 21
105.715578
 70
     0
  1
20
 13
52.932671
 23
105.715578
 14
72.932671
 24
111.406240
 50
0.000000
  0
CIRCLE
  8
1
 62
7
  6
CONTINUOUS
 10
72.932671
 20
117.406237
 40
3.000000
  0
CIRCLE
  8
1
 62
7
  6
CONTINUOUS
 10
52.932671
 20
117.406239
 40
3.000000
  0
LINE
  8
1
 62
7
  6
DASHDOT
 10
52.932671
 20
113.308531
 11
52.932671
 21
121.123373
  0
LINE
  8
1
 62
7
  6
DASHDOT
 10
68.556119
 20
117.406240
 11
77.319529
 21
117.406240
  0
LINE
  8
1
 62
7
  6
DASHDOT
 10
72.932671
 20
113.308532
 11
72.932671
 21
121.397433
  0
CIRCLE
  8
1
 62
7
  6
CONTINUOUS
 10
72.932671
 20
117.406240
 40
1.750000
  0
CIRCLE
  8
1
 62
7
  6
CONTINUOUS
 10
52.932671
 20
117.406239
 40
1.750000
  0
DIMENSION
  8
1
 62
7
  6
CONTINUOUS
  2
*D11
 10
40.732671
 20
58.736665
 11
44.461514
 21
58.736665
 70
     0
  1
6.7
 13
40.732671
 23
62.954201
 14
47.432671
 24
76.204201
 50
0.000000
  0
DIMENSION
  8
1
 62
7
  6
CONTINUOUS
  2
*D12
 10
47.432671
 20
58.736665
 11
57.749319
 21
58.736665
 70
     0
  1
20
 13
47.432671
 23
74.974201
 14
67.432671
 24
74.974201
 50
0.000000
  0
LINE
  8
1
 62
7
  6
DASHDOT
 10
47.432671
 20
80.205571
 11
47.432671
 21
76.288171
  0
LINE
  8
1
 62
7
  6
DASHDOT
 10
67.432671
 20
80.205571
 11
67.432671
 21
76.288171
  0
CIRCLE
  8
1
 62
7
  6
CONTINUOUS
 10
67.432671
 20
78.204201
 40
1.500000
  0
CIRCLE
  8
1
 62
7
  6
CONTINUOUS
 10
67.432671
 20
78.204201
 40
1.230000
  0
CIRCLE
  8
1
 62
7
  6
CONTINUOUS
 10
47.432671
 20
78.204201
 40
1.500000
  0
CIRCLE
  8
1
 62
7
  6
CONTINUOUS
 10
47.432671
 20
78.204201
 40
1.230000
  0
LINE
  8
1
 62
7
  6
CONTINUOUS
 10
80.032671
 20
91.454201
 11
80.032671
 21
64.954201
  0
LINE
  8
1
 62
7
  6
CONTINUOUS
 10
80.032671
 20
64.954201
 11
81.632671
 21
64.954201
  0
LINE
  8
1
 62
7
  6
CONTINUOUS
 10
81.632671
 20
64.954201
 11
81.632671
 21
91.454201
  0
LINE
  8
1
 62
7
  6
CONTINUOUS
 10
81.632671
 20
91.454201
 11
80.032671
 21
91.454201
  0
LINE
  8
1
 62
7
  6
CONTINUOUS
 10
40.732671
 20
91.454201
 11
40.732671
 21
64.954201
  0
LINE
  8
1
 62
7
  6
CONTINUOUS
 10
40.732671
 20
64.954201
 11
80.032671
 21
64.954201
  0
LINE
  8
1
 62
7
  6
CONTINUOUS
 10
80.032671
 20
64.954201
 11
80.032671
 21
91.454201
  0
LINE
  8
1
 62
7
  6
CONTINUOUS
 10
80.032671
 20
91.454201
 11
40.732671
 21
91.454201
  0
DIMENSION
  8
1
 62
7
  6
CONTINUOUS
  2
*D13
 10
32.173709
 20
64.954201
 11
32.173709
 21
78.260989
 70
     0
  1
26.5
 13
38.732671
 23
64.954201
 14
38.732671
 24
91.454201
 50
90.000000
  0
DIMENSION
  8
1
 62
7
  6
CONTINUOUS
  2
*D14
 10
102.918795
 20
73.004201
 11
102.918795
 21
66.948461
 70
     0
  1
11
 13
88.132671
 23
73.004201
 14
88.132671
 24
83.404201
 50
90.000000
  0
LINE
  8
1
 62
7
  6
CONTINUOUS
 10
96.132671
 20
75.704201
 11
86.132671
 21
75.704201
  0
LINE
  8
1
 62
7
  6
CONTINUOUS
 10
96.132671
 20
80.704201
 11
96.132671
 21
75.704201
  0
LINE
  8
1
 62
7
  6
CONTINUOUS
 10
86.132671
 20
80.704201
 11
96.132671
 21
80.704201
  0
LINE
  8
1
 62
7
  6
CONTINUOUS
 10
86.132671
 20
76.304201
 11
112.393747
 21
76.304201
  0
LINE
  8
1
 62
7
  6
CONTINUOUS
 10
113.343747
 20
80.104201
 11
86.132671
 21
80.104201
  0
LINE
  8
1
 62
7
  6
CONTINUOUS
 10
86.132671
 20
83.404201
 11
86.132671
 21
73.004201
  0
LINE
  8
1
 62
7
  6
CONTINUOUS
 10
81.632671
 20
83.404201
 11
86.132671
 21
83.404201
  0
DIMENSION
  8
1
 62
7
  6
CONTINUOUS
  2
*D15
 10
40.732671
 20
169.273468
 11
61.841886
 21
169.273468
 70
     0
  1
41
 13
40.732671
 23
156.606240
 14
81.732671
 24
156.606240
 50
0.000000
  0
LINE
  8
1
 62
7
  6
CONTINUOUS
 10
40.732671
 20
154.606240
 11
81.732671
 21
154.606240
  0
LINE
  8
1
 62
7
  6
CONTINUOUS
 10
81.732671
 20
113.406240
 11
81.732671
 21
154.606240
  0
LINE
  8
1
 62
7
  6
CONTINUOUS
 10
95.932671
 20
143.406240
 11
86.232671
 21
143.406240
  0
LINE
  8
1
 62
7
  6
CONTINUOUS
 10
86.232671
 20
148.406240
 11
95.932671
 21
148.406240
  0
LINE
  8
1
 62
7
  6
CONTINUOUS
 10
86.232671
 20
144.006240
 11
112.393747
 21
144.006240
  0
LINE
  8
1
 62
7
  6
CONTINUOUS
 10
113.343747
 20
147.806240
 11
86.232671
 21
147.806240
  0
DIMENSION
  8
1
 62
7
  6
CONTINUOUS
  2
*D16
 10
81.732671
 20
169.273468
 11
91.618299
 21
169.273468
 70
     0
  1
4.5
 13
81.732671
 23
154.806240
 14
86.232671
 24
154.806240
 50
0.000000
  0
DIMENSION
  8
1
 62
7
  6
CONTINUOUS
  2
*D17
 10
97.865990
 20
113.406240
 11
97.865990
 21
128.149241
 70
     0
  1
32.5
 13
83.732671
 23
113.406240
 14
88.232671
 24
145.906240
 50
90.000000
  0
LINE
  8
1
 62
7
  6
CONTINUOUS
 10
81.732671
 20
152.806240
 11
81.732671
 21
140.806240
  0
LINE
  8
1
 62
7
  6
CONTINUOUS
 10
81.732671
 20
140.806240
 11
86.232671
 21
140.806240
  0
LINE
  8
1
 62
7
  6
CONTINUOUS
 10
86.232671
 20
140.806240
 11
86.232671
 21
152.806240
  0
LINE
  8
1
 62
7
  6
CONTINUOUS
 10
86.232671
 20
152.806240
 11
81.732671
 21
152.806240
  0
LINE
  8
1
 62
7
  6
DOT
 10
81.732671
 20
143.506240
 11
86.232671
 21
143.506240
  0
LINE
  8
1
 62
7
  6
DOT
 10
81.732671
 20
148.306240
 11
86.232671
 21
148.306240
  0
LINE
  8
1
 62
7
  6
DOT
 10
79.432671
 20
142.806240
 11
81.732671
 21
142.806240
  0
LINE
  8
1
 62
7
  6
DOT
 10
79.432671
 20
152.306240
 11
81.732671
 21
152.306240
  0
LINE
  8
1
 62
7
  6
CONTINUOUS
 10
80.032671
 20
113.406240
 11
81.732671
 21
113.406240
  0
LINE
  8
1
 62
7
  6
CONTINUOUS
 10
80.032671
 20
114.406240
 11
80.032671
 21
154.606240
  0
LINE
  8
1
 62
7
  6
DASHDOT
 10
80.032671
 20
145.906240
 11
137.774549
 21
145.906240
  0
LINE
  8
1
 62
7
  6
CONTINUOUS
 10
80.032671
 20
113.406240
 11
40.732671
 21
113.406240
  0
LINE
  8
1
 62
7
  6
CONTINUOUS
 10
80.032671
 20
114.406240
 11
80.032671
 21
113.406240
  0
LINE
  8
1
 62
7
  6
CONTINUOUS
 10
95.932671
 20
148.406240
 11
95.932671
 21
143.406240
  0
LINE
  8
1
 62
7
  6
DASHDOT
 10
71.950616
 20
145.906240
 11
95.632671
 21
145.906240
  0
LINE
  8
1
 62
7
  6
DASHDOT
 10
27.532671
 20
128.406240
 11
77.972657
 21
128.406240
  0
LINE
  8
1
 62
7
  6
DASHDOT
 10
76.469578
 20
134.806242
 11
84.871863
 21
134.806242
  0
DIMENSION
  8
1
 62
7
  6
CONTINUOUS
  2
*D18
 10
19.722513
 20
113.406240
 11
19.722513
 21
133.661056
 70
     0
  1
41.2
 13
36.732671
 23
113.406240
 14
36.732671
 24
154.606240
 50
90.000000
  0
LINE
  8
1
 62
7
  6
CONTINUOUS
 10
40.732671
 20
113.406240
 11
40.732671
 21
154.606240
  0
DIMENSION
  8
1
 62
7
  6
CONTINUOUS
  2
*D19
 10
124.111953
 20
144.006240
 11
124.111953
 21
154.357894
 70
     0
  1
φ3.8
 13
124.111953
 23
144.006240
 14
124.111953
 24
147.806240
 50
90.000000
  0
LINE
  8
1
 62
7
  6
CONTINUOUS
 10
155.049480
 20
143.756240
 11
145.049480
 21
143.756240
  0
LINE
  8
1
 62
7
  6
CONTINUOUS
 10
145.049480
 20
148.056240
 11
155.049480
 21
148.056240
  0
LINE
  8
1
 62
7
  6
CONTINUOUS
 10
113.453417
 20
144.006240
 11
145.049480
 21
144.006240
  0
LINE
  8
1
 62
7
  6
CONTINUOUS
 10
145.049480
 20
147.806240
 11
114.403417
 21
147.806240
  0
DIMENSION
  8
1
 62
7
  6
CONTINUOUS
  2
*D20
 10
145.049480
 20
161.509385
 11
173.361280
 21
161.509385
 70
     0
  1
100
 13
145.049480
 23
147.906240
 14
200.874436
 24
151.915404
 50
0.000000
  0
DIMENSION
  8
1
 62
7
  6
CONTINUOUS
  2
*D21
 10
15.538297
 20
113.406240
 11
15.538297
 21
121.398934
 70
     0
  1
15
 13
36.732671
 23
113.406240
 14
36.732671
 24
128.406240
 50
90.000000
  0
DIMENSION
  8
1
 62
7
  6
CONTINUOUS
  2
*D22
 10
26.194102
 20
118.406242
 11
26.194102
 21
128.406240
 70
     0
  1
M20P0.75
 13
38.732671
 23
118.406242
 14
38.732671
 24
138.406238
 50
90.000000
  0
DIMENSION
  8
1
 62
7
  6
CONTINUOUS
  2
*D23
 10
31.270951
 20
121.406240
 11
31.270951
 21
128.406240
 70
     0
  1
φ14
 13
38.732671
 23
121.406240
 14
38.732671
 24
135.406240
 50
90.000000
  0
LINE
  8
1
 62
7
  6
DASHDOT
 10
28.551704
 20
123.906240
 11
45.332671
 21
123.906240
  0
LINE
  8
1
 62
7
  6
DASHDOT
 10
45.332671
 20
123.906238
 11
57.589814
 21
126.263383
  0
LINE
  8
1
 62
7
  6
DASHDOT
 10
28.551704
 20
132.906240
 11
45.332671
 21
132.906240
  0
LINE
  8
1
 62
7
  6
DASHDOT
 10
61.311619
 20
129.985188
 11
45.332671
 21
132.906242
  0
LINE
  8
1
 62
7
  6
DOT
 10
40.732671
 20
121.406240
 11
50.918338
 21
121.406240
  0
LINE
  8
1
 62
7
  6
DOT
 10
40.732671
 20
135.406240
 11
50.658319
 21
135.406240
  0
LINE
  8
1
 62
7
  6
DOT
 10
56.777053
 20
125.450622
 11
62.496463
 21
131.170032
  0
LINE
  8
1
 62
7
  6
DOT
 10
45.332671
 20
123.406242
 11
45.332671
 21
133.406242
  0
LINE
  8
1
 62
7
  6
DOT
 10
45.332671
 20
123.406242
 11
44.373568
 21
123.406242
  0
LINE
  8
1
 62
7
  6
DOT
 10
45.332671
 20
133.406242
 11
44.376233
 21
133.406242
  0
ARC
  8
1
 62
7
  6
DOT
 10
55.832671
 20
128.406240
 40
12.500000
 50
156.421812
 51
-156.452375
  0
LINE
  8
1
 62
7
  6
DASHDOT
 10
59.732672
 20
141.406242
 11
57.589814
 21
126.263383
  0
LINE
  8
1
 62
7
  6
DASHDOT
 10
61.311619
 20
129.985188
 11
59.732672
 21
141.406242
  0
LINE
  8
1
 62
7
  6
DASHDOT
 10
59.732671
 20
125.258963
 11
59.732671
 21
142.989901
  0
LINE
  8
1
 62
7
  6
DASHDOT
 10
72.731631
 20
128.406240
 11
60.195917
 21
128.406240
  0
DIMENSION
  8
1
 62
7
  6
CONTINUOUS
  2
*D24
 10
40.732671
 20
144.119715
 11
43.545551
 21
144.119715
 70
     0
  1
5
 13
40.732671
 23
140.406238
 14
46.232671
 24
140.406238
 50
0.000000
  0
LINE
  8
1
 62
7
  6
DOT
 10
40.732671
 20
137.864740
 11
47.932671
 21
137.864740
  0
LINE
  8
1
 62
7
  6
DOT
 10
47.932671
 20
137.864740
 11
47.932671
 21
118.947740
  0
LINE
  8
1
 62
7
  6
DOT
 10
40.732671
 20
118.947740
 11
47.932671
 21
118.947740
  0
LINE
  8
1
 62
7
  6
DOT
 10
40.732671
 20
138.406238
 11
46.232671
 21
138.406238
  0
LINE
  8
1
 62
7
  6
DOT
 10
46.232671
 20
118.406242
 11
46.232671
 21
138.406238
  0
LINE
  8
1
 62
7
  6
DOT
 10
40.732671
 20
118.406242
 11
46.232671
 21
118.406242
  0
TEXT
  8
1
 62
7
  6
DASHDOT
 10
213.291277
 20
158.873284
 40
4.000000
 41
0.600000
  1
1：GND
  7
KANJI
 50
0.000000
 51
0.000000
  0
TEXT
  8
1
 62
7
  6
DASHDOT
 10
213.111159
 20
128.894971
 40
4.000000
 41
0.583333
  1
4：DC+4.7～27V
  7
KANJI
 50
0.000000
 51
0.000000
  0
LINE
  8
1
 62
7
  6
DASHDOT
 10
35.099348
 20
78.204201
 11
112.484731
 21
78.204201
  0
CIRCLE
  8
1
 62
7
  6
CONTINUOUS
 10
203.345771
 20
132.965288
 40
1.500000
  0
CIRCLE
  8
1
 62
7
  6
CONTINUOUS
 10
204.859215
 20
141.548453
 40
1.500000
  0
CIRCLE
  8
1
 62
7
  6
CONTINUOUS
 10
204.859215
 20
150.264027
 40
1.500000
  0
CIRCLE
  8
1
 62
7
  6
CONTINUOUS
 10
203.345771
 20
158.847193
 40
1.500000
  0
LINE
  8
1
 62
7
  6
CONTINUOUS
 10
185.122590
 20
153.446668
 11
155.178889
 21
145.423277
  0
LINE
  8
1
 62
7
  6
CONTINUOUS
 10
184.863771
 20
154.412594
 11
154.920070
 21
146.389203
  0
LINE
  8
1
 62
7
  6
DASHDOT
 10
209.498375
 20
160.495778
 11
153.073561
 21
145.376794
  0
LINE
  8
1
 62
7
  6
CONTINUOUS
 10
198.886784
 20
160.033546
 11
184.397897
 21
156.151260
  0
LINE
  8
1
 62
7
  6
CONTINUOUS
 10
184.397897
 20
156.151260
 11
185.588464
 21
151.708001
  0
LINE
  8
1
 62
7
  6
CONTINUOUS
 10
185.588464
 20
151.708001
 11
200.077352
 21
155.590287
  0
LINE
  8
1
 62
7
  6
CONTINUOUS
 10
200.077352
 20
155.590287
 11
198.886784
 21
160.033546
  0
ARC
  8
1
 62
7
  6
CONTINUOUS
 10
203.345771
 20
158.847193
 40
3.250000
 50
-127.020128
 51
157.020128
  0
LINE
  8
1
 62
7
  6
CONTINUOUS
 10
199.999706
 20
155.880065
 11
201.388961
 21
156.252314
  0
LINE
  8
1
 62
7
  6
CONTINUOUS
 10
198.964430
 20
159.743768
 11
200.353684
 21
160.116018
  0
LINE
  8
1
 62
7
  6
CONTINUOUS
 10
185.975093
 20
148.109971
 11
155.093058
 21
145.408143
  0
LINE
  8
1
 62
7
  6
CONTINUOUS
 10
185.887938
 20
149.106166
 11
155.005902
 21
146.404338
  0
LINE
  8
1
 62
7
  6
DASHDOT
 10
211.204621
 20
150.819179
 11
153.011642
 21
145.727953
  0
LINE
  8
1
 62
7
  6
CONTINUOUS
 10
200.673978
 20
152.206652
 11
185.731057
 21
150.899316
  0
LINE
  8
1
 62
7
  6
CONTINUOUS
 10
185.731057
 20
150.899316
 11
186.131974
 21
146.316821
  0
LINE
  8
1
 62
7
  6
CONTINUOUS
 10
186.131974
 20
146.316821
 11
201.074894
 21
147.624157
  0
LINE
  8
1
 62
7
  6
CONTINUOUS
 10
201.074894
 20
147.624157
 11
200.673978
 21
152.206652
  0
ARC
  8
1
 62
7
  6
CONTINUOUS
 10
204.859215
 20
150.264027
 40
3.250000
 50
-137.020128
 51
147.020128
  0
LINE
  8
1
 62
7
  6
CONTINUOUS
 10
201.048747
 20
147.923015
 11
202.481537
 21
148.048368
  0
LINE
  8
1
 62
7
  6
CONTINUOUS
 10
200.700124
 20
151.907794
 11
202.132914
 21
152.033147
  0
LINE
  8
1
 62
7
  6
CONTINUOUS
 10
184.863771
 20
137.399887
 11
154.920070
 21
145.423277
  0
LINE
  8
1
 62
7
  6
CONTINUOUS
 10
185.122590
 20
138.365813
 11
155.178889
 21
146.389203
  0
LINE
  8
1
 62
7
  6
DASHDOT
 10
209.498375
 20
131.316703
 11
153.073561
 21
146.435686
  0
LINE
  8
1
 62
7
  6
CONTINUOUS
 10
200.077352
 20
136.222194
 11
185.588464
 21
140.104479
  0
LINE
  8
1
 62
7
  6
CONTINUOUS
 10
185.588464
 20
140.104479
 11
184.397897
 21
135.661220
  0
LINE
  8
1
 62
7
  6
CONTINUOUS
 10
184.397897
 20
135.661220
 11
198.886784
 21
131.778935
  0
LINE
  8
1
 62
7
  6
CONTINUOUS
 10
198.886784
 20
131.778935
 11
200.077352
 21
136.222194
  0
ARC
  8
1
 62
7
  6
CONTINUOUS
 10
203.345771
 20
132.965288
 40
3.250000
 50
-157.020128
 51
127.020128
  0
LINE
  8
1
 62
7
  6
CONTINUOUS
 10
198.964430
 20
132.068713
 11
200.353684
 21
131.696463
  0
LINE
  8
1
 62
7
  6
CONTINUOUS
 10
199.999706
 20
135.932416
 11
201.388961
 21
135.560166
  0
LINE
  8
1
 62
7
  6
CONTINUOUS
 10
185.887938
 20
142.706315
 11
155.005902
 21
145.408143
  0
LINE
  8
1
 62
7
  6
CONTINUOUS
 10
185.975093
 20
143.702510
 11
155.093058
 21
146.404338
  0
LINE
  8
1
 62
7
  6
DASHDOT
 10
211.204621
 20
140.993302
 11
153.011642
 21
146.084528
  0
LINE
  8
1
 62
7
  6
CONTINUOUS
 10
201.074894
 20
144.188324
 11
186.131974
 21
145.495660
  0
LINE
  8
1
 62
7
  6
CONTINUOUS
 10
186.131974
 20
145.495660
 11
185.731057
 21
140.913164
  0
LINE
  8
1
 62
7
  6
CONTINUOUS
 10
185.731057
 20
140.913164
 11
200.673978
 21
139.605828
  0
LINE
  8
1
 62
7
  6
CONTINUOUS
 10
200.673978
 20
139.605828
 11
201.074894
 21
144.188324
  0
ARC
  8
1
 62
7
  6
CONTINUOUS
 10
204.859215
 20
141.548453
 40
3.250000
 50
-147.020128
 51
137.020128
  0
LINE
  8
1
 62
7
  6
CONTINUOUS
 10
200.700124
 20
139.904687
 11
202.132914
 21
139.779334
  0
LINE
  8
1
 62
7
  6
CONTINUOUS
 10
201.048747
 20
143.889466
 11
202.481537
 21
143.764113
  0
LINE
  8
1
 62
7
  6
DASHDOT
 10
155.049480
 20
145.906240
 11
127.049480
 21
145.906240
  0
LINE
  8
1
 62
7
  6
CONTINUOUS
 10
155.049480
 20
148.056240
 11
155.049480
 21
143.756240
  0
LINE
  8
1
 62
7
  6
CONTINUOUS
 10
113.581620
 20
148.757734
 11
112.132902
 21
142.962864
  0
LINE
  8
1
 62
7
  6
CONTINUOUS
 10
114.630543
 20
148.714745
 11
113.186124
 21
142.937071
  0
LINE
  8
1
 62
7
  6
CONTINUOUS
 10
145.049480
 20
143.706240
 11
145.049480
 21
148.106240
  0
LINE
  8
1
 62
7
  6
CONTINUOUS
 10
134.049480
 20
148.406240
 11
134.049480
 21
143.406240
  0
LINE
  8
1
 62
7
  6
CONTINUOUS
 10
134.049480
 20
143.406240
 11
155.049480
 21
143.406240
  0
LINE
  8
1
 62
7
  6
CONTINUOUS
 10
155.049480
 20
143.406240
 11
155.049480
 21
148.406240
  0
LINE
  8
1
 62
7
  6
CONTINUOUS
 10
155.049480
 20
148.406240
 11
134.049480
 21
148.406240
  0
LINE
  8
1
 62
7
  6
CONTINUOUS
 10
155.049480
 20
144.306240
 11
145.049480
 21
144.306240
  0
LINE
  8
1
 62
7
  6
CONTINUOUS
 10
155.049480
 20
145.106240
 11
145.049480
 21
145.106240
  0
LINE
  8
1
 62
7
  6
CONTINUOUS
 10
155.049480
 20
145.906240
 11
145.049480
 21
145.906240
  0
LINE
  8
1
 62
7
  6
CONTINUOUS
 10
155.049480
 20
146.706240
 11
145.049480
 21
146.706240
  0
LINE
  8
1
 62
7
  6
CONTINUOUS
 10
155.049480
 20
147.506240
 11
145.049480
 21
147.506240
  0
LINE
  8
1
 62
7
  6
DASHDOT
 10
71.815036
 20
145.906240
 11
100.740716
 21
145.906240
  0
LINE
  8
1
 62
7
  6
CONTINUOUS
 10
40.732671
 20
105.681165
 11
38.800820
 21
105.163527
  0
LINE
  8
1
 62
7
  6
CONTINUOUS
 10
38.800820
 20
105.163527
 11
38.800820
 21
106.198803
  0
LINE
  8
1
 62
7
  6
CONTINUOUS
 10
38.800820
 20
106.198803
 11
40.732671
 21
105.681165
  0
LINE
  8
1
 62
7
  6
CONTINUOUS
 10
11.849045
 20
105.681165
 11
40.732671
 21
105.681165
  0
TEXT
  8
1
 62
7
  6
CONTINUOUS
 10
196.211093
 20
19.750828
 40
4.000000
 41
1.000000
  1
須藤
  7
KANJI
 50
0.810149
 51
0.000000
  0
TEXT
  8
1
 62
7
  6
CONTINUOUS
 10
208.995861
 20
27.290563
 40
4.000000
 41
1.000000
  1
三角法
  7
KANJI
 50
0.000000
 51
0.000000
  0
TEXT
  8
1
 62
7
  6
CONTINUOUS
 10
209.979305
 20
35.649834
 40
4.000000
 41
1.000000
  1
１／１
  7
KANJI
 50
0.000000
 51
0.000000
  0
LINE
  8
1
 62
7
  6
CONTINUOUS
 10
215.000000
 20
26.000000
 11
215.000000
 21
18.000000
  0
LINE
  8
1
 62
7
  6
CONTINUOUS
 10
195.000000
 20
26.000000
 11
195.000000
 21
18.000000
  0
LINE
  8
1
 62
7
  6
CONTINUOUS
 10
210.000000
 20
18.000000
 11
210.000000
 21
26.000000
  0
LINE
  8
1
 62
7
  6
CONTINUOUS
 10
190.000000
 20
18.000000
 11
190.000000
 21
26.000000
  0
LINE
  8
1
 62
7
  6
CONTINUOUS
 10
200.000000
 20
42.000000
 11
200.000000
 21
26.000000
  0
LINE
  8
1
 62
7
  6
CONTINUOUS
 10
165.000000
 20
34.000000
 11
230.000000
 21
34.000000
  0
LINE
  8
1
 62
7
  6
CONTINUOUS
 10
170.000000
 20
18.000000
 11
170.000000
 21
42.000000
  0
LINE
  8
1
 62
7
  6
CONTINUOUS
 10
205.000000
 20
42.000000
 11
205.000000
 21
26.000000
  0
LINE
  8
1
 62
7
  6
CONTINUOUS
 10
235.000000
 20
18.000000
 11
235.000000
 21
42.000000
  0
LINE
  8
1
 62
7
  6
CONTINUOUS
 10
285.000000
 20
26.000000
 11
165.000000
 21
26.000000
  0
LINE
  8
1
 62
7
  6
CONTINUOUS
 10
230.000000
 20
42.000000
 11
230.000000
 21
18.000000
  0
LINE
  8
1
 62
7
  6
CONTINUOUS
 10
285.000000
 20
18.000000
 11
165.000000
 21
18.000000
  0
LINE
  8
1
 62
7
  6
CONTINUOUS
 10
165.000000
 20
10.000000
 11
165.000000
 21
42.000000
  0
LINE
  8
1
 62
7
  6
CONTINUOUS
 10
165.000000
 20
42.000000
 11
285.000000
 21
42.000000
  0
TEXT
  8
1
 62
7
  6
CONTINUOUS
 10
184.409768
 20
11.555464
 40
4.500000
 41
1.888889
  1
ジャパンセンサー株式会社
  7
KANJI
 50
0.000000
 51
0.000000
  0
TEXT
  8
1
 62
7
  6
CONTINUOUS
 10
190.966060
 20
25.487583
 40
1.750000
 41
4.000000
  1
設計
  7
KANJI
 50
-90.000000
 51
0.000000
  0
TEXT
  8
1
 62
7
  6
CONTINUOUS
 10
165.888245
 20
25.487583
 40
1.750000
 41
4.000000
  1
承認
  7
KANJI
 50
-90.000000
 51
0.000000
  0
TEXT
  8
1
 62
7
  6
CONTINUOUS
 10
165.888245
 20
41.386589
 40
1.750000
 41
4.000000
  1
公差
  7
KANJI
 50
-90.000000
 51
0.000000
  0
TEXT
  8
1
 62
7
  6
CONTINUOUS
 10
200.800497
 20
41.550497
 40
1.750000
 41
4.000000
  1
尺度
  7
KANJI
 50
-90.000000
 51
0.000000
  0
TEXT
  8
1
 62
7
  6
CONTINUOUS
 10
200.964404
 20
33.519040
 40
1.750000
 41
4.000000
  1
図法
  7
KANJI
 50
-90.000000
 51
0.000000
  0
TEXT
  8
1
 62
7
  6
CONTINUOUS
 10
165.888245
 20
33.355132
 40
1.750000
 41
4.000000
  1
日付
  7
KANJI
 50
-90.000000
 51
0.000000
  0
TEXT
  8
1
 62
7
  6
CONTINUOUS
 10
230.795530
 20
38.764073
 40
1.750000
 41
4.000000
  1
図　名
  7
KANJI
 50
-90.000000
 51
0.000000
  0
TEXT
  8
1
 62
7
  6
CONTINUOUS
 10
230.795530
 20
25.487583
 40
1.750000
 41
4.000000
  1
図番
  7
KANJI
 50
-90.000000
 51
0.000000
  0
TEXT
  8
1
 62
7
  6
CONTINUOUS
 10
210.962748
 20
25.651490
 40
1.750000
 41
4.000000
  1
製図
  7
KANJI
 50
-90.000000
 51
0.000000
  0
LINE
  8
1
 62
7
  6
CONTINUOUS
 10
285.000000
 20
195.000000
 11
10.000000
 21
195.000000
  0
LINE
  8
1
 62
7
  6
CONTINUOUS
 10
10.000000
 20
195.000000
 11
10.000000
 21
10.000000
  0
LINE
  8
1
 62
7
  6
CONTINUOUS
 10
10.000000
 20
10.000000
 11
285.000000
 21
10.000000
  0
LINE
  8
1
 62
7
  6
CONTINUOUS
 10
285.000000
 20
10.000000
 11
285.000000
 21
195.000000
  0
ENDSEC
  0
EOF
